osu file format v14

[General]
AudioFilename: gimmme1.0.mp3
AudioLeadIn: 0
PreviewTime: 124615
Countdown: 0
SampleSet: Soft
StackLeniency: 0.7
Mode: 3
LetterboxInBreaks: 0
SpecialStyle: 0
WidescreenStoryboard: 0

[Editor]
DistanceSpacing: 2
BeatDivisor: 4
GridSize: 4
TimelineZoom: 4.099998

[Metadata]
Title:Gimmme!
TitleUnicode:Gimmme!
Artist:ORESAMA
ArtistUnicode:ORESAMA
Creator:Lung_P
Version:Oyasumi 1.0x
Source:魔王城でおやすみ
Tags:Anime Japanese Pop JPop J-Pop Sleepy Princess in the Demon Castle Maoujou de Oyasumi Ending ED LACM-24047
BeatmapID:3498411
BeatmapSetID:1712056

[Difficulty]
HPDrainRate:8
CircleSize:7
OverallDifficulty:8
ApproachRate:5
SliderMultiplier:1.4
SliderTickRate:1

[Events]
//Background and Video events
0,0,"88224725_p0.jpg",0,0
//Break Periods
//Storyboard Layer 0 (Background)
//Storyboard Layer 1 (Fail)
//Storyboard Layer 2 (Pass)
//Storyboard Layer 3 (Foreground)
//Storyboard Layer 4 (Overlay)
//Storyboard Sound Samples

[TimingPoints]
1965,451.127819548872,4,2,0,5,1,0
5122,-20,4,2,0,5,0,0
5179,-133.333333333333,4,2,0,5,0,0
5348,-100,4,2,0,5,0,0
5574,-100,4,2,0,5,0,1
20010,-100,4,2,0,5,0,0
48431,-20,4,2,0,5,0,0
48488,-133.333333333333,4,2,0,5,0,0
48657,-100,4,2,0,5,0,0
48882,-100,4,2,0,5,0,1
61513,-100,4,2,0,5,0,0
63318,-100,4,2,0,5,0,1
77754,-100,4,2,0,5,0,0
80912,-20,4,2,0,5,0,0
80969,-133.333333333333,4,2,0,5,0,0
81138,-100,4,2,0,5,0,0
81363,-100,4,2,0,5,0,1
95799,-100,4,2,0,5,0,0
124220,-20,4,2,0,5,0,0
124277,-133.333333333333,4,2,0,5,0,0
124446,-100,4,2,0,5,0,0
124671,-100,4,2,0,5,0,1
137303,-100,4,2,0,5,0,0
139107,-100,4,2,0,5,0,1
153543,-100,4,2,0,5,0,1
153600,-100,4,2,0,5,0,0
181964,-20,4,2,0,5,0,0
182021,-133.333333333333,4,2,0,5,0,0
182190,-100,4,2,0,5,0,0
182867,-100,4,2,0,5,0,1
195047,-100,4,2,0,5,0,0
196852,-100,4,2,0,5,0,1
211288,-100,4,2,0,5,0,0
214446,-20,4,2,0,5,0,0
214503,-133.333333333333,4,2,0,5,0,0
214672,-100,4,2,0,5,0,0
214897,-100,4,2,0,5,0,1
227528,-100,4,2,0,5,0,0
229333,-100,4,2,0,5,0,1
243769,-100,4,2,0,5,0,0

[HitObjects]
182,192,1965,128,0,3769:0:0:0:0:
329,192,2416,128,0,3769:0:0:0:0:
36,192,2867,128,0,3769:0:0:0:0:
475,192,3318,128,0,3769:0:0:0:0:
402,192,3769,1,0,0:0:0:0:
256,192,3769,1,0,0:0:0:0:
109,192,3769,1,0,0:0:0:0:
402,192,3882,1,0,0:0:0:0:
256,192,3882,1,0,0:0:0:0:
109,192,3882,1,0,0:0:0:0:
329,192,3995,128,0,4220:0:0:0:0:
475,192,3995,128,0,4220:0:0:0:0:
182,192,4220,128,0,4446:0:0:0:0:
36,192,4220,128,0,4446:0:0:0:0:
402,192,4446,1,0,0:0:0:0:
256,192,4446,1,0,0:0:0:0:
109,192,4446,1,0,0:0:0:0:
256,192,4558,1,0,0:0:0:0:
402,192,4558,1,0,0:0:0:0:
109,192,4558,1,0,0:0:0:0:
182,192,4671,128,0,4897:0:0:0:0:
36,192,4671,128,0,4897:0:0:0:0:
329,192,4897,128,0,5122:0:0:0:0:
475,192,4897,128,0,5122:0:0:0:0:
256,192,5122,128,0,5574:0:0:0:0:
402,192,5122,1,0,0:0:0:0:
36,192,5122,1,0,0:0:0:0:
182,192,5122,1,0,0:0:0:0:
36,192,5574,1,0,0:0:0:0:
475,192,5574,1,0,0:0:0:0:
182,192,5574,1,0,0:0:0:0:
402,192,5574,1,0,0:0:0:0:
256,192,5686,1,0,0:0:0:0:
475,192,5799,1,0,0:0:0:0:
109,192,5799,1,0,0:0:0:0:
329,192,5799,1,0,0:0:0:0:
256,192,5912,1,0,0:0:0:0:
182,192,6025,1,0,0:0:0:0:
36,192,6025,1,0,0:0:0:0:
475,192,6025,1,0,0:0:0:0:
402,192,6025,1,0,0:0:0:0:
329,192,6137,1,0,0:0:0:0:
109,192,6250,1,0,0:0:0:0:
475,192,6250,1,0,0:0:0:0:
256,192,6250,1,0,0:0:0:0:
329,192,6363,1,0,0:0:0:0:
402,192,6476,1,0,0:0:0:0:
36,192,6476,1,0,0:0:0:0:
182,192,6476,1,0,0:0:0:0:
256,192,6589,1,0,0:0:0:0:
475,192,6589,1,0,0:0:0:0:
182,192,6701,1,0,0:0:0:0:
36,192,6701,1,0,0:0:0:0:
402,192,6701,1,0,0:0:0:0:
256,192,6814,1,0,0:0:0:0:
109,192,6814,1,0,0:0:0:0:
329,192,6927,1,0,0:0:0:0:
182,192,6927,1,0,0:0:0:0:
475,192,6927,1,0,0:0:0:0:
402,192,6927,1,0,0:0:0:0:
109,192,7040,1,0,0:0:0:0:
36,192,7152,1,0,0:0:0:0:
256,192,7152,1,0,0:0:0:0:
402,192,7152,1,0,0:0:0:0:
109,192,7265,1,0,0:0:0:0:
182,192,7378,1,0,0:0:0:0:
329,192,7378,1,0,0:0:0:0:
475,192,7378,1,0,0:0:0:0:
36,192,7491,1,0,0:0:0:0:
109,192,7491,1,0,0:0:0:0:
256,192,7604,1,0,0:0:0:0:
402,192,7604,1,0,0:0:0:0:
109,192,7716,1,0,0:0:0:0:
182,192,7716,1,0,0:0:0:0:
329,192,7829,1,0,0:0:0:0:
475,192,7829,1,0,0:0:0:0:
36,192,7829,1,0,0:0:0:0:
182,192,7942,1,0,0:0:0:0:
256,192,7942,1,0,0:0:0:0:
402,192,8055,1,0,0:0:0:0:
36,192,8055,1,0,0:0:0:0:
109,192,8055,1,0,0:0:0:0:
256,192,8168,1,0,0:0:0:0:
329,192,8168,1,0,0:0:0:0:
109,192,8280,1,0,0:0:0:0:
182,192,8280,1,0,0:0:0:0:
475,192,8280,1,0,0:0:0:0:
329,192,8393,1,0,0:0:0:0:
402,192,8393,1,0,0:0:0:0:
182,192,8506,1,0,0:0:0:0:
256,192,8506,1,0,0:0:0:0:
36,192,8506,1,0,0:0:0:0:
402,192,8619,1,0,0:0:0:0:
475,192,8619,1,0,0:0:0:0:
256,192,8731,1,0,0:0:0:0:
329,192,8731,1,0,0:0:0:0:
109,192,8731,1,0,0:0:0:0:
475,192,8844,1,0,0:0:0:0:
36,192,8844,1,0,0:0:0:0:
329,192,8957,1,0,0:0:0:0:
402,192,8957,1,0,0:0:0:0:
182,192,8957,1,0,0:0:0:0:
109,192,9070,1,0,0:0:0:0:
36,192,9070,1,0,0:0:0:0:
475,192,9183,1,0,0:0:0:0:
402,192,9183,1,0,0:0:0:0:
256,192,9183,1,0,0:0:0:0:
329,192,9295,1,0,0:0:0:0:
36,192,9408,1,0,0:0:0:0:
182,192,9408,1,0,0:0:0:0:
402,192,9408,1,0,0:0:0:0:
256,192,9521,1,0,0:0:0:0:
329,192,9634,1,0,0:0:0:0:
475,192,9634,1,0,0:0:0:0:
36,192,9634,1,0,0:0:0:0:
109,192,9634,1,0,0:0:0:0:
182,192,9746,1,0,0:0:0:0:
402,192,9859,1,0,0:0:0:0:
36,192,9859,1,0,0:0:0:0:
256,192,9859,1,0,0:0:0:0:
182,192,9972,1,0,0:0:0:0:
109,192,10085,1,0,0:0:0:0:
475,192,10085,1,0,0:0:0:0:
329,192,10085,1,0,0:0:0:0:
256,192,10198,1,0,0:0:0:0:
36,192,10198,1,0,0:0:0:0:
329,192,10310,1,0,0:0:0:0:
475,192,10310,1,0,0:0:0:0:
109,192,10310,1,0,0:0:0:0:
256,192,10423,1,0,0:0:0:0:
402,192,10423,1,0,0:0:0:0:
182,192,10536,1,0,0:0:0:0:
329,192,10536,1,0,0:0:0:0:
36,192,10536,1,0,0:0:0:0:
109,192,10536,1,0,0:0:0:0:
402,192,10649,1,0,0:0:0:0:
475,192,10761,1,0,0:0:0:0:
256,192,10761,1,0,0:0:0:0:
109,192,10761,1,0,0:0:0:0:
402,192,10874,1,0,0:0:0:0:
36,192,10987,1,0,0:0:0:0:
329,192,10987,1,0,0:0:0:0:
182,192,10987,1,0,0:0:0:0:
402,192,11100,1,0,0:0:0:0:
109,192,11100,1,0,0:0:0:0:
256,192,11213,1,0,0:0:0:0:
475,192,11213,1,0,0:0:0:0:
329,192,11213,1,0,0:0:0:0:
36,192,11213,1,0,0:0:0:0:
182,192,11325,1,0,0:0:0:0:
109,192,11325,1,0,0:0:0:0:
256,192,11438,1,0,0:0:0:0:
402,192,11438,1,0,0:0:0:0:
475,192,11438,1,0,0:0:0:0:
36,192,11438,1,0,0:0:0:0:
109,192,11551,1,0,0:0:0:0:
182,192,11551,1,0,0:0:0:0:
475,192,11664,1,0,0:0:0:0:
329,192,11664,1,0,0:0:0:0:
36,192,11664,1,0,0:0:0:0:
256,192,11777,1,0,0:0:0:0:
182,192,11777,1,0,0:0:0:0:
36,192,11889,1,0,0:0:0:0:
109,192,11889,1,0,0:0:0:0:
329,192,11889,1,0,0:0:0:0:
475,192,11889,1,0,0:0:0:0:
256,192,12002,1,0,0:0:0:0:
402,192,12002,1,0,0:0:0:0:
329,192,12115,1,0,0:0:0:0:
109,192,12115,1,0,0:0:0:0:
182,192,12115,1,0,0:0:0:0:
36,192,12340,1,0,0:0:0:0:
256,192,12340,1,0,0:0:0:0:
402,192,12340,1,0,0:0:0:0:
475,192,12340,1,0,0:0:0:0:
109,192,12340,1,0,0:0:0:0:
329,192,12566,1,0,0:0:0:0:
402,192,12566,1,0,0:0:0:0:
182,192,12566,1,0,0:0:0:0:
109,192,12566,1,0,0:0:0:0:
475,192,12792,1,0,0:0:0:0:
36,192,12792,1,0,0:0:0:0:
329,192,12792,1,0,0:0:0:0:
109,192,12792,1,0,0:0:0:0:
256,192,12904,1,0,0:0:0:0:
36,192,13017,1,0,0:0:0:0:
402,192,13017,1,0,0:0:0:0:
182,192,13017,1,0,0:0:0:0:
256,192,13130,1,0,0:0:0:0:
329,192,13243,1,0,0:0:0:0:
475,192,13243,1,0,0:0:0:0:
36,192,13243,1,0,0:0:0:0:
109,192,13243,1,0,0:0:0:0:
182,192,13355,1,0,0:0:0:0:
402,192,13468,1,0,0:0:0:0:
36,192,13468,1,0,0:0:0:0:
256,192,13468,1,0,0:0:0:0:
182,192,13581,1,0,0:0:0:0:
109,192,13694,1,0,0:0:0:0:
475,192,13694,1,0,0:0:0:0:
329,192,13694,1,0,0:0:0:0:
256,192,13807,1,0,0:0:0:0:
36,192,13807,1,0,0:0:0:0:
329,192,13919,1,0,0:0:0:0:
475,192,13919,1,0,0:0:0:0:
109,192,13919,1,0,0:0:0:0:
256,192,14032,1,0,0:0:0:0:
402,192,14032,1,0,0:0:0:0:
182,192,14145,1,0,0:0:0:0:
329,192,14145,1,0,0:0:0:0:
36,192,14145,1,0,0:0:0:0:
109,192,14145,1,0,0:0:0:0:
402,192,14258,1,0,0:0:0:0:
475,192,14371,1,0,0:0:0:0:
256,192,14371,1,0,0:0:0:0:
109,192,14371,1,0,0:0:0:0:
402,192,14483,1,0,0:0:0:0:
329,192,14596,1,0,0:0:0:0:
182,192,14596,1,0,0:0:0:0:
36,192,14596,1,0,0:0:0:0:
475,192,14709,1,0,0:0:0:0:
402,192,14709,1,0,0:0:0:0:
256,192,14822,1,0,0:0:0:0:
109,192,14822,1,0,0:0:0:0:
402,192,14934,1,0,0:0:0:0:
329,192,14934,1,0,0:0:0:0:
182,192,15047,1,0,0:0:0:0:
36,192,15047,1,0,0:0:0:0:
475,192,15047,1,0,0:0:0:0:
329,192,15160,1,0,0:0:0:0:
256,192,15160,1,0,0:0:0:0:
109,192,15273,1,0,0:0:0:0:
475,192,15273,1,0,0:0:0:0:
402,192,15273,1,0,0:0:0:0:
256,192,15386,1,0,0:0:0:0:
182,192,15386,1,0,0:0:0:0:
402,192,15498,1,0,0:0:0:0:
329,192,15498,1,0,0:0:0:0:
36,192,15498,1,0,0:0:0:0:
182,192,15611,1,0,0:0:0:0:
109,192,15611,1,0,0:0:0:0:
329,192,15724,1,0,0:0:0:0:
256,192,15724,1,0,0:0:0:0:
475,192,15724,1,0,0:0:0:0:
109,192,15837,1,0,0:0:0:0:
36,192,15837,1,0,0:0:0:0:
256,192,15949,1,0,0:0:0:0:
182,192,15949,1,0,0:0:0:0:
402,192,15949,1,0,0:0:0:0:
36,192,16062,1,0,0:0:0:0:
475,192,16062,1,0,0:0:0:0:
182,192,16175,1,0,0:0:0:0:
109,192,16175,1,0,0:0:0:0:
329,192,16175,1,0,0:0:0:0:
402,192,16288,1,0,0:0:0:0:
475,192,16288,1,0,0:0:0:0:
36,192,16401,1,0,0:0:0:0:
109,192,16401,1,0,0:0:0:0:
256,192,16401,1,0,0:0:0:0:
182,192,16513,1,0,0:0:0:0:
475,192,16626,1,0,0:0:0:0:
109,192,16626,1,0,0:0:0:0:
329,192,16626,1,0,0:0:0:0:
256,192,16739,1,0,0:0:0:0:
182,192,16852,1,0,0:0:0:0:
36,192,16852,1,0,0:0:0:0:
475,192,16852,1,0,0:0:0:0:
402,192,16852,1,0,0:0:0:0:
329,192,16964,1,0,0:0:0:0:
109,192,17077,1,0,0:0:0:0:
475,192,17077,1,0,0:0:0:0:
256,192,17077,1,0,0:0:0:0:
329,192,17190,1,0,0:0:0:0:
402,192,17303,1,0,0:0:0:0:
36,192,17303,1,0,0:0:0:0:
182,192,17303,1,0,0:0:0:0:
256,192,17416,1,0,0:0:0:0:
475,192,17416,1,0,0:0:0:0:
182,192,17528,1,0,0:0:0:0:
36,192,17528,1,0,0:0:0:0:
402,192,17528,1,0,0:0:0:0:
256,192,17641,1,0,0:0:0:0:
109,192,17641,1,0,0:0:0:0:
329,192,17754,1,0,0:0:0:0:
182,192,17754,1,0,0:0:0:0:
475,192,17754,1,0,0:0:0:0:
402,192,17754,1,0,0:0:0:0:
109,192,17867,1,0,0:0:0:0:
36,192,17980,1,0,0:0:0:0:
256,192,17980,1,0,0:0:0:0:
402,192,17980,1,0,0:0:0:0:
109,192,18092,1,0,0:0:0:0:
475,192,18205,1,0,0:0:0:0:
182,192,18205,1,0,0:0:0:0:
329,192,18205,1,0,0:0:0:0:
109,192,18318,1,0,0:0:0:0:
475,192,18431,1,0,0:0:0:0:
329,192,18431,1,0,0:0:0:0:
36,192,18431,1,0,0:0:0:0:
256,192,18543,1,0,0:0:0:0:
402,192,18543,1,0,0:0:0:0:
36,192,18656,1,0,0:0:0:0:
182,192,18656,1,0,0:0:0:0:
329,192,18656,1,0,0:0:0:0:
402,192,18769,1,0,0:0:0:0:
36,192,18882,1,0,0:0:0:0:
182,192,18882,1,0,0:0:0:0:
475,192,18882,1,0,0:0:0:0:
109,192,18995,1,0,0:0:0:0:
256,192,18995,1,0,0:0:0:0:
182,192,19107,1,0,0:0:0:0:
329,192,19107,1,0,0:0:0:0:
475,192,19107,1,0,0:0:0:0:
36,192,19333,1,0,0:0:0:0:
256,192,19333,1,0,0:0:0:0:
402,192,19333,1,0,0:0:0:0:
182,192,19333,1,0,0:0:0:0:
256,192,19558,1,0,0:0:0:0:
109,192,19558,1,0,0:0:0:0:
329,192,19558,128,0,20010:0:0:0:0:
475,192,19558,128,0,20010:0:0:0:0:
109,192,20010,1,0,0:0:0:0:
36,192,20010,1,0,0:0:0:0:
256,192,20010,1,0,0:0:0:0:
402,192,20010,1,0,0:0:0:0:
182,192,20235,1,0,0:0:0:0:
329,192,20235,1,0,0:0:0:0:
475,192,20235,1,0,0:0:0:0:
402,192,20461,1,0,0:0:0:0:
475,192,20461,1,0,0:0:0:0:
256,192,20461,1,0,0:0:0:0:
109,192,20461,1,0,0:0:0:0:
36,192,20461,1,0,0:0:0:0:
182,192,20686,1,0,0:0:0:0:
329,192,20686,1,0,0:0:0:0:
36,192,20686,1,0,0:0:0:0:
256,192,20912,1,0,0:0:0:0:
402,192,20912,1,0,0:0:0:0:
475,192,21137,1,0,0:0:0:0:
36,192,21137,1,0,0:0:0:0:
182,192,21137,1,0,0:0:0:0:
329,192,21137,1,0,0:0:0:0:
36,192,21363,1,0,0:0:0:0:
109,192,21363,1,0,0:0:0:0:
256,192,21363,1,0,0:0:0:0:
329,192,21363,1,0,0:0:0:0:
475,192,21363,1,0,0:0:0:0:
182,192,21589,1,0,0:0:0:0:
329,192,21589,1,0,0:0:0:0:
475,192,21589,1,0,0:0:0:0:
109,192,21701,1,0,0:0:0:0:
36,192,21814,1,0,0:0:0:0:
256,192,21814,1,0,0:0:0:0:
475,192,21814,1,0,0:0:0:0:
402,192,21814,1,0,0:0:0:0:
182,192,22040,1,0,0:0:0:0:
329,192,22040,1,0,0:0:0:0:
36,192,22040,1,0,0:0:0:0:
109,192,22265,1,0,0:0:0:0:
256,192,22265,1,0,0:0:0:0:
402,192,22265,1,0,0:0:0:0:
475,192,22265,1,0,0:0:0:0:
36,192,22265,1,0,0:0:0:0:
182,192,22491,1,0,0:0:0:0:
329,192,22491,1,0,0:0:0:0:
475,192,22491,1,0,0:0:0:0:
256,192,22716,1,0,0:0:0:0:
109,192,22716,1,0,0:0:0:0:
475,192,22942,1,0,0:0:0:0:
402,192,22942,1,0,0:0:0:0:
182,192,22942,1,0,0:0:0:0:
36,192,22942,1,0,0:0:0:0:
36,192,23168,1,0,0:0:0:0:
109,192,23168,1,0,0:0:0:0:
256,192,23168,1,0,0:0:0:0:
329,192,23168,1,0,0:0:0:0:
475,192,23168,1,0,0:0:0:0:
402,192,23393,1,0,0:0:0:0:
182,192,23393,1,0,0:0:0:0:
329,192,23393,1,0,0:0:0:0:
36,192,23393,1,0,0:0:0:0:
402,192,23619,1,0,0:0:0:0:
475,192,23619,1,0,0:0:0:0:
256,192,23619,1,0,0:0:0:0:
109,192,23619,1,0,0:0:0:0:
329,192,23844,1,0,0:0:0:0:
182,192,23844,1,0,0:0:0:0:
36,192,23844,1,0,0:0:0:0:
109,192,24070,1,0,0:0:0:0:
36,192,24070,1,0,0:0:0:0:
256,192,24070,1,0,0:0:0:0:
402,192,24070,1,0,0:0:0:0:
475,192,24070,1,0,0:0:0:0:
329,192,24295,1,0,0:0:0:0:
182,192,24295,1,0,0:0:0:0:
475,192,24295,1,0,0:0:0:0:
256,192,24521,1,0,0:0:0:0:
109,192,24521,1,0,0:0:0:0:
36,192,24746,1,0,0:0:0:0:
475,192,24746,1,0,0:0:0:0:
329,192,24746,1,0,0:0:0:0:
182,192,24746,1,0,0:0:0:0:
475,192,24972,1,0,0:0:0:0:
402,192,24972,1,0,0:0:0:0:
256,192,24972,1,0,0:0:0:0:
182,192,24972,1,0,0:0:0:0:
36,192,24972,1,0,0:0:0:0:
329,192,25198,1,0,0:0:0:0:
182,192,25198,1,0,0:0:0:0:
36,192,25198,1,0,0:0:0:0:
402,192,25310,1,0,0:0:0:0:
475,192,25423,1,0,0:0:0:0:
256,192,25423,1,0,0:0:0:0:
36,192,25423,1,0,0:0:0:0:
109,192,25423,1,0,0:0:0:0:
329,192,25649,1,0,0:0:0:0:
182,192,25649,1,0,0:0:0:0:
475,192,25649,1,0,0:0:0:0:
402,192,25874,1,0,0:0:0:0:
256,192,25874,1,0,0:0:0:0:
109,192,25874,1,0,0:0:0:0:
36,192,25874,1,0,0:0:0:0:
475,192,25874,1,0,0:0:0:0:
329,192,26100,1,0,0:0:0:0:
182,192,26100,1,0,0:0:0:0:
36,192,26100,1,0,0:0:0:0:
256,192,26325,1,0,0:0:0:0:
402,192,26325,1,0,0:0:0:0:
36,192,26551,1,0,0:0:0:0:
109,192,26551,1,0,0:0:0:0:
329,192,26551,1,0,0:0:0:0:
475,192,26551,1,0,0:0:0:0:
475,192,26777,1,0,0:0:0:0:
402,192,26777,1,0,0:0:0:0:
256,192,26777,1,0,0:0:0:0:
182,192,26777,1,0,0:0:0:0:
36,192,26777,1,0,0:0:0:0:
109,192,27002,1,0,0:0:0:0:
329,192,27002,1,0,0:0:0:0:
182,192,27002,1,0,0:0:0:0:
475,192,27002,1,0,0:0:0:0:
256,192,27228,1,0,0:0:0:0:
109,192,27228,1,0,0:0:0:0:
36,192,27228,1,0,0:0:0:0:
402,192,27228,1,0,0:0:0:0:
182,192,27453,1,0,0:0:0:0:
329,192,27453,1,0,0:0:0:0:
475,192,27453,1,0,0:0:0:0:
402,192,27679,1,0,0:0:0:0:
256,192,27679,1,0,0:0:0:0:
109,192,27679,1,0,0:0:0:0:
36,192,27679,1,0,0:0:0:0:
475,192,27679,1,0,0:0:0:0:
475,192,27904,1,0,0:0:0:0:
329,192,27904,1,0,0:0:0:0:
182,192,27904,1,0,0:0:0:0:
36,192,28130,1,0,0:0:0:0:
256,192,28130,1,0,0:0:0:0:
182,192,28355,1,0,0:0:0:0:
329,192,28355,1,0,0:0:0:0:
475,192,28355,1,0,0:0:0:0:
109,192,28355,1,0,0:0:0:0:
36,192,28581,1,0,0:0:0:0:
109,192,28581,1,0,0:0:0:0:
256,192,28581,1,0,0:0:0:0:
402,192,28581,1,0,0:0:0:0:
475,192,28581,1,0,0:0:0:0:
182,192,28807,1,0,0:0:0:0:
329,192,28807,1,0,0:0:0:0:
475,192,28807,1,0,0:0:0:0:
109,192,28919,1,0,0:0:0:0:
36,192,29032,1,0,0:0:0:0:
256,192,29032,1,0,0:0:0:0:
402,192,29032,1,0,0:0:0:0:
475,192,29032,1,0,0:0:0:0:
329,192,29258,1,0,0:0:0:0:
182,192,29258,1,0,0:0:0:0:
36,192,29258,1,0,0:0:0:0:
109,192,29483,1,0,0:0:0:0:
256,192,29483,1,0,0:0:0:0:
402,192,29483,1,0,0:0:0:0:
475,192,29483,1,0,0:0:0:0:
36,192,29483,1,0,0:0:0:0:
182,192,29709,1,0,0:0:0:0:
329,192,29709,1,0,0:0:0:0:
475,192,29709,1,0,0:0:0:0:
256,192,29934,1,0,0:0:0:0:
109,192,29934,1,0,0:0:0:0:
182,192,30160,1,0,0:0:0:0:
36,192,30160,1,0,0:0:0:0:
329,192,30160,1,0,0:0:0:0:
402,192,30160,1,0,0:0:0:0:
475,192,30386,1,0,0:0:0:0:
402,192,30386,1,0,0:0:0:0:
256,192,30386,1,0,0:0:0:0:
109,192,30386,1,0,0:0:0:0:
36,192,30386,1,0,0:0:0:0:
329,192,30611,1,0,0:0:0:0:
402,192,30611,1,0,0:0:0:0:
182,192,30611,1,0,0:0:0:0:
36,192,30611,1,0,0:0:0:0:
402,192,30837,1,0,0:0:0:0:
475,192,30837,1,0,0:0:0:0:
256,192,30837,1,0,0:0:0:0:
109,192,30837,1,0,0:0:0:0:
182,192,31062,1,0,0:0:0:0:
329,192,31062,1,0,0:0:0:0:
36,192,31062,1,0,0:0:0:0:
36,192,31288,1,0,0:0:0:0:
109,192,31288,1,0,0:0:0:0:
256,192,31288,1,0,0:0:0:0:
475,192,31288,1,0,0:0:0:0:
329,192,31288,1,0,0:0:0:0:
182,192,31513,1,0,0:0:0:0:
329,192,31513,1,0,0:0:0:0:
36,192,31513,1,0,0:0:0:0:
402,192,31739,1,0,0:0:0:0:
256,192,31739,1,0,0:0:0:0:
182,192,31964,1,0,0:0:0:0:
329,192,31964,1,0,0:0:0:0:
475,192,31964,1,0,0:0:0:0:
109,192,31964,1,0,0:0:0:0:
402,192,32190,1,0,0:0:0:0:
475,192,32190,1,0,0:0:0:0:
256,192,32190,1,0,0:0:0:0:
182,192,32190,1,0,0:0:0:0:
36,192,32190,1,0,0:0:0:0:
329,192,32416,1,0,0:0:0:0:
182,192,32416,1,0,0:0:0:0:
475,192,32416,1,0,0:0:0:0:
109,192,32528,1,0,0:0:0:0:
36,192,32641,1,0,0:0:0:0:
402,192,32641,1,0,0:0:0:0:
475,192,32641,1,0,0:0:0:0:
256,192,32641,1,0,0:0:0:0:
182,192,32867,1,0,0:0:0:0:
329,192,32867,1,0,0:0:0:0:
402,192,32867,1,0,0:0:0:0:
36,192,33092,1,0,0:0:0:0:
109,192,33092,1,0,0:0:0:0:
256,192,33092,1,0,0:0:0:0:
475,192,33092,1,0,0:0:0:0:
329,192,33318,1,0,0:0:0:0:
182,192,33318,1,0,0:0:0:0:
109,192,33318,1,0,0:0:0:0:
256,192,33543,1,0,0:0:0:0:
402,192,33543,1,0,0:0:0:0:
475,192,33543,1,0,0:0:0:0:
36,192,33543,1,0,0:0:0:0:
329,192,33769,1,0,0:0:0:0:
182,192,33769,1,0,0:0:0:0:
402,192,33769,1,0,0:0:0:0:
109,192,33995,1,0,0:0:0:0:
36,192,33995,1,0,0:0:0:0:
256,192,33995,1,0,0:0:0:0:
475,192,33995,1,0,0:0:0:0:
109,192,34220,1,0,0:0:0:0:
182,192,34220,1,0,0:0:0:0:
329,192,34220,1,0,0:0:0:0:
402,192,34446,1,0,0:0:0:0:
475,192,34446,1,0,0:0:0:0:
182,192,34446,1,0,0:0:0:0:
256,192,34446,1,0,0:0:0:0:
36,192,34446,1,0,0:0:0:0:
109,192,34671,1,0,0:0:0:0:
329,192,34671,1,0,0:0:0:0:
182,192,34897,1,0,0:0:0:0:
402,192,34897,1,0,0:0:0:0:
109,192,35122,1,0,0:0:0:0:
329,192,35122,1,0,0:0:0:0:
256,192,35348,1,0,0:0:0:0:
36,192,35348,1,0,0:0:0:0:
402,192,35348,1,0,0:0:0:0:
182,192,35348,128,0,35686:0:0:0:0:
256,192,35686,1,0,0:0:0:0:
475,192,35686,1,0,0:0:0:0:
109,192,35686,1,0,0:0:0:0:
329,192,35686,128,0,36025:0:0:0:0:
256,192,36025,1,0,0:0:0:0:
402,192,36025,1,0,0:0:0:0:
36,192,36025,1,0,0:0:0:0:
182,192,36025,128,0,37152:0:0:0:0:
329,192,36476,1,0,0:0:0:0:
475,192,36476,1,0,0:0:0:0:
402,192,36701,1,0,0:0:0:0:
256,192,36701,1,0,0:0:0:0:
329,192,36927,1,0,0:0:0:0:
475,192,36927,1,0,0:0:0:0:
402,192,37152,1,0,0:0:0:0:
256,192,37152,1,0,0:0:0:0:
109,192,37152,1,0,0:0:0:0:
36,192,37152,128,0,37491:0:0:0:0:
402,192,37491,1,0,0:0:0:0:
256,192,37491,1,0,0:0:0:0:
109,192,37491,1,0,0:0:0:0:
475,192,37491,128,0,37829:0:0:0:0:
256,192,37829,1,0,0:0:0:0:
402,192,37829,1,0,0:0:0:0:
109,192,37829,1,0,0:0:0:0:
36,192,37829,128,0,38957:0:0:0:0:
182,192,38280,128,0,38957:0:0:0:0:
329,192,38506,128,0,38957:0:0:0:0:
475,192,38731,1,0,0:0:0:0:
109,192,38731,1,0,0:0:0:0:
402,192,38731,1,0,0:0:0:0:
256,192,38844,1,0,0:0:0:0:
109,192,38957,1,0,0:0:0:0:
402,192,38957,1,0,0:0:0:0:
475,192,38957,1,0,0:0:0:0:
109,192,39295,1,0,0:0:0:0:
329,192,39295,1,0,0:0:0:0:
182,192,39408,128,0,39634:0:0:0:0:
402,192,39408,128,0,39634:0:0:0:0:
109,192,39634,1,0,0:0:0:0:
329,192,39634,1,0,0:0:0:0:
256,192,39746,1,0,0:0:0:0:
475,192,39746,1,0,0:0:0:0:
329,192,39859,1,0,0:0:0:0:
109,192,39859,1,0,0:0:0:0:
182,192,39972,1,0,0:0:0:0:
402,192,39972,1,0,0:0:0:0:
256,192,40085,1,0,0:0:0:0:
475,192,40085,1,0,0:0:0:0:
109,192,40198,1,0,0:0:0:0:
329,192,40198,1,0,0:0:0:0:
256,192,40310,1,0,0:0:0:0:
475,192,40310,1,0,0:0:0:0:
182,192,40423,1,0,0:0:0:0:
402,192,40423,1,0,0:0:0:0:
109,192,40536,1,0,0:0:0:0:
329,192,40536,1,0,0:0:0:0:
256,192,40649,1,0,0:0:0:0:
475,192,40649,1,0,0:0:0:0:
402,192,40761,1,0,0:0:0:0:
182,192,40761,1,0,0:0:0:0:
36,192,40761,128,0,41100:0:0:0:0:
109,192,41100,1,0,0:0:0:0:
256,192,41100,1,0,0:0:0:0:
475,192,41100,128,0,41438:0:0:0:0:
182,192,41438,1,0,0:0:0:0:
402,192,41438,1,0,0:0:0:0:
36,192,41438,1,0,0:0:0:0:
109,192,41664,1,0,0:0:0:0:
329,192,41664,1,0,0:0:0:0:
402,192,41889,1,0,0:0:0:0:
182,192,41889,1,0,0:0:0:0:
329,192,42115,1,0,0:0:0:0:
109,192,42115,1,0,0:0:0:0:
402,192,42340,1,0,0:0:0:0:
182,192,42340,1,0,0:0:0:0:
256,192,42566,1,0,0:0:0:0:
475,192,42566,1,0,0:0:0:0:
109,192,42566,1,0,0:0:0:0:
329,192,42566,128,0,42904:0:0:0:0:
256,192,42904,1,0,0:0:0:0:
36,192,42904,1,0,0:0:0:0:
402,192,42904,1,0,0:0:0:0:
182,192,42904,128,0,43243:0:0:0:0:
256,192,43243,1,0,0:0:0:0:
109,192,43243,1,0,0:0:0:0:
475,192,43243,1,0,0:0:0:0:
329,192,43243,128,0,44371:0:0:0:0:
182,192,43694,1,0,0:0:0:0:
36,192,43694,1,0,0:0:0:0:
109,192,43919,1,0,0:0:0:0:
256,192,43919,1,0,0:0:0:0:
182,192,44145,1,0,0:0:0:0:
36,192,44145,1,0,0:0:0:0:
109,192,44371,1,0,0:0:0:0:
256,192,44371,1,0,0:0:0:0:
402,192,44371,1,0,0:0:0:0:
475,192,44371,128,0,44709:0:0:0:0:
109,192,44709,1,0,0:0:0:0:
256,192,44709,1,0,0:0:0:0:
402,192,44709,1,0,0:0:0:0:
36,192,44709,128,0,45047:0:0:0:0:
256,192,45047,1,0,0:0:0:0:
109,192,45047,1,0,0:0:0:0:
402,192,45047,1,0,0:0:0:0:
475,192,45047,128,0,46175:0:0:0:0:
329,192,45498,128,0,46175:0:0:0:0:
182,192,45724,128,0,46175:0:0:0:0:
36,192,45949,128,0,46175:0:0:0:0:
402,192,46175,1,0,0:0:0:0:
109,192,46175,1,0,0:0:0:0:
329,192,46288,1,0,0:0:0:0:
182,192,46288,1,0,0:0:0:0:
109,192,46401,1,0,0:0:0:0:
256,192,46401,1,0,0:0:0:0:
402,192,46513,1,0,0:0:0:0:
329,192,46513,1,0,0:0:0:0:
182,192,46626,1,0,0:0:0:0:
109,192,46626,1,0,0:0:0:0:
329,192,46739,1,0,0:0:0:0:
256,192,46739,1,0,0:0:0:0:
109,192,46852,1,0,0:0:0:0:
402,192,46852,1,0,0:0:0:0:
256,192,46964,1,0,0:0:0:0:
182,192,46964,1,0,0:0:0:0:
329,192,47077,1,0,0:0:0:0:
475,192,47077,1,0,0:0:0:0:
109,192,47077,1,0,0:0:0:0:
36,192,47077,1,0,0:0:0:0:
109,192,47190,1,0,0:0:0:0:
36,192,47190,1,0,0:0:0:0:
329,192,47190,1,0,0:0:0:0:
475,192,47190,1,0,0:0:0:0:
402,192,47303,1,0,0:0:0:0:
256,192,47303,1,0,0:0:0:0:
182,192,47303,1,0,0:0:0:0:
402,192,47528,1,0,0:0:0:0:
256,192,47528,1,0,0:0:0:0:
182,192,47528,1,0,0:0:0:0:
475,192,47754,1,0,0:0:0:0:
402,192,47754,1,0,0:0:0:0:
182,192,47754,1,0,0:0:0:0:
36,192,47754,1,0,0:0:0:0:
475,192,47867,1,0,0:0:0:0:
402,192,47867,1,0,0:0:0:0:
182,192,47867,1,0,0:0:0:0:
36,192,47867,1,0,0:0:0:0:
109,192,47980,1,0,0:0:0:0:
256,192,47980,1,0,0:0:0:0:
329,192,47980,1,0,0:0:0:0:
256,192,48205,1,0,0:0:0:0:
329,192,48205,1,0,0:0:0:0:
109,192,48205,1,0,0:0:0:0:
109,192,48431,1,0,0:0:0:0:
36,192,48431,1,0,0:0:0:0:
329,192,48431,1,0,0:0:0:0:
475,192,48431,1,0,0:0:0:0:
256,192,48431,1,0,0:0:0:0:
256,192,48882,5,0,0:0:0:0:
182,192,48882,1,0,0:0:0:0:
402,192,48882,1,0,0:0:0:0:
475,192,48882,1,0,0:0:0:0:
109,192,48995,1,0,0:0:0:0:
36,192,48995,1,0,0:0:0:0:
256,192,49107,1,0,0:0:0:0:
329,192,49107,1,0,0:0:0:0:
475,192,49107,1,0,0:0:0:0:
109,192,49220,1,0,0:0:0:0:
182,192,49220,1,0,0:0:0:0:
329,192,49333,1,0,0:0:0:0:
402,192,49333,1,0,0:0:0:0:
36,192,49333,1,0,0:0:0:0:
182,192,49446,1,0,0:0:0:0:
256,192,49446,1,0,0:0:0:0:
402,192,49558,1,0,0:0:0:0:
475,192,49558,1,0,0:0:0:0:
109,192,49558,1,0,0:0:0:0:
256,192,49671,1,0,0:0:0:0:
329,192,49671,1,0,0:0:0:0:
182,192,49784,1,0,0:0:0:0:
475,192,49784,1,0,0:0:0:0:
36,192,49784,1,0,0:0:0:0:
329,192,49897,1,0,0:0:0:0:
402,192,49897,1,0,0:0:0:0:
109,192,50010,1,0,0:0:0:0:
256,192,50010,1,0,0:0:0:0:
36,192,50010,1,0,0:0:0:0:
402,192,50122,1,0,0:0:0:0:
475,192,50122,1,0,0:0:0:0:
182,192,50235,1,0,0:0:0:0:
329,192,50235,1,0,0:0:0:0:
109,192,50235,1,0,0:0:0:0:
36,192,50235,1,0,0:0:0:0:
402,192,50348,1,0,0:0:0:0:
256,192,50348,1,0,0:0:0:0:
475,192,50461,1,0,0:0:0:0:
109,192,50461,1,0,0:0:0:0:
329,192,50461,1,0,0:0:0:0:
182,192,50574,1,0,0:0:0:0:
475,192,50686,1,0,0:0:0:0:
36,192,50686,1,0,0:0:0:0:
256,192,50686,1,0,0:0:0:0:
402,192,50686,1,0,0:0:0:0:
182,192,50799,1,0,0:0:0:0:
109,192,50912,1,0,0:0:0:0:
329,192,50912,1,0,0:0:0:0:
402,192,50912,1,0,0:0:0:0:
256,192,51025,1,0,0:0:0:0:
182,192,51137,1,0,0:0:0:0:
36,192,51137,1,0,0:0:0:0:
402,192,51137,1,0,0:0:0:0:
475,192,51137,1,0,0:0:0:0:
256,192,51250,1,0,0:0:0:0:
109,192,51250,1,0,0:0:0:0:
329,192,51363,1,0,0:0:0:0:
402,192,51363,1,0,0:0:0:0:
182,192,51363,1,0,0:0:0:0:
109,192,51476,1,0,0:0:0:0:
256,192,51589,1,0,0:0:0:0:
36,192,51589,1,0,0:0:0:0:
402,192,51589,1,0,0:0:0:0:
475,192,51589,1,0,0:0:0:0:
182,192,51701,1,0,0:0:0:0:
329,192,51701,1,0,0:0:0:0:
109,192,51814,1,0,0:0:0:0:
256,192,51814,1,0,0:0:0:0:
36,192,51814,1,0,0:0:0:0:
329,192,51927,1,0,0:0:0:0:
475,192,52040,1,0,0:0:0:0:
402,192,52040,1,0,0:0:0:0:
182,192,52040,1,0,0:0:0:0:
36,192,52040,1,0,0:0:0:0:
256,192,52152,1,0,0:0:0:0:
109,192,52152,1,0,0:0:0:0:
402,192,52265,1,0,0:0:0:0:
329,192,52265,1,0,0:0:0:0:
182,192,52265,1,0,0:0:0:0:
109,192,52378,1,0,0:0:0:0:
36,192,52491,1,0,0:0:0:0:
329,192,52491,1,0,0:0:0:0:
475,192,52491,1,0,0:0:0:0:
256,192,52491,1,0,0:0:0:0:
182,192,52604,1,0,0:0:0:0:
109,192,52716,1,0,0:0:0:0:
329,192,52716,1,0,0:0:0:0:
36,192,52716,1,0,0:0:0:0:
402,192,52829,1,0,0:0:0:0:
475,192,52942,1,0,0:0:0:0:
256,192,52942,1,0,0:0:0:0:
182,192,52942,1,0,0:0:0:0:
36,192,52942,1,0,0:0:0:0:
329,192,53055,1,0,0:0:0:0:
402,192,53168,1,0,0:0:0:0:
475,192,53168,1,0,0:0:0:0:
182,192,53168,1,0,0:0:0:0:
109,192,53280,1,0,0:0:0:0:
329,192,53280,1,0,0:0:0:0:
36,192,53393,1,0,0:0:0:0:
256,192,53393,1,0,0:0:0:0:
475,192,53393,1,0,0:0:0:0:
182,192,53506,1,0,0:0:0:0:
402,192,53506,1,0,0:0:0:0:
475,192,53619,1,0,0:0:0:0:
256,192,53619,1,0,0:0:0:0:
36,192,53619,1,0,0:0:0:0:
329,192,53731,1,0,0:0:0:0:
109,192,53731,1,0,0:0:0:0:
182,192,53844,1,0,0:0:0:0:
475,192,53844,1,0,0:0:0:0:
402,192,53844,1,0,0:0:0:0:
256,192,53957,1,0,0:0:0:0:
329,192,53957,1,0,0:0:0:0:
402,192,54070,1,0,0:0:0:0:
109,192,54070,1,0,0:0:0:0:
182,192,54070,1,0,0:0:0:0:
256,192,54183,1,0,0:0:0:0:
329,192,54183,1,0,0:0:0:0:
182,192,54295,1,0,0:0:0:0:
36,192,54295,1,0,0:0:0:0:
402,192,54295,1,0,0:0:0:0:
475,192,54295,1,0,0:0:0:0:
329,192,54408,1,0,0:0:0:0:
256,192,54521,1,0,0:0:0:0:
109,192,54521,1,0,0:0:0:0:
475,192,54521,1,0,0:0:0:0:
402,192,54634,1,0,0:0:0:0:
329,192,54746,1,0,0:0:0:0:
36,192,54746,1,0,0:0:0:0:
182,192,54746,1,0,0:0:0:0:
109,192,54746,1,0,0:0:0:0:
256,192,54859,1,0,0:0:0:0:
402,192,54859,1,0,0:0:0:0:
329,192,54972,1,0,0:0:0:0:
475,192,54972,1,0,0:0:0:0:
109,192,54972,1,0,0:0:0:0:
182,192,55085,1,0,0:0:0:0:
256,192,55085,1,0,0:0:0:0:
402,192,55198,1,0,0:0:0:0:
475,192,55198,1,0,0:0:0:0:
36,192,55198,1,0,0:0:0:0:
109,192,55198,1,0,0:0:0:0:
256,192,55310,1,0,0:0:0:0:
329,192,55310,1,0,0:0:0:0:
182,192,55423,1,0,0:0:0:0:
109,192,55423,1,0,0:0:0:0:
475,192,55423,1,0,0:0:0:0:
256,192,55536,1,0,0:0:0:0:
329,192,55536,1,0,0:0:0:0:
109,192,55649,1,0,0:0:0:0:
36,192,55649,1,0,0:0:0:0:
475,192,55649,1,0,0:0:0:0:
402,192,55649,1,0,0:0:0:0:
182,192,55761,1,0,0:0:0:0:
256,192,55874,1,0,0:0:0:0:
329,192,55874,1,0,0:0:0:0:
36,192,55874,1,0,0:0:0:0:
109,192,55987,1,0,0:0:0:0:
182,192,56100,1,0,0:0:0:0:
256,192,56100,1,0,0:0:0:0:
402,192,56100,1,0,0:0:0:0:
475,192,56100,1,0,0:0:0:0:
36,192,56213,1,0,0:0:0:0:
109,192,56325,1,0,0:0:0:0:
182,192,56325,1,0,0:0:0:0:
329,192,56325,1,0,0:0:0:0:
402,192,56325,1,0,0:0:0:0:
475,192,56438,1,0,0:0:0:0:
36,192,56551,1,0,0:0:0:0:
109,192,56551,1,0,0:0:0:0:
256,192,56551,1,0,0:0:0:0:
329,192,56551,1,0,0:0:0:0:
475,192,56664,1,0,0:0:0:0:
182,192,56777,1,0,0:0:0:0:
109,192,56777,1,0,0:0:0:0:
329,192,56777,1,0,0:0:0:0:
402,192,56777,1,0,0:0:0:0:
36,192,56889,1,0,0:0:0:0:
182,192,57002,1,0,0:0:0:0:
256,192,57002,1,0,0:0:0:0:
402,192,57002,1,0,0:0:0:0:
475,192,57002,1,0,0:0:0:0:
329,192,57115,1,0,0:0:0:0:
109,192,57115,1,0,0:0:0:0:
256,192,57228,1,0,0:0:0:0:
36,192,57228,1,0,0:0:0:0:
475,192,57228,1,0,0:0:0:0:
402,192,57340,1,0,0:0:0:0:
182,192,57340,1,0,0:0:0:0:
329,192,57453,1,0,0:0:0:0:
109,192,57453,1,0,0:0:0:0:
36,192,57453,1,0,0:0:0:0:
256,192,57453,1,0,0:0:0:0:
475,192,57566,1,0,0:0:0:0:
109,192,57679,1,0,0:0:0:0:
182,192,57679,1,0,0:0:0:0:
402,192,57679,1,0,0:0:0:0:
329,192,57679,1,0,0:0:0:0:
36,192,57792,1,0,0:0:0:0:
182,192,57904,1,0,0:0:0:0:
256,192,57904,1,0,0:0:0:0:
402,192,57904,1,0,0:0:0:0:
475,192,57904,1,0,0:0:0:0:
36,192,58017,1,0,0:0:0:0:
109,192,58130,1,0,0:0:0:0:
182,192,58130,1,0,0:0:0:0:
329,192,58130,1,0,0:0:0:0:
402,192,58130,1,0,0:0:0:0:
475,192,58243,1,0,0:0:0:0:
109,192,58355,1,0,0:0:0:0:
36,192,58355,1,0,0:0:0:0:
329,192,58355,1,0,0:0:0:0:
256,192,58355,1,0,0:0:0:0:
402,192,58468,1,0,0:0:0:0:
182,192,58468,1,0,0:0:0:0:
475,192,58581,1,0,0:0:0:0:
256,192,58581,1,0,0:0:0:0:
36,192,58581,1,0,0:0:0:0:
109,192,58694,1,0,0:0:0:0:
329,192,58694,1,0,0:0:0:0:
182,192,58807,1,0,0:0:0:0:
402,192,58807,1,0,0:0:0:0:
475,192,58807,1,0,0:0:0:0:
256,192,58919,1,0,0:0:0:0:
36,192,58919,1,0,0:0:0:0:
329,192,59032,1,0,0:0:0:0:
109,192,59032,1,0,0:0:0:0:
402,192,59032,1,0,0:0:0:0:
182,192,59145,1,0,0:0:0:0:
256,192,59258,1,0,0:0:0:0:
36,192,59258,1,0,0:0:0:0:
329,192,59258,1,0,0:0:0:0:
475,192,59258,1,0,0:0:0:0:
109,192,59371,1,0,0:0:0:0:
182,192,59371,1,0,0:0:0:0:
256,192,59483,1,0,0:0:0:0:
475,192,59483,1,0,0:0:0:0:
36,192,59483,1,0,0:0:0:0:
329,192,59596,1,0,0:0:0:0:
402,192,59596,1,0,0:0:0:0:
182,192,59709,1,0,0:0:0:0:
256,192,59709,1,0,0:0:0:0:
475,192,59709,1,0,0:0:0:0:
36,192,59709,1,0,0:0:0:0:
329,192,59822,1,0,0:0:0:0:
402,192,59934,1,0,0:0:0:0:
109,192,59934,1,0,0:0:0:0:
182,192,59934,1,0,0:0:0:0:
329,192,60047,1,0,0:0:0:0:
256,192,60160,1,0,0:0:0:0:
109,192,60160,1,0,0:0:0:0:
36,192,60160,1,0,0:0:0:0:
475,192,60160,1,0,0:0:0:0:
402,192,60160,1,0,0:0:0:0:
182,192,60273,1,0,0:0:0:0:
109,192,60386,1,0,0:0:0:0:
329,192,60386,1,0,0:0:0:0:
402,192,60386,1,0,0:0:0:0:
182,192,60498,1,0,0:0:0:0:
256,192,60611,1,0,0:0:0:0:
402,192,60611,1,0,0:0:0:0:
475,192,60611,1,0,0:0:0:0:
36,192,60611,1,0,0:0:0:0:
329,192,60724,1,0,0:0:0:0:
402,192,60837,1,0,0:0:0:0:
109,192,60837,1,0,0:0:0:0:
182,192,60837,1,0,0:0:0:0:
329,192,60949,1,0,0:0:0:0:
256,192,61062,1,0,0:0:0:0:
109,192,61062,1,0,0:0:0:0:
36,192,61062,1,0,0:0:0:0:
475,192,61062,1,0,0:0:0:0:
402,192,61062,1,0,0:0:0:0:
182,192,61175,1,0,0:0:0:0:
109,192,61288,1,0,0:0:0:0:
329,192,61288,1,0,0:0:0:0:
402,192,61288,1,0,0:0:0:0:
256,192,61401,1,0,0:0:0:0:
182,192,61513,1,0,0:0:0:0:
36,192,61513,1,0,0:0:0:0:
402,192,61513,1,0,0:0:0:0:
475,192,61513,1,0,0:0:0:0:
402,192,61626,1,0,0:0:0:0:
475,192,61626,1,0,0:0:0:0:
182,192,61626,1,0,0:0:0:0:
36,192,61626,1,0,0:0:0:0:
109,192,61739,1,0,0:0:0:0:
256,192,61739,1,0,0:0:0:0:
329,192,61739,1,0,0:0:0:0:
109,192,61964,1,0,0:0:0:0:
256,192,61964,1,0,0:0:0:0:
329,192,61964,1,0,0:0:0:0:
36,192,62190,1,0,0:0:0:0:
109,192,62190,1,0,0:0:0:0:
329,192,62190,1,0,0:0:0:0:
475,192,62190,1,0,0:0:0:0:
36,192,62303,1,0,0:0:0:0:
109,192,62303,1,0,0:0:0:0:
329,192,62303,1,0,0:0:0:0:
475,192,62303,1,0,0:0:0:0:
402,192,62416,1,0,0:0:0:0:
256,192,62416,1,0,0:0:0:0:
182,192,62416,1,0,0:0:0:0:
109,192,62528,1,0,0:0:0:0:
36,192,62528,1,0,0:0:0:0:
256,192,62641,1,0,0:0:0:0:
329,192,62641,1,0,0:0:0:0:
475,192,62641,1,0,0:0:0:0:
182,192,62754,1,0,0:0:0:0:
109,192,62867,1,0,0:0:0:0:
36,192,62867,1,0,0:0:0:0:
329,192,62867,1,0,0:0:0:0:
475,192,62867,1,0,0:0:0:0:
329,192,63092,1,0,0:0:0:0:
475,192,63092,1,0,0:0:0:0:
109,192,63092,1,0,0:0:0:0:
36,192,63092,1,0,0:0:0:0:
256,192,63318,5,0,0:0:0:0:
109,192,63318,1,0,0:0:0:0:
329,192,63318,1,0,0:0:0:0:
36,192,63318,1,0,0:0:0:0:
402,192,63431,1,0,0:0:0:0:
475,192,63431,1,0,0:0:0:0:
256,192,63543,1,0,0:0:0:0:
182,192,63543,1,0,0:0:0:0:
36,192,63543,1,0,0:0:0:0:
402,192,63656,1,0,0:0:0:0:
329,192,63656,1,0,0:0:0:0:
182,192,63769,1,0,0:0:0:0:
109,192,63769,1,0,0:0:0:0:
475,192,63769,1,0,0:0:0:0:
329,192,63882,1,0,0:0:0:0:
256,192,63882,1,0,0:0:0:0:
109,192,63995,1,0,0:0:0:0:
36,192,63995,1,0,0:0:0:0:
402,192,63995,1,0,0:0:0:0:
256,192,64107,1,0,0:0:0:0:
182,192,64107,1,0,0:0:0:0:
329,192,64220,1,0,0:0:0:0:
36,192,64220,1,0,0:0:0:0:
475,192,64220,1,0,0:0:0:0:
182,192,64333,1,0,0:0:0:0:
109,192,64333,1,0,0:0:0:0:
402,192,64446,1,0,0:0:0:0:
256,192,64446,1,0,0:0:0:0:
475,192,64446,1,0,0:0:0:0:
109,192,64558,1,0,0:0:0:0:
36,192,64558,1,0,0:0:0:0:
329,192,64671,1,0,0:0:0:0:
182,192,64671,1,0,0:0:0:0:
402,192,64671,1,0,0:0:0:0:
475,192,64671,1,0,0:0:0:0:
109,192,64784,1,0,0:0:0:0:
256,192,64784,1,0,0:0:0:0:
36,192,64897,1,0,0:0:0:0:
402,192,64897,1,0,0:0:0:0:
182,192,64897,1,0,0:0:0:0:
329,192,65010,1,0,0:0:0:0:
36,192,65122,1,0,0:0:0:0:
475,192,65122,1,0,0:0:0:0:
256,192,65122,1,0,0:0:0:0:
109,192,65122,1,0,0:0:0:0:
329,192,65235,1,0,0:0:0:0:
402,192,65348,1,0,0:0:0:0:
182,192,65348,1,0,0:0:0:0:
109,192,65348,1,0,0:0:0:0:
256,192,65461,1,0,0:0:0:0:
329,192,65574,1,0,0:0:0:0:
475,192,65574,1,0,0:0:0:0:
109,192,65574,1,0,0:0:0:0:
36,192,65574,1,0,0:0:0:0:
256,192,65686,1,0,0:0:0:0:
402,192,65686,1,0,0:0:0:0:
182,192,65799,1,0,0:0:0:0:
109,192,65799,1,0,0:0:0:0:
329,192,65799,1,0,0:0:0:0:
402,192,65912,1,0,0:0:0:0:
256,192,66025,1,0,0:0:0:0:
475,192,66025,1,0,0:0:0:0:
109,192,66025,1,0,0:0:0:0:
36,192,66025,1,0,0:0:0:0:
329,192,66137,1,0,0:0:0:0:
182,192,66137,1,0,0:0:0:0:
402,192,66250,1,0,0:0:0:0:
256,192,66250,1,0,0:0:0:0:
475,192,66250,1,0,0:0:0:0:
182,192,66363,1,0,0:0:0:0:
36,192,66476,1,0,0:0:0:0:
109,192,66476,1,0,0:0:0:0:
329,192,66476,1,0,0:0:0:0:
475,192,66476,1,0,0:0:0:0:
256,192,66589,1,0,0:0:0:0:
402,192,66589,1,0,0:0:0:0:
109,192,66701,1,0,0:0:0:0:
182,192,66701,1,0,0:0:0:0:
329,192,66701,1,0,0:0:0:0:
402,192,66814,1,0,0:0:0:0:
475,192,66927,1,0,0:0:0:0:
182,192,66927,1,0,0:0:0:0:
36,192,66927,1,0,0:0:0:0:
256,192,66927,1,0,0:0:0:0:
329,192,67040,1,0,0:0:0:0:
402,192,67152,1,0,0:0:0:0:
182,192,67152,1,0,0:0:0:0:
475,192,67152,1,0,0:0:0:0:
109,192,67265,1,0,0:0:0:0:
36,192,67378,1,0,0:0:0:0:
256,192,67378,1,0,0:0:0:0:
329,192,67378,1,0,0:0:0:0:
475,192,67378,1,0,0:0:0:0:
182,192,67491,1,0,0:0:0:0:
109,192,67604,1,0,0:0:0:0:
36,192,67604,1,0,0:0:0:0:
329,192,67604,1,0,0:0:0:0:
402,192,67716,1,0,0:0:0:0:
182,192,67716,1,0,0:0:0:0:
475,192,67829,1,0,0:0:0:0:
256,192,67829,1,0,0:0:0:0:
36,192,67829,1,0,0:0:0:0:
329,192,67942,1,0,0:0:0:0:
109,192,67942,1,0,0:0:0:0:
36,192,68055,1,0,0:0:0:0:
256,192,68055,1,0,0:0:0:0:
475,192,68055,1,0,0:0:0:0:
182,192,68168,1,0,0:0:0:0:
402,192,68168,1,0,0:0:0:0:
329,192,68280,1,0,0:0:0:0:
36,192,68280,1,0,0:0:0:0:
109,192,68280,1,0,0:0:0:0:
256,192,68393,1,0,0:0:0:0:
182,192,68393,1,0,0:0:0:0:
109,192,68506,1,0,0:0:0:0:
402,192,68506,1,0,0:0:0:0:
329,192,68506,1,0,0:0:0:0:
256,192,68619,1,0,0:0:0:0:
182,192,68619,1,0,0:0:0:0:
329,192,68731,1,0,0:0:0:0:
475,192,68731,1,0,0:0:0:0:
109,192,68731,1,0,0:0:0:0:
36,192,68731,1,0,0:0:0:0:
182,192,68844,1,0,0:0:0:0:
402,192,68957,1,0,0:0:0:0:
475,192,68957,1,0,0:0:0:0:
329,192,68957,1,0,0:0:0:0:
109,192,68957,1,0,0:0:0:0:
256,192,69070,1,0,0:0:0:0:
475,192,69183,1,0,0:0:0:0:
36,192,69183,1,0,0:0:0:0:
402,192,69183,1,0,0:0:0:0:
182,192,69183,1,0,0:0:0:0:
329,192,69295,1,0,0:0:0:0:
402,192,69408,1,0,0:0:0:0:
182,192,69408,1,0,0:0:0:0:
109,192,69408,1,0,0:0:0:0:
36,192,69408,1,0,0:0:0:0:
256,192,69521,1,0,0:0:0:0:
329,192,69634,1,0,0:0:0:0:
475,192,69634,1,0,0:0:0:0:
109,192,69634,1,0,0:0:0:0:
36,192,69634,1,0,0:0:0:0:
182,192,69746,1,0,0:0:0:0:
256,192,69746,1,0,0:0:0:0:
402,192,69859,1,0,0:0:0:0:
329,192,69859,1,0,0:0:0:0:
36,192,69859,1,0,0:0:0:0:
109,192,69972,1,0,0:0:0:0:
182,192,69972,1,0,0:0:0:0:
256,192,70085,1,0,0:0:0:0:
475,192,70085,1,0,0:0:0:0:
402,192,70085,1,0,0:0:0:0:
36,192,70085,1,0,0:0:0:0:
182,192,70198,1,0,0:0:0:0:
329,192,70310,1,0,0:0:0:0:
109,192,70310,1,0,0:0:0:0:
402,192,70310,1,0,0:0:0:0:
475,192,70310,1,0,0:0:0:0:
182,192,70423,1,0,0:0:0:0:
256,192,70536,1,0,0:0:0:0:
402,192,70536,1,0,0:0:0:0:
475,192,70536,1,0,0:0:0:0:
36,192,70536,1,0,0:0:0:0:
109,192,70649,1,0,0:0:0:0:
182,192,70761,1,0,0:0:0:0:
256,192,70761,1,0,0:0:0:0:
402,192,70761,1,0,0:0:0:0:
475,192,70761,1,0,0:0:0:0:
36,192,70874,1,0,0:0:0:0:
109,192,70987,1,0,0:0:0:0:
182,192,70987,1,0,0:0:0:0:
329,192,70987,1,0,0:0:0:0:
402,192,70987,1,0,0:0:0:0:
475,192,71100,1,0,0:0:0:0:
329,192,71213,1,0,0:0:0:0:
256,192,71213,1,0,0:0:0:0:
109,192,71213,1,0,0:0:0:0:
36,192,71213,1,0,0:0:0:0:
402,192,71325,1,0,0:0:0:0:
475,192,71438,1,0,0:0:0:0:
256,192,71438,1,0,0:0:0:0:
182,192,71438,1,0,0:0:0:0:
36,192,71438,1,0,0:0:0:0:
329,192,71551,1,0,0:0:0:0:
402,192,71664,1,0,0:0:0:0:
109,192,71664,1,0,0:0:0:0:
182,192,71664,1,0,0:0:0:0:
329,192,71777,1,0,0:0:0:0:
256,192,71889,1,0,0:0:0:0:
36,192,71889,1,0,0:0:0:0:
109,192,71889,1,0,0:0:0:0:
475,192,71889,1,0,0:0:0:0:
329,192,72002,1,0,0:0:0:0:
182,192,72115,1,0,0:0:0:0:
36,192,72115,1,0,0:0:0:0:
109,192,72115,1,0,0:0:0:0:
402,192,72115,1,0,0:0:0:0:
329,192,72228,1,0,0:0:0:0:
256,192,72340,1,0,0:0:0:0:
109,192,72340,1,0,0:0:0:0:
36,192,72340,1,0,0:0:0:0:
475,192,72340,1,0,0:0:0:0:
402,192,72453,1,0,0:0:0:0:
329,192,72566,1,0,0:0:0:0:
256,192,72566,1,0,0:0:0:0:
109,192,72566,1,0,0:0:0:0:
36,192,72566,1,0,0:0:0:0:
475,192,72679,1,0,0:0:0:0:
402,192,72792,1,0,0:0:0:0:
329,192,72792,1,0,0:0:0:0:
182,192,72792,1,0,0:0:0:0:
109,192,72792,1,0,0:0:0:0:
36,192,72904,1,0,0:0:0:0:
182,192,73017,1,0,0:0:0:0:
256,192,73017,1,0,0:0:0:0:
402,192,73017,1,0,0:0:0:0:
475,192,73017,1,0,0:0:0:0:
109,192,73130,1,0,0:0:0:0:
36,192,73243,1,0,0:0:0:0:
256,192,73243,1,0,0:0:0:0:
329,192,73243,1,0,0:0:0:0:
475,192,73243,1,0,0:0:0:0:
182,192,73355,1,0,0:0:0:0:
109,192,73468,1,0,0:0:0:0:
402,192,73468,1,0,0:0:0:0:
329,192,73468,1,0,0:0:0:0:
182,192,73581,1,0,0:0:0:0:
256,192,73694,1,0,0:0:0:0:
475,192,73694,1,0,0:0:0:0:
402,192,73694,1,0,0:0:0:0:
36,192,73694,1,0,0:0:0:0:
182,192,73807,1,0,0:0:0:0:
329,192,73919,1,0,0:0:0:0:
475,192,73919,1,0,0:0:0:0:
402,192,73919,1,0,0:0:0:0:
109,192,73919,1,0,0:0:0:0:
182,192,74032,1,0,0:0:0:0:
256,192,74145,1,0,0:0:0:0:
402,192,74145,1,0,0:0:0:0:
36,192,74145,1,0,0:0:0:0:
475,192,74145,1,0,0:0:0:0:
109,192,74258,1,0,0:0:0:0:
329,192,74258,1,0,0:0:0:0:
182,192,74371,1,0,0:0:0:0:
402,192,74371,1,0,0:0:0:0:
256,192,74371,1,0,0:0:0:0:
36,192,74483,1,0,0:0:0:0:
109,192,74596,1,0,0:0:0:0:
256,192,74596,1,0,0:0:0:0:
329,192,74596,1,0,0:0:0:0:
475,192,74596,1,0,0:0:0:0:
182,192,74709,1,0,0:0:0:0:
402,192,74822,1,0,0:0:0:0:
475,192,74822,1,0,0:0:0:0:
256,192,74822,1,0,0:0:0:0:
36,192,74822,1,0,0:0:0:0:
256,192,75047,1,0,0:0:0:0:
109,192,75047,1,0,0:0:0:0:
36,192,75047,1,0,0:0:0:0:
475,192,75047,1,0,0:0:0:0:
402,192,75160,1,0,0:0:0:0:
182,192,75160,1,0,0:0:0:0:
329,192,75273,1,0,0:0:0:0:
109,192,75273,1,0,0:0:0:0:
256,192,75273,1,0,0:0:0:0:
475,192,75386,1,0,0:0:0:0:
402,192,75498,1,0,0:0:0:0:
256,192,75498,1,0,0:0:0:0:
182,192,75498,1,0,0:0:0:0:
36,192,75498,1,0,0:0:0:0:
329,192,75611,1,0,0:0:0:0:
256,192,75724,1,0,0:0:0:0:
109,192,75724,1,0,0:0:0:0:
36,192,75724,1,0,0:0:0:0:
475,192,75724,1,0,0:0:0:0:
109,192,75949,1,0,0:0:0:0:
36,192,75949,1,0,0:0:0:0:
256,192,75949,1,0,0:0:0:0:
402,192,75949,1,0,0:0:0:0:
329,192,76175,1,0,0:0:0:0:
182,192,76175,1,0,0:0:0:0:
475,192,76175,1,0,0:0:0:0:
402,192,76401,1,0,0:0:0:0:
256,192,76401,1,0,0:0:0:0:
36,192,76401,1,0,0:0:0:0:
475,192,76401,1,0,0:0:0:0:
329,192,76626,1,0,0:0:0:0:
182,192,76626,1,0,0:0:0:0:
109,192,76626,1,0,0:0:0:0:
402,192,76852,1,0,0:0:0:0:
475,192,76852,1,0,0:0:0:0:
256,192,76852,1,0,0:0:0:0:
109,192,76964,1,0,0:0:0:0:
182,192,76964,1,0,0:0:0:0:
36,192,76964,1,0,0:0:0:0:
402,192,77077,1,0,0:0:0:0:
329,192,77077,1,0,0:0:0:0:
475,192,77077,1,0,0:0:0:0:
182,192,77190,1,0,0:0:0:0:
109,192,77190,1,0,0:0:0:0:
36,192,77190,1,0,0:0:0:0:
402,192,77303,1,0,0:0:0:0:
256,192,77303,1,0,0:0:0:0:
475,192,77303,1,0,0:0:0:0:
182,192,77416,1,0,0:0:0:0:
109,192,77528,1,0,0:0:0:0:
329,192,77528,1,0,0:0:0:0:
256,192,77641,1,0,0:0:0:0:
182,192,77754,1,0,0:0:0:0:
402,192,77754,1,0,0:0:0:0:
475,192,77754,1,0,0:0:0:0:
36,192,77754,128,0,78318:0:0:0:0:
256,192,77980,1,0,0:0:0:0:
329,192,78205,1,0,0:0:0:0:
475,192,78431,1,0,0:0:0:0:
402,192,78431,1,0,0:0:0:0:
182,192,78431,1,0,0:0:0:0:
36,192,78431,128,0,79220:0:0:0:0:
256,192,78882,1,0,0:0:0:0:
329,192,79107,1,0,0:0:0:0:
402,192,79333,1,0,0:0:0:0:
475,192,79333,1,0,0:0:0:0:
182,192,79333,1,0,0:0:0:0:
36,192,79333,1,0,0:0:0:0:
329,192,79558,1,0,0:0:0:0:
475,192,79558,1,0,0:0:0:0:
256,192,79671,1,0,0:0:0:0:
182,192,79784,1,0,0:0:0:0:
36,192,79784,1,0,0:0:0:0:
109,192,80010,1,0,0:0:0:0:
402,192,80010,1,0,0:0:0:0:
329,192,80235,5,0,0:0:0:0:
402,192,80235,1,0,0:0:0:0:
256,192,80348,1,0,0:0:0:0:
109,192,80461,1,0,0:0:0:0:
182,192,80461,1,0,0:0:0:0:
36,192,80686,1,0,0:0:0:0:
182,192,80686,1,0,0:0:0:0:
329,192,80686,1,0,0:0:0:0:
475,192,80686,1,0,0:0:0:0:
402,192,80912,1,0,0:0:0:0:
256,192,80912,1,0,0:0:0:0:
109,192,80912,1,0,0:0:0:0:
36,192,81363,5,0,0:0:0:0:
475,192,81363,1,0,0:0:0:0:
182,192,81363,1,0,0:0:0:0:
402,192,81363,1,0,0:0:0:0:
256,192,81476,1,0,0:0:0:0:
475,192,81589,1,0,0:0:0:0:
109,192,81589,1,0,0:0:0:0:
329,192,81589,1,0,0:0:0:0:
256,192,81701,1,0,0:0:0:0:
182,192,81814,1,0,0:0:0:0:
36,192,81814,1,0,0:0:0:0:
475,192,81814,1,0,0:0:0:0:
402,192,81814,1,0,0:0:0:0:
329,192,81927,1,0,0:0:0:0:
109,192,82040,1,0,0:0:0:0:
475,192,82040,1,0,0:0:0:0:
256,192,82040,1,0,0:0:0:0:
329,192,82152,1,0,0:0:0:0:
402,192,82265,1,0,0:0:0:0:
36,192,82265,1,0,0:0:0:0:
182,192,82265,1,0,0:0:0:0:
256,192,82378,1,0,0:0:0:0:
475,192,82378,1,0,0:0:0:0:
182,192,82491,1,0,0:0:0:0:
36,192,82491,1,0,0:0:0:0:
402,192,82491,1,0,0:0:0:0:
256,192,82604,1,0,0:0:0:0:
109,192,82604,1,0,0:0:0:0:
329,192,82716,1,0,0:0:0:0:
182,192,82716,1,0,0:0:0:0:
475,192,82716,1,0,0:0:0:0:
402,192,82716,1,0,0:0:0:0:
109,192,82829,1,0,0:0:0:0:
36,192,82942,1,0,0:0:0:0:
256,192,82942,1,0,0:0:0:0:
402,192,82942,1,0,0:0:0:0:
109,192,83055,1,0,0:0:0:0:
182,192,83168,1,0,0:0:0:0:
329,192,83168,1,0,0:0:0:0:
475,192,83168,1,0,0:0:0:0:
36,192,83280,1,0,0:0:0:0:
109,192,83280,1,0,0:0:0:0:
256,192,83393,1,0,0:0:0:0:
402,192,83393,1,0,0:0:0:0:
109,192,83506,1,0,0:0:0:0:
182,192,83506,1,0,0:0:0:0:
329,192,83619,1,0,0:0:0:0:
475,192,83619,1,0,0:0:0:0:
36,192,83619,1,0,0:0:0:0:
182,192,83731,1,0,0:0:0:0:
256,192,83731,1,0,0:0:0:0:
402,192,83844,1,0,0:0:0:0:
36,192,83844,1,0,0:0:0:0:
109,192,83844,1,0,0:0:0:0:
256,192,83957,1,0,0:0:0:0:
329,192,83957,1,0,0:0:0:0:
109,192,84070,1,0,0:0:0:0:
182,192,84070,1,0,0:0:0:0:
475,192,84070,1,0,0:0:0:0:
329,192,84183,1,0,0:0:0:0:
402,192,84183,1,0,0:0:0:0:
182,192,84295,1,0,0:0:0:0:
256,192,84295,1,0,0:0:0:0:
36,192,84295,1,0,0:0:0:0:
402,192,84408,1,0,0:0:0:0:
475,192,84408,1,0,0:0:0:0:
256,192,84521,1,0,0:0:0:0:
329,192,84521,1,0,0:0:0:0:
109,192,84521,1,0,0:0:0:0:
475,192,84634,1,0,0:0:0:0:
36,192,84634,1,0,0:0:0:0:
329,192,84746,1,0,0:0:0:0:
402,192,84746,1,0,0:0:0:0:
182,192,84746,1,0,0:0:0:0:
109,192,84859,1,0,0:0:0:0:
36,192,84859,1,0,0:0:0:0:
475,192,84972,1,0,0:0:0:0:
402,192,84972,1,0,0:0:0:0:
256,192,84972,1,0,0:0:0:0:
329,192,85085,1,0,0:0:0:0:
36,192,85198,1,0,0:0:0:0:
182,192,85198,1,0,0:0:0:0:
402,192,85198,1,0,0:0:0:0:
256,192,85310,1,0,0:0:0:0:
329,192,85423,1,0,0:0:0:0:
475,192,85423,1,0,0:0:0:0:
36,192,85423,1,0,0:0:0:0:
109,192,85423,1,0,0:0:0:0:
182,192,85536,1,0,0:0:0:0:
402,192,85649,1,0,0:0:0:0:
36,192,85649,1,0,0:0:0:0:
256,192,85649,1,0,0:0:0:0:
182,192,85761,1,0,0:0:0:0:
109,192,85874,1,0,0:0:0:0:
475,192,85874,1,0,0:0:0:0:
329,192,85874,1,0,0:0:0:0:
256,192,85987,1,0,0:0:0:0:
36,192,85987,1,0,0:0:0:0:
329,192,86100,1,0,0:0:0:0:
475,192,86100,1,0,0:0:0:0:
109,192,86100,1,0,0:0:0:0:
256,192,86213,1,0,0:0:0:0:
402,192,86213,1,0,0:0:0:0:
182,192,86325,1,0,0:0:0:0:
329,192,86325,1,0,0:0:0:0:
36,192,86325,1,0,0:0:0:0:
109,192,86325,1,0,0:0:0:0:
402,192,86438,1,0,0:0:0:0:
475,192,86551,1,0,0:0:0:0:
256,192,86551,1,0,0:0:0:0:
109,192,86551,1,0,0:0:0:0:
402,192,86664,1,0,0:0:0:0:
36,192,86777,1,0,0:0:0:0:
329,192,86777,1,0,0:0:0:0:
182,192,86777,1,0,0:0:0:0:
402,192,86889,1,0,0:0:0:0:
109,192,86889,1,0,0:0:0:0:
256,192,87002,1,0,0:0:0:0:
475,192,87002,1,0,0:0:0:0:
329,192,87002,1,0,0:0:0:0:
36,192,87002,1,0,0:0:0:0:
182,192,87115,1,0,0:0:0:0:
109,192,87115,1,0,0:0:0:0:
256,192,87228,1,0,0:0:0:0:
402,192,87228,1,0,0:0:0:0:
475,192,87228,1,0,0:0:0:0:
36,192,87228,1,0,0:0:0:0:
109,192,87340,1,0,0:0:0:0:
182,192,87340,1,0,0:0:0:0:
475,192,87453,1,0,0:0:0:0:
329,192,87453,1,0,0:0:0:0:
36,192,87453,1,0,0:0:0:0:
256,192,87566,1,0,0:0:0:0:
182,192,87566,1,0,0:0:0:0:
36,192,87679,1,0,0:0:0:0:
109,192,87679,1,0,0:0:0:0:
329,192,87679,1,0,0:0:0:0:
475,192,87679,1,0,0:0:0:0:
256,192,87792,1,0,0:0:0:0:
402,192,87792,1,0,0:0:0:0:
329,192,87904,1,0,0:0:0:0:
109,192,87904,1,0,0:0:0:0:
182,192,87904,1,0,0:0:0:0:
36,192,88130,1,0,0:0:0:0:
256,192,88130,1,0,0:0:0:0:
402,192,88130,1,0,0:0:0:0:
475,192,88130,1,0,0:0:0:0:
109,192,88130,1,0,0:0:0:0:
329,192,88355,1,0,0:0:0:0:
402,192,88355,1,0,0:0:0:0:
182,192,88355,1,0,0:0:0:0:
109,192,88355,1,0,0:0:0:0:
475,192,88581,1,0,0:0:0:0:
36,192,88581,1,0,0:0:0:0:
329,192,88581,1,0,0:0:0:0:
109,192,88581,1,0,0:0:0:0:
256,192,88694,1,0,0:0:0:0:
36,192,88807,1,0,0:0:0:0:
402,192,88807,1,0,0:0:0:0:
182,192,88807,1,0,0:0:0:0:
256,192,88919,1,0,0:0:0:0:
329,192,89032,1,0,0:0:0:0:
475,192,89032,1,0,0:0:0:0:
36,192,89032,1,0,0:0:0:0:
109,192,89032,1,0,0:0:0:0:
182,192,89145,1,0,0:0:0:0:
402,192,89258,1,0,0:0:0:0:
36,192,89258,1,0,0:0:0:0:
256,192,89258,1,0,0:0:0:0:
182,192,89371,1,0,0:0:0:0:
109,192,89483,1,0,0:0:0:0:
475,192,89483,1,0,0:0:0:0:
329,192,89483,1,0,0:0:0:0:
256,192,89596,1,0,0:0:0:0:
36,192,89596,1,0,0:0:0:0:
329,192,89709,1,0,0:0:0:0:
475,192,89709,1,0,0:0:0:0:
109,192,89709,1,0,0:0:0:0:
256,192,89822,1,0,0:0:0:0:
402,192,89822,1,0,0:0:0:0:
182,192,89934,1,0,0:0:0:0:
329,192,89934,1,0,0:0:0:0:
36,192,89934,1,0,0:0:0:0:
109,192,89934,1,0,0:0:0:0:
402,192,90047,1,0,0:0:0:0:
475,192,90160,1,0,0:0:0:0:
256,192,90160,1,0,0:0:0:0:
109,192,90160,1,0,0:0:0:0:
402,192,90273,1,0,0:0:0:0:
329,192,90386,1,0,0:0:0:0:
182,192,90386,1,0,0:0:0:0:
36,192,90386,1,0,0:0:0:0:
475,192,90498,1,0,0:0:0:0:
402,192,90498,1,0,0:0:0:0:
256,192,90611,1,0,0:0:0:0:
109,192,90611,1,0,0:0:0:0:
402,192,90724,1,0,0:0:0:0:
329,192,90724,1,0,0:0:0:0:
182,192,90837,1,0,0:0:0:0:
36,192,90837,1,0,0:0:0:0:
475,192,90837,1,0,0:0:0:0:
329,192,90949,1,0,0:0:0:0:
256,192,90949,1,0,0:0:0:0:
109,192,91062,1,0,0:0:0:0:
475,192,91062,1,0,0:0:0:0:
402,192,91062,1,0,0:0:0:0:
256,192,91175,1,0,0:0:0:0:
182,192,91175,1,0,0:0:0:0:
402,192,91288,1,0,0:0:0:0:
329,192,91288,1,0,0:0:0:0:
36,192,91288,1,0,0:0:0:0:
182,192,91401,1,0,0:0:0:0:
109,192,91401,1,0,0:0:0:0:
329,192,91513,1,0,0:0:0:0:
256,192,91513,1,0,0:0:0:0:
475,192,91513,1,0,0:0:0:0:
109,192,91626,1,0,0:0:0:0:
36,192,91626,1,0,0:0:0:0:
256,192,91739,1,0,0:0:0:0:
182,192,91739,1,0,0:0:0:0:
402,192,91739,1,0,0:0:0:0:
36,192,91852,1,0,0:0:0:0:
475,192,91852,1,0,0:0:0:0:
182,192,91964,1,0,0:0:0:0:
109,192,91964,1,0,0:0:0:0:
329,192,91964,1,0,0:0:0:0:
402,192,92077,1,0,0:0:0:0:
475,192,92077,1,0,0:0:0:0:
36,192,92190,1,0,0:0:0:0:
109,192,92190,1,0,0:0:0:0:
256,192,92190,1,0,0:0:0:0:
182,192,92303,1,0,0:0:0:0:
475,192,92416,1,0,0:0:0:0:
109,192,92416,1,0,0:0:0:0:
329,192,92416,1,0,0:0:0:0:
256,192,92528,1,0,0:0:0:0:
182,192,92641,1,0,0:0:0:0:
36,192,92641,1,0,0:0:0:0:
475,192,92641,1,0,0:0:0:0:
402,192,92641,1,0,0:0:0:0:
329,192,92754,1,0,0:0:0:0:
109,192,92867,1,0,0:0:0:0:
475,192,92867,1,0,0:0:0:0:
256,192,92867,1,0,0:0:0:0:
329,192,92980,1,0,0:0:0:0:
402,192,93092,1,0,0:0:0:0:
36,192,93092,1,0,0:0:0:0:
182,192,93092,1,0,0:0:0:0:
256,192,93205,1,0,0:0:0:0:
475,192,93205,1,0,0:0:0:0:
182,192,93318,1,0,0:0:0:0:
36,192,93318,1,0,0:0:0:0:
402,192,93318,1,0,0:0:0:0:
256,192,93431,1,0,0:0:0:0:
109,192,93431,1,0,0:0:0:0:
329,192,93543,1,0,0:0:0:0:
182,192,93543,1,0,0:0:0:0:
475,192,93543,1,0,0:0:0:0:
402,192,93543,1,0,0:0:0:0:
109,192,93656,1,0,0:0:0:0:
36,192,93769,1,0,0:0:0:0:
256,192,93769,1,0,0:0:0:0:
402,192,93769,1,0,0:0:0:0:
109,192,93882,1,0,0:0:0:0:
475,192,93995,1,0,0:0:0:0:
182,192,93995,1,0,0:0:0:0:
329,192,93995,1,0,0:0:0:0:
256,192,94220,1,0,0:0:0:0:
402,192,94220,1,0,0:0:0:0:
182,192,94446,1,0,0:0:0:0:
329,192,94446,1,0,0:0:0:0:
475,192,94446,1,0,0:0:0:0:
256,192,94671,1,0,0:0:0:0:
402,192,94671,1,0,0:0:0:0:
329,192,94897,1,0,0:0:0:0:
182,192,94897,1,0,0:0:0:0:
36,192,94897,1,0,0:0:0:0:
256,192,95122,1,0,0:0:0:0:
402,192,95122,1,0,0:0:0:0:
329,192,95235,1,0,0:0:0:0:
182,192,95235,1,0,0:0:0:0:
256,192,95348,1,0,0:0:0:0:
109,192,95348,1,0,0:0:0:0:
329,192,95461,1,0,0:0:0:0:
475,192,95461,1,0,0:0:0:0:
402,192,95574,1,0,0:0:0:0:
256,192,95574,1,0,0:0:0:0:
329,192,95686,1,0,0:0:0:0:
182,192,95686,1,0,0:0:0:0:
256,192,95799,1,0,0:0:0:0:
36,192,95799,1,0,0:0:0:0:
109,192,95799,1,0,0:0:0:0:
475,192,95799,1,0,0:0:0:0:
329,192,96025,1,0,0:0:0:0:
109,192,96025,1,0,0:0:0:0:
256,192,96137,1,0,0:0:0:0:
182,192,96250,1,0,0:0:0:0:
475,192,96250,1,0,0:0:0:0:
402,192,96250,1,0,0:0:0:0:
36,192,96250,1,0,0:0:0:0:
329,192,96476,1,0,0:0:0:0:
109,192,96476,1,0,0:0:0:0:
182,192,96589,1,0,0:0:0:0:
256,192,96701,1,0,0:0:0:0:
402,192,96701,1,0,0:0:0:0:
182,192,96927,1,0,0:0:0:0:
36,192,96927,1,0,0:0:0:0:
475,192,96927,1,0,0:0:0:0:
402,192,96927,1,0,0:0:0:0:
36,192,97040,1,0,0:0:0:0:
182,192,97040,1,0,0:0:0:0:
329,192,97152,1,0,0:0:0:0:
475,192,97152,1,0,0:0:0:0:
256,192,97152,1,0,0:0:0:0:
402,192,97152,1,0,0:0:0:0:
182,192,97265,1,0,0:0:0:0:
109,192,97378,1,0,0:0:0:0:
329,192,97378,1,0,0:0:0:0:
256,192,97491,1,0,0:0:0:0:
182,192,97604,1,0,0:0:0:0:
36,192,97604,1,0,0:0:0:0:
402,192,97604,1,0,0:0:0:0:
475,192,97604,1,0,0:0:0:0:
256,192,97829,1,0,0:0:0:0:
109,192,97829,1,0,0:0:0:0:
182,192,97942,1,0,0:0:0:0:
329,192,97942,1,0,0:0:0:0:
256,192,98055,1,0,0:0:0:0:
402,192,98055,1,0,0:0:0:0:
475,192,98055,1,0,0:0:0:0:
36,192,98055,1,0,0:0:0:0:
182,192,98168,1,0,0:0:0:0:
329,192,98280,1,0,0:0:0:0:
36,192,98280,1,0,0:0:0:0:
182,192,98393,1,0,0:0:0:0:
36,192,98506,1,0,0:0:0:0:
402,192,98506,1,0,0:0:0:0:
256,192,98619,1,0,0:0:0:0:
329,192,98731,1,0,0:0:0:0:
475,192,98731,1,0,0:0:0:0:
109,192,98731,1,0,0:0:0:0:
36,192,98731,1,0,0:0:0:0:
329,192,98844,1,0,0:0:0:0:
475,192,98844,1,0,0:0:0:0:
109,192,98957,1,0,0:0:0:0:
36,192,98957,1,0,0:0:0:0:
256,192,98957,1,0,0:0:0:0:
182,192,98957,1,0,0:0:0:0:
329,192,99070,1,0,0:0:0:0:
402,192,99183,1,0,0:0:0:0:
182,192,99183,1,0,0:0:0:0:
256,192,99295,1,0,0:0:0:0:
329,192,99408,1,0,0:0:0:0:
475,192,99408,1,0,0:0:0:0:
109,192,99408,1,0,0:0:0:0:
36,192,99408,1,0,0:0:0:0:
182,192,99634,1,0,0:0:0:0:
402,192,99634,1,0,0:0:0:0:
256,192,99859,1,0,0:0:0:0:
109,192,99859,1,0,0:0:0:0:
36,192,99859,1,0,0:0:0:0:
475,192,99859,1,0,0:0:0:0:
329,192,99972,1,0,0:0:0:0:
182,192,100085,1,0,0:0:0:0:
475,192,100085,1,0,0:0:0:0:
329,192,100198,1,0,0:0:0:0:
475,192,100310,1,0,0:0:0:0:
109,192,100310,1,0,0:0:0:0:
256,192,100423,1,0,0:0:0:0:
182,192,100536,1,0,0:0:0:0:
36,192,100536,1,0,0:0:0:0:
402,192,100536,1,0,0:0:0:0:
475,192,100536,1,0,0:0:0:0:
182,192,100649,1,0,0:0:0:0:
36,192,100649,1,0,0:0:0:0:
402,192,100761,1,0,0:0:0:0:
475,192,100761,1,0,0:0:0:0:
256,192,100761,1,0,0:0:0:0:
329,192,100761,1,0,0:0:0:0:
109,192,100987,1,0,0:0:0:0:
329,192,100987,1,0,0:0:0:0:
182,192,101100,1,0,0:0:0:0:
402,192,101100,1,0,0:0:0:0:
36,192,101213,1,0,0:0:0:0:
475,192,101213,1,0,0:0:0:0:
256,192,101213,1,0,0:0:0:0:
109,192,101213,1,0,0:0:0:0:
182,192,101438,1,0,0:0:0:0:
402,192,101438,1,0,0:0:0:0:
329,192,101551,1,0,0:0:0:0:
109,192,101551,1,0,0:0:0:0:
256,192,101664,1,0,0:0:0:0:
36,192,101664,1,0,0:0:0:0:
475,192,101664,1,0,0:0:0:0:
402,192,101664,1,0,0:0:0:0:
109,192,101889,1,0,0:0:0:0:
329,192,101889,1,0,0:0:0:0:
182,192,102002,1,0,0:0:0:0:
402,192,102002,1,0,0:0:0:0:
256,192,102115,1,0,0:0:0:0:
109,192,102115,1,0,0:0:0:0:
36,192,102115,1,0,0:0:0:0:
475,192,102115,1,0,0:0:0:0:
182,192,102340,1,0,0:0:0:0:
329,192,102340,1,0,0:0:0:0:
402,192,102340,1,0,0:0:0:0:
109,192,102340,1,0,0:0:0:0:
256,192,102566,1,0,0:0:0:0:
475,192,102566,1,0,0:0:0:0:
36,192,102566,1,0,0:0:0:0:
182,192,102566,1,0,0:0:0:0:
402,192,102566,1,0,0:0:0:0:
109,192,102792,1,0,0:0:0:0:
182,192,102792,1,0,0:0:0:0:
402,192,102792,1,0,0:0:0:0:
329,192,102792,1,0,0:0:0:0:
36,192,103017,1,0,0:0:0:0:
475,192,103017,1,0,0:0:0:0:
256,192,103017,1,0,0:0:0:0:
329,192,103017,1,0,0:0:0:0:
182,192,103243,1,0,0:0:0:0:
402,192,103243,1,0,0:0:0:0:
256,192,103355,1,0,0:0:0:0:
329,192,103468,1,0,0:0:0:0:
475,192,103468,1,0,0:0:0:0:
109,192,103468,1,0,0:0:0:0:
36,192,103468,1,0,0:0:0:0:
256,192,103581,1,0,0:0:0:0:
109,192,103694,1,0,0:0:0:0:
402,192,103694,1,0,0:0:0:0:
256,192,103807,1,0,0:0:0:0:
36,192,103919,1,0,0:0:0:0:
182,192,103919,1,0,0:0:0:0:
182,192,104145,1,0,0:0:0:0:
36,192,104145,1,0,0:0:0:0:
402,192,104145,1,0,0:0:0:0:
475,192,104145,1,0,0:0:0:0:
36,192,104258,1,0,0:0:0:0:
182,192,104258,1,0,0:0:0:0:
256,192,104371,1,0,0:0:0:0:
402,192,104371,1,0,0:0:0:0:
475,192,104371,1,0,0:0:0:0:
329,192,104371,1,0,0:0:0:0:
182,192,104483,1,0,0:0:0:0:
109,192,104596,1,0,0:0:0:0:
329,192,104596,1,0,0:0:0:0:
402,192,104709,1,0,0:0:0:0:
475,192,104822,1,0,0:0:0:0:
256,192,104822,1,0,0:0:0:0:
182,192,104822,1,0,0:0:0:0:
36,192,104822,1,0,0:0:0:0:
256,192,105047,1,0,0:0:0:0:
109,192,105047,1,0,0:0:0:0:
329,192,105160,1,0,0:0:0:0:
182,192,105273,1,0,0:0:0:0:
36,192,105273,1,0,0:0:0:0:
402,192,105273,1,0,0:0:0:0:
475,192,105273,1,0,0:0:0:0:
256,192,105386,1,0,0:0:0:0:
402,192,105498,1,0,0:0:0:0:
109,192,105498,1,0,0:0:0:0:
256,192,105611,1,0,0:0:0:0:
475,192,105724,1,0,0:0:0:0:
329,192,105724,1,0,0:0:0:0:
182,192,105837,1,0,0:0:0:0:
329,192,105949,1,0,0:0:0:0:
475,192,105949,1,0,0:0:0:0:
109,192,105949,1,0,0:0:0:0:
36,192,105949,1,0,0:0:0:0:
475,192,106062,1,0,0:0:0:0:
329,192,106062,1,0,0:0:0:0:
256,192,106175,1,0,0:0:0:0:
109,192,106175,1,0,0:0:0:0:
36,192,106175,1,0,0:0:0:0:
182,192,106175,1,0,0:0:0:0:
402,192,106401,1,0,0:0:0:0:
182,192,106401,1,0,0:0:0:0:
109,192,106401,1,0,0:0:0:0:
329,192,106401,1,0,0:0:0:0:
256,192,106626,1,0,0:0:0:0:
329,192,106626,1,0,0:0:0:0:
475,192,106626,1,0,0:0:0:0:
36,192,106626,1,0,0:0:0:0:
402,192,106852,1,0,0:0:0:0:
182,192,106852,1,0,0:0:0:0:
329,192,106964,1,0,0:0:0:0:
256,192,107077,1,0,0:0:0:0:
109,192,107077,1,0,0:0:0:0:
36,192,107077,1,0,0:0:0:0:
475,192,107077,1,0,0:0:0:0:
402,192,107190,1,0,0:0:0:0:
256,192,107303,1,0,0:0:0:0:
182,192,107303,1,0,0:0:0:0:
402,192,107416,1,0,0:0:0:0:
256,192,107528,1,0,0:0:0:0:
109,192,107528,1,0,0:0:0:0:
329,192,107641,1,0,0:0:0:0:
182,192,107754,1,0,0:0:0:0:
36,192,107754,1,0,0:0:0:0:
402,192,107754,1,0,0:0:0:0:
475,192,107754,1,0,0:0:0:0:
36,192,107867,1,0,0:0:0:0:
182,192,107867,1,0,0:0:0:0:
475,192,107980,1,0,0:0:0:0:
402,192,107980,1,0,0:0:0:0:
329,192,107980,1,0,0:0:0:0:
256,192,107980,1,0,0:0:0:0:
109,192,108205,1,0,0:0:0:0:
256,192,108205,1,0,0:0:0:0:
402,192,108205,1,0,0:0:0:0:
36,192,108431,1,0,0:0:0:0:
182,192,108431,1,0,0:0:0:0:
329,192,108431,1,0,0:0:0:0:
256,192,108656,1,0,0:0:0:0:
109,192,108656,1,0,0:0:0:0:
36,192,108882,1,0,0:0:0:0:
182,192,108882,1,0,0:0:0:0:
329,192,108882,1,0,0:0:0:0:
256,192,109107,5,0,0:0:0:0:
402,192,109107,1,0,0:0:0:0:
329,192,109333,1,0,0:0:0:0:
475,192,109333,1,0,0:0:0:0:
182,192,109333,1,0,0:0:0:0:
256,192,109558,1,0,0:0:0:0:
109,192,109558,1,0,0:0:0:0:
475,192,109558,1,0,0:0:0:0:
402,192,109671,1,0,0:0:0:0:
182,192,109784,1,0,0:0:0:0:
36,192,109784,1,0,0:0:0:0:
329,192,109784,1,0,0:0:0:0:
256,192,109897,1,0,0:0:0:0:
109,192,110010,1,0,0:0:0:0:
329,192,110010,1,0,0:0:0:0:
182,192,110122,1,0,0:0:0:0:
402,192,110122,1,0,0:0:0:0:
109,192,110235,5,0,0:0:0:0:
36,192,110235,1,0,0:0:0:0:
329,192,110235,1,0,0:0:0:0:
256,192,110235,1,0,0:0:0:0:
475,192,110235,1,0,0:0:0:0:
402,192,110461,1,0,0:0:0:0:
182,192,110461,1,0,0:0:0:0:
329,192,110686,1,0,0:0:0:0:
109,192,110686,1,0,0:0:0:0:
402,192,110912,1,0,0:0:0:0:
182,192,110912,1,0,0:0:0:0:
256,192,111137,1,0,0:0:0:0:
475,192,111137,1,0,0:0:0:0:
109,192,111137,1,0,0:0:0:0:
329,192,111137,128,0,111476:0:0:0:0:
256,192,111476,1,0,0:0:0:0:
36,192,111476,1,0,0:0:0:0:
402,192,111476,1,0,0:0:0:0:
182,192,111476,128,0,111814:0:0:0:0:
256,192,111814,1,0,0:0:0:0:
109,192,111814,1,0,0:0:0:0:
475,192,111814,1,0,0:0:0:0:
329,192,111814,128,0,112942:0:0:0:0:
182,192,112265,1,0,0:0:0:0:
36,192,112265,1,0,0:0:0:0:
109,192,112491,1,0,0:0:0:0:
256,192,112491,1,0,0:0:0:0:
182,192,112716,1,0,0:0:0:0:
36,192,112716,1,0,0:0:0:0:
109,192,112942,1,0,0:0:0:0:
256,192,112942,1,0,0:0:0:0:
402,192,112942,1,0,0:0:0:0:
475,192,112942,128,0,113280:0:0:0:0:
109,192,113280,1,0,0:0:0:0:
256,192,113280,1,0,0:0:0:0:
402,192,113280,1,0,0:0:0:0:
36,192,113280,128,0,113619:0:0:0:0:
256,192,113619,1,0,0:0:0:0:
109,192,113619,1,0,0:0:0:0:
402,192,113619,1,0,0:0:0:0:
475,192,113619,128,0,114746:0:0:0:0:
329,192,114070,128,0,114746:0:0:0:0:
182,192,114295,128,0,114746:0:0:0:0:
36,192,114521,1,0,0:0:0:0:
402,192,114521,1,0,0:0:0:0:
109,192,114521,1,0,0:0:0:0:
256,192,114634,1,0,0:0:0:0:
402,192,114746,1,0,0:0:0:0:
109,192,114746,1,0,0:0:0:0:
36,192,114746,1,0,0:0:0:0:
402,192,115085,1,0,0:0:0:0:
182,192,115085,1,0,0:0:0:0:
329,192,115198,128,0,115423:0:0:0:0:
109,192,115198,128,0,115423:0:0:0:0:
402,192,115423,1,0,0:0:0:0:
182,192,115423,1,0,0:0:0:0:
256,192,115536,1,0,0:0:0:0:
36,192,115536,1,0,0:0:0:0:
182,192,115649,1,0,0:0:0:0:
402,192,115649,1,0,0:0:0:0:
329,192,115761,1,0,0:0:0:0:
109,192,115761,1,0,0:0:0:0:
256,192,115874,1,0,0:0:0:0:
36,192,115874,1,0,0:0:0:0:
402,192,115987,1,0,0:0:0:0:
182,192,115987,1,0,0:0:0:0:
256,192,116100,1,0,0:0:0:0:
36,192,116100,1,0,0:0:0:0:
329,192,116213,1,0,0:0:0:0:
109,192,116213,1,0,0:0:0:0:
402,192,116325,1,0,0:0:0:0:
182,192,116325,1,0,0:0:0:0:
256,192,116438,1,0,0:0:0:0:
36,192,116438,1,0,0:0:0:0:
109,192,116551,1,0,0:0:0:0:
329,192,116551,1,0,0:0:0:0:
475,192,116551,128,0,116889:0:0:0:0:
402,192,116889,1,0,0:0:0:0:
256,192,116889,1,0,0:0:0:0:
36,192,116889,128,0,117228:0:0:0:0:
329,192,117228,1,0,0:0:0:0:
109,192,117228,1,0,0:0:0:0:
475,192,117228,1,0,0:0:0:0:
402,192,117453,1,0,0:0:0:0:
182,192,117453,1,0,0:0:0:0:
109,192,117679,1,0,0:0:0:0:
329,192,117679,1,0,0:0:0:0:
182,192,117904,1,0,0:0:0:0:
402,192,117904,1,0,0:0:0:0:
109,192,118130,1,0,0:0:0:0:
329,192,118130,1,0,0:0:0:0:
256,192,118355,1,0,0:0:0:0:
36,192,118355,1,0,0:0:0:0:
402,192,118355,1,0,0:0:0:0:
182,192,118355,128,0,118694:0:0:0:0:
256,192,118694,1,0,0:0:0:0:
475,192,118694,1,0,0:0:0:0:
109,192,118694,1,0,0:0:0:0:
329,192,118694,128,0,119032:0:0:0:0:
256,192,119032,1,0,0:0:0:0:
402,192,119032,1,0,0:0:0:0:
36,192,119032,1,0,0:0:0:0:
182,192,119032,128,0,120160:0:0:0:0:
329,192,119483,1,0,0:0:0:0:
475,192,119483,1,0,0:0:0:0:
402,192,119709,1,0,0:0:0:0:
256,192,119709,1,0,0:0:0:0:
329,192,119934,1,0,0:0:0:0:
475,192,119934,1,0,0:0:0:0:
402,192,120160,1,0,0:0:0:0:
256,192,120160,1,0,0:0:0:0:
109,192,120160,1,0,0:0:0:0:
36,192,120160,128,0,120498:0:0:0:0:
402,192,120498,1,0,0:0:0:0:
256,192,120498,1,0,0:0:0:0:
109,192,120498,1,0,0:0:0:0:
475,192,120498,128,0,120837:0:0:0:0:
256,192,120837,1,0,0:0:0:0:
402,192,120837,1,0,0:0:0:0:
109,192,120837,1,0,0:0:0:0:
36,192,120837,128,0,121964:0:0:0:0:
182,192,121288,128,0,121964:0:0:0:0:
329,192,121513,128,0,121964:0:0:0:0:
475,192,121739,128,0,121964:0:0:0:0:
109,192,121964,1,0,0:0:0:0:
402,192,121964,1,0,0:0:0:0:
182,192,122077,1,0,0:0:0:0:
329,192,122077,1,0,0:0:0:0:
402,192,122190,1,0,0:0:0:0:
256,192,122190,1,0,0:0:0:0:
109,192,122303,1,0,0:0:0:0:
182,192,122303,1,0,0:0:0:0:
329,192,122416,1,0,0:0:0:0:
402,192,122416,1,0,0:0:0:0:
182,192,122528,1,0,0:0:0:0:
256,192,122528,1,0,0:0:0:0:
402,192,122641,1,0,0:0:0:0:
109,192,122641,1,0,0:0:0:0:
256,192,122754,1,0,0:0:0:0:
329,192,122754,1,0,0:0:0:0:
182,192,122867,1,0,0:0:0:0:
36,192,122867,1,0,0:0:0:0:
402,192,122867,1,0,0:0:0:0:
475,192,122867,1,0,0:0:0:0:
402,192,122980,1,0,0:0:0:0:
475,192,122980,1,0,0:0:0:0:
182,192,122980,1,0,0:0:0:0:
36,192,122980,1,0,0:0:0:0:
109,192,123092,1,0,0:0:0:0:
256,192,123092,1,0,0:0:0:0:
329,192,123092,1,0,0:0:0:0:
109,192,123318,1,0,0:0:0:0:
256,192,123318,1,0,0:0:0:0:
329,192,123318,1,0,0:0:0:0:
36,192,123543,5,0,0:0:0:0:
109,192,123543,1,0,0:0:0:0:
329,192,123543,1,0,0:0:0:0:
475,192,123543,1,0,0:0:0:0:
36,192,123656,1,0,0:0:0:0:
109,192,123656,1,0,0:0:0:0:
329,192,123656,1,0,0:0:0:0:
475,192,123656,1,0,0:0:0:0:
402,192,123769,1,0,0:0:0:0:
256,192,123769,1,0,0:0:0:0:
182,192,123769,1,0,0:0:0:0:
182,192,123995,1,0,0:0:0:0:
256,192,123995,1,0,0:0:0:0:
402,192,123995,1,0,0:0:0:0:
256,192,124220,1,0,0:0:0:0:
402,192,124220,1,0,0:0:0:0:
475,192,124220,1,0,0:0:0:0:
182,192,124220,1,0,0:0:0:0:
36,192,124220,1,0,0:0:0:0:
256,192,124671,5,0,0:0:0:0:
36,192,124671,1,0,0:0:0:0:
109,192,124671,1,0,0:0:0:0:
329,192,124671,1,0,0:0:0:0:
475,192,124784,1,0,0:0:0:0:
402,192,124784,1,0,0:0:0:0:
36,192,124897,1,0,0:0:0:0:
182,192,124897,1,0,0:0:0:0:
256,192,124897,1,0,0:0:0:0:
329,192,125010,1,0,0:0:0:0:
402,192,125010,1,0,0:0:0:0:
475,192,125122,1,0,0:0:0:0:
109,192,125122,1,0,0:0:0:0:
182,192,125122,1,0,0:0:0:0:
256,192,125235,1,0,0:0:0:0:
329,192,125235,1,0,0:0:0:0:
402,192,125348,1,0,0:0:0:0:
36,192,125348,1,0,0:0:0:0:
109,192,125348,1,0,0:0:0:0:
182,192,125461,1,0,0:0:0:0:
256,192,125461,1,0,0:0:0:0:
475,192,125574,1,0,0:0:0:0:
36,192,125574,1,0,0:0:0:0:
329,192,125574,1,0,0:0:0:0:
109,192,125686,1,0,0:0:0:0:
182,192,125686,1,0,0:0:0:0:
475,192,125799,1,0,0:0:0:0:
256,192,125799,1,0,0:0:0:0:
402,192,125799,1,0,0:0:0:0:
36,192,125912,1,0,0:0:0:0:
109,192,125912,1,0,0:0:0:0:
402,192,126025,1,0,0:0:0:0:
475,192,126025,1,0,0:0:0:0:
329,192,126025,1,0,0:0:0:0:
182,192,126025,1,0,0:0:0:0:
256,192,126137,1,0,0:0:0:0:
109,192,126137,1,0,0:0:0:0:
182,192,126250,1,0,0:0:0:0:
402,192,126250,1,0,0:0:0:0:
36,192,126250,1,0,0:0:0:0:
329,192,126363,1,0,0:0:0:0:
256,192,126476,1,0,0:0:0:0:
109,192,126476,1,0,0:0:0:0:
36,192,126476,1,0,0:0:0:0:
475,192,126476,1,0,0:0:0:0:
329,192,126589,1,0,0:0:0:0:
109,192,126701,1,0,0:0:0:0:
182,192,126701,1,0,0:0:0:0:
402,192,126701,1,0,0:0:0:0:
256,192,126814,1,0,0:0:0:0:
109,192,126927,1,0,0:0:0:0:
36,192,126927,1,0,0:0:0:0:
329,192,126927,1,0,0:0:0:0:
475,192,126927,1,0,0:0:0:0:
402,192,127040,1,0,0:0:0:0:
256,192,127040,1,0,0:0:0:0:
329,192,127152,1,0,0:0:0:0:
109,192,127152,1,0,0:0:0:0:
182,192,127152,1,0,0:0:0:0:
402,192,127265,1,0,0:0:0:0:
109,192,127378,1,0,0:0:0:0:
36,192,127378,1,0,0:0:0:0:
256,192,127378,1,0,0:0:0:0:
475,192,127378,1,0,0:0:0:0:
182,192,127491,1,0,0:0:0:0:
329,192,127491,1,0,0:0:0:0:
475,192,127604,1,0,0:0:0:0:
256,192,127604,1,0,0:0:0:0:
402,192,127604,1,0,0:0:0:0:
182,192,127716,1,0,0:0:0:0:
329,192,127829,1,0,0:0:0:0:
475,192,127829,1,0,0:0:0:0:
36,192,127829,1,0,0:0:0:0:
109,192,127829,1,0,0:0:0:0:
402,192,127942,1,0,0:0:0:0:
256,192,127942,1,0,0:0:0:0:
329,192,128055,1,0,0:0:0:0:
182,192,128055,1,0,0:0:0:0:
109,192,128055,1,0,0:0:0:0:
402,192,128168,1,0,0:0:0:0:
36,192,128280,1,0,0:0:0:0:
256,192,128280,1,0,0:0:0:0:
475,192,128280,1,0,0:0:0:0:
182,192,128280,1,0,0:0:0:0:
329,192,128393,1,0,0:0:0:0:
475,192,128506,1,0,0:0:0:0:
182,192,128506,1,0,0:0:0:0:
402,192,128506,1,0,0:0:0:0:
109,192,128619,1,0,0:0:0:0:
329,192,128731,1,0,0:0:0:0:
475,192,128731,1,0,0:0:0:0:
36,192,128731,1,0,0:0:0:0:
256,192,128731,1,0,0:0:0:0:
182,192,128844,1,0,0:0:0:0:
329,192,128957,1,0,0:0:0:0:
36,192,128957,1,0,0:0:0:0:
109,192,128957,1,0,0:0:0:0:
182,192,129070,1,0,0:0:0:0:
402,192,129070,1,0,0:0:0:0:
36,192,129183,1,0,0:0:0:0:
256,192,129183,1,0,0:0:0:0:
475,192,129183,1,0,0:0:0:0:
109,192,129295,1,0,0:0:0:0:
329,192,129295,1,0,0:0:0:0:
475,192,129408,1,0,0:0:0:0:
256,192,129408,1,0,0:0:0:0:
36,192,129408,1,0,0:0:0:0:
402,192,129521,1,0,0:0:0:0:
182,192,129521,1,0,0:0:0:0:
36,192,129634,1,0,0:0:0:0:
109,192,129634,1,0,0:0:0:0:
329,192,129634,1,0,0:0:0:0:
182,192,129746,1,0,0:0:0:0:
256,192,129746,1,0,0:0:0:0:
329,192,129859,1,0,0:0:0:0:
402,192,129859,1,0,0:0:0:0:
109,192,129859,1,0,0:0:0:0:
182,192,129972,1,0,0:0:0:0:
256,192,129972,1,0,0:0:0:0:
109,192,130085,1,0,0:0:0:0:
36,192,130085,1,0,0:0:0:0:
329,192,130085,1,0,0:0:0:0:
475,192,130085,1,0,0:0:0:0:
182,192,130198,1,0,0:0:0:0:
36,192,130310,1,0,0:0:0:0:
402,192,130310,1,0,0:0:0:0:
256,192,130310,1,0,0:0:0:0:
109,192,130423,1,0,0:0:0:0:
329,192,130536,1,0,0:0:0:0:
402,192,130536,1,0,0:0:0:0:
182,192,130536,1,0,0:0:0:0:
475,192,130536,1,0,0:0:0:0:
109,192,130649,1,0,0:0:0:0:
256,192,130649,1,0,0:0:0:0:
402,192,130761,1,0,0:0:0:0:
36,192,130761,1,0,0:0:0:0:
182,192,130761,1,0,0:0:0:0:
256,192,130874,1,0,0:0:0:0:
329,192,130874,1,0,0:0:0:0:
475,192,130987,1,0,0:0:0:0:
402,192,130987,1,0,0:0:0:0:
109,192,130987,1,0,0:0:0:0:
36,192,130987,1,0,0:0:0:0:
182,192,131100,1,0,0:0:0:0:
256,192,131100,1,0,0:0:0:0:
36,192,131213,1,0,0:0:0:0:
402,192,131213,1,0,0:0:0:0:
329,192,131213,1,0,0:0:0:0:
182,192,131325,1,0,0:0:0:0:
256,192,131325,1,0,0:0:0:0:
36,192,131438,1,0,0:0:0:0:
109,192,131438,1,0,0:0:0:0:
402,192,131438,1,0,0:0:0:0:
475,192,131438,1,0,0:0:0:0:
329,192,131551,1,0,0:0:0:0:
475,192,131664,1,0,0:0:0:0:
182,192,131664,1,0,0:0:0:0:
256,192,131664,1,0,0:0:0:0:
402,192,131777,1,0,0:0:0:0:
109,192,131889,1,0,0:0:0:0:
36,192,131889,1,0,0:0:0:0:
329,192,131889,1,0,0:0:0:0:
256,192,131889,1,0,0:0:0:0:
475,192,132002,1,0,0:0:0:0:
182,192,132115,1,0,0:0:0:0:
109,192,132115,1,0,0:0:0:0:
402,192,132115,1,0,0:0:0:0:
329,192,132115,1,0,0:0:0:0:
36,192,132228,1,0,0:0:0:0:
256,192,132340,1,0,0:0:0:0:
182,192,132340,1,0,0:0:0:0:
475,192,132340,1,0,0:0:0:0:
402,192,132340,1,0,0:0:0:0:
36,192,132453,1,0,0:0:0:0:
182,192,132566,1,0,0:0:0:0:
109,192,132566,1,0,0:0:0:0:
329,192,132566,1,0,0:0:0:0:
402,192,132566,1,0,0:0:0:0:
475,192,132679,1,0,0:0:0:0:
109,192,132792,1,0,0:0:0:0:
36,192,132792,1,0,0:0:0:0:
329,192,132792,1,0,0:0:0:0:
256,192,132792,1,0,0:0:0:0:
402,192,132904,1,0,0:0:0:0:
182,192,132904,1,0,0:0:0:0:
36,192,133017,1,0,0:0:0:0:
475,192,133017,1,0,0:0:0:0:
256,192,133017,1,0,0:0:0:0:
329,192,133130,1,0,0:0:0:0:
109,192,133130,1,0,0:0:0:0:
475,192,133243,1,0,0:0:0:0:
256,192,133243,1,0,0:0:0:0:
182,192,133243,1,0,0:0:0:0:
402,192,133243,1,0,0:0:0:0:
36,192,133355,1,0,0:0:0:0:
109,192,133468,1,0,0:0:0:0:
182,192,133468,1,0,0:0:0:0:
402,192,133468,1,0,0:0:0:0:
329,192,133468,1,0,0:0:0:0:
475,192,133581,1,0,0:0:0:0:
109,192,133694,1,0,0:0:0:0:
36,192,133694,1,0,0:0:0:0:
329,192,133694,1,0,0:0:0:0:
256,192,133694,1,0,0:0:0:0:
475,192,133807,1,0,0:0:0:0:
182,192,133919,1,0,0:0:0:0:
109,192,133919,1,0,0:0:0:0:
402,192,133919,1,0,0:0:0:0:
329,192,133919,1,0,0:0:0:0:
36,192,134032,1,0,0:0:0:0:
182,192,134145,1,0,0:0:0:0:
256,192,134145,1,0,0:0:0:0:
402,192,134145,1,0,0:0:0:0:
475,192,134145,1,0,0:0:0:0:
329,192,134258,1,0,0:0:0:0:
109,192,134258,1,0,0:0:0:0:
475,192,134371,1,0,0:0:0:0:
256,192,134371,1,0,0:0:0:0:
36,192,134371,1,0,0:0:0:0:
182,192,134483,1,0,0:0:0:0:
402,192,134483,1,0,0:0:0:0:
36,192,134596,1,0,0:0:0:0:
109,192,134596,1,0,0:0:0:0:
329,192,134596,1,0,0:0:0:0:
475,192,134709,1,0,0:0:0:0:
256,192,134709,1,0,0:0:0:0:
109,192,134822,1,0,0:0:0:0:
402,192,134822,1,0,0:0:0:0:
182,192,134822,1,0,0:0:0:0:
329,192,134934,1,0,0:0:0:0:
182,192,135047,1,0,0:0:0:0:
36,192,135047,1,0,0:0:0:0:
256,192,135047,1,0,0:0:0:0:
475,192,135047,1,0,0:0:0:0:
329,192,135160,1,0,0:0:0:0:
402,192,135160,1,0,0:0:0:0:
475,192,135273,1,0,0:0:0:0:
36,192,135273,1,0,0:0:0:0:
256,192,135273,1,0,0:0:0:0:
109,192,135386,1,0,0:0:0:0:
182,192,135386,1,0,0:0:0:0:
36,192,135498,1,0,0:0:0:0:
475,192,135498,1,0,0:0:0:0:
329,192,135498,1,0,0:0:0:0:
256,192,135498,1,0,0:0:0:0:
182,192,135611,1,0,0:0:0:0:
329,192,135724,1,0,0:0:0:0:
402,192,135724,1,0,0:0:0:0:
109,192,135724,1,0,0:0:0:0:
182,192,135837,1,0,0:0:0:0:
36,192,135949,1,0,0:0:0:0:
109,192,135949,1,0,0:0:0:0:
475,192,135949,1,0,0:0:0:0:
256,192,135949,1,0,0:0:0:0:
402,192,135949,1,0,0:0:0:0:
329,192,136062,1,0,0:0:0:0:
109,192,136175,1,0,0:0:0:0:
182,192,136175,1,0,0:0:0:0:
402,192,136175,1,0,0:0:0:0:
329,192,136288,1,0,0:0:0:0:
36,192,136401,1,0,0:0:0:0:
475,192,136401,1,0,0:0:0:0:
256,192,136401,1,0,0:0:0:0:
109,192,136401,1,0,0:0:0:0:
182,192,136513,1,0,0:0:0:0:
329,192,136626,1,0,0:0:0:0:
402,192,136626,1,0,0:0:0:0:
109,192,136626,1,0,0:0:0:0:
182,192,136739,1,0,0:0:0:0:
36,192,136852,1,0,0:0:0:0:
109,192,136852,1,0,0:0:0:0:
475,192,136852,1,0,0:0:0:0:
256,192,136852,1,0,0:0:0:0:
402,192,136852,1,0,0:0:0:0:
329,192,136964,1,0,0:0:0:0:
109,192,137077,1,0,0:0:0:0:
182,192,137077,1,0,0:0:0:0:
402,192,137077,1,0,0:0:0:0:
256,192,137190,1,0,0:0:0:0:
109,192,137303,1,0,0:0:0:0:
36,192,137303,1,0,0:0:0:0:
329,192,137303,1,0,0:0:0:0:
475,192,137303,1,0,0:0:0:0:
329,192,137416,1,0,0:0:0:0:
475,192,137416,1,0,0:0:0:0:
109,192,137416,1,0,0:0:0:0:
36,192,137416,1,0,0:0:0:0:
182,192,137528,1,0,0:0:0:0:
256,192,137528,1,0,0:0:0:0:
402,192,137528,1,0,0:0:0:0:
182,192,137754,1,0,0:0:0:0:
256,192,137754,1,0,0:0:0:0:
402,192,137754,1,0,0:0:0:0:
182,192,137980,1,0,0:0:0:0:
36,192,137980,1,0,0:0:0:0:
475,192,137980,1,0,0:0:0:0:
402,192,137980,1,0,0:0:0:0:
182,192,138092,1,0,0:0:0:0:
36,192,138092,1,0,0:0:0:0:
475,192,138092,1,0,0:0:0:0:
402,192,138092,1,0,0:0:0:0:
329,192,138205,1,0,0:0:0:0:
256,192,138205,1,0,0:0:0:0:
109,192,138205,1,0,0:0:0:0:
475,192,138318,1,0,0:0:0:0:
402,192,138318,1,0,0:0:0:0:
36,192,138431,1,0,0:0:0:0:
182,192,138431,1,0,0:0:0:0:
256,192,138431,1,0,0:0:0:0:
329,192,138543,1,0,0:0:0:0:
182,192,138656,1,0,0:0:0:0:
36,192,138656,1,0,0:0:0:0:
402,192,138656,1,0,0:0:0:0:
475,192,138656,1,0,0:0:0:0:
402,192,138882,1,0,0:0:0:0:
475,192,138882,1,0,0:0:0:0:
182,192,138882,1,0,0:0:0:0:
36,192,138882,1,0,0:0:0:0:
256,192,139107,5,0,0:0:0:0:
475,192,139107,1,0,0:0:0:0:
182,192,139107,1,0,0:0:0:0:
402,192,139107,1,0,0:0:0:0:
36,192,139220,1,0,0:0:0:0:
109,192,139220,1,0,0:0:0:0:
475,192,139333,1,0,0:0:0:0:
329,192,139333,1,0,0:0:0:0:
256,192,139333,1,0,0:0:0:0:
182,192,139446,1,0,0:0:0:0:
109,192,139446,1,0,0:0:0:0:
36,192,139558,1,0,0:0:0:0:
402,192,139558,1,0,0:0:0:0:
329,192,139558,1,0,0:0:0:0:
256,192,139671,1,0,0:0:0:0:
182,192,139671,1,0,0:0:0:0:
109,192,139784,1,0,0:0:0:0:
475,192,139784,1,0,0:0:0:0:
402,192,139784,1,0,0:0:0:0:
329,192,139897,1,0,0:0:0:0:
256,192,139897,1,0,0:0:0:0:
36,192,140010,1,0,0:0:0:0:
475,192,140010,1,0,0:0:0:0:
182,192,140010,1,0,0:0:0:0:
402,192,140122,1,0,0:0:0:0:
329,192,140122,1,0,0:0:0:0:
36,192,140235,1,0,0:0:0:0:
256,192,140235,1,0,0:0:0:0:
109,192,140235,1,0,0:0:0:0:
475,192,140348,1,0,0:0:0:0:
402,192,140348,1,0,0:0:0:0:
109,192,140461,1,0,0:0:0:0:
36,192,140461,1,0,0:0:0:0:
182,192,140461,1,0,0:0:0:0:
329,192,140461,1,0,0:0:0:0:
256,192,140574,1,0,0:0:0:0:
402,192,140574,1,0,0:0:0:0:
329,192,140686,1,0,0:0:0:0:
109,192,140686,1,0,0:0:0:0:
475,192,140686,1,0,0:0:0:0:
182,192,140799,1,0,0:0:0:0:
256,192,140912,1,0,0:0:0:0:
402,192,140912,1,0,0:0:0:0:
475,192,140912,1,0,0:0:0:0:
36,192,140912,1,0,0:0:0:0:
182,192,141025,1,0,0:0:0:0:
402,192,141137,1,0,0:0:0:0:
329,192,141137,1,0,0:0:0:0:
109,192,141137,1,0,0:0:0:0:
256,192,141250,1,0,0:0:0:0:
402,192,141363,1,0,0:0:0:0:
475,192,141363,1,0,0:0:0:0:
182,192,141363,1,0,0:0:0:0:
36,192,141363,1,0,0:0:0:0:
109,192,141476,1,0,0:0:0:0:
256,192,141476,1,0,0:0:0:0:
182,192,141589,1,0,0:0:0:0:
402,192,141589,1,0,0:0:0:0:
329,192,141589,1,0,0:0:0:0:
109,192,141701,1,0,0:0:0:0:
402,192,141814,1,0,0:0:0:0:
475,192,141814,1,0,0:0:0:0:
256,192,141814,1,0,0:0:0:0:
36,192,141814,1,0,0:0:0:0:
329,192,141927,1,0,0:0:0:0:
182,192,141927,1,0,0:0:0:0:
36,192,142040,1,0,0:0:0:0:
256,192,142040,1,0,0:0:0:0:
109,192,142040,1,0,0:0:0:0:
329,192,142152,1,0,0:0:0:0:
182,192,142265,1,0,0:0:0:0:
36,192,142265,1,0,0:0:0:0:
475,192,142265,1,0,0:0:0:0:
402,192,142265,1,0,0:0:0:0:
109,192,142378,1,0,0:0:0:0:
256,192,142378,1,0,0:0:0:0:
182,192,142491,1,0,0:0:0:0:
329,192,142491,1,0,0:0:0:0:
402,192,142491,1,0,0:0:0:0:
109,192,142604,1,0,0:0:0:0:
475,192,142716,1,0,0:0:0:0:
256,192,142716,1,0,0:0:0:0:
36,192,142716,1,0,0:0:0:0:
329,192,142716,1,0,0:0:0:0:
182,192,142829,1,0,0:0:0:0:
36,192,142942,1,0,0:0:0:0:
329,192,142942,1,0,0:0:0:0:
109,192,142942,1,0,0:0:0:0:
402,192,143055,1,0,0:0:0:0:
475,192,143168,1,0,0:0:0:0:
256,192,143168,1,0,0:0:0:0:
182,192,143168,1,0,0:0:0:0:
36,192,143168,1,0,0:0:0:0:
329,192,143280,1,0,0:0:0:0:
402,192,143393,1,0,0:0:0:0:
475,192,143393,1,0,0:0:0:0:
182,192,143393,1,0,0:0:0:0:
109,192,143506,1,0,0:0:0:0:
329,192,143506,1,0,0:0:0:0:
36,192,143619,1,0,0:0:0:0:
256,192,143619,1,0,0:0:0:0:
475,192,143619,1,0,0:0:0:0:
182,192,143731,1,0,0:0:0:0:
402,192,143731,1,0,0:0:0:0:
475,192,143844,1,0,0:0:0:0:
256,192,143844,1,0,0:0:0:0:
36,192,143844,1,0,0:0:0:0:
329,192,143957,1,0,0:0:0:0:
109,192,143957,1,0,0:0:0:0:
182,192,144070,1,0,0:0:0:0:
475,192,144070,1,0,0:0:0:0:
402,192,144070,1,0,0:0:0:0:
256,192,144183,1,0,0:0:0:0:
329,192,144183,1,0,0:0:0:0:
402,192,144295,1,0,0:0:0:0:
109,192,144295,1,0,0:0:0:0:
182,192,144295,1,0,0:0:0:0:
256,192,144408,1,0,0:0:0:0:
329,192,144408,1,0,0:0:0:0:
402,192,144521,1,0,0:0:0:0:
475,192,144521,1,0,0:0:0:0:
182,192,144521,1,0,0:0:0:0:
36,192,144521,1,0,0:0:0:0:
329,192,144634,1,0,0:0:0:0:
182,192,144746,1,0,0:0:0:0:
402,192,144746,1,0,0:0:0:0:
109,192,144746,1,0,0:0:0:0:
36,192,144746,1,0,0:0:0:0:
256,192,144859,1,0,0:0:0:0:
109,192,144972,1,0,0:0:0:0:
329,192,144972,1,0,0:0:0:0:
36,192,144972,1,0,0:0:0:0:
475,192,144972,1,0,0:0:0:0:
182,192,145085,1,0,0:0:0:0:
402,192,145198,1,0,0:0:0:0:
475,192,145198,1,0,0:0:0:0:
109,192,145198,1,0,0:0:0:0:
329,192,145198,1,0,0:0:0:0:
256,192,145310,1,0,0:0:0:0:
402,192,145423,1,0,0:0:0:0:
475,192,145423,1,0,0:0:0:0:
182,192,145423,1,0,0:0:0:0:
36,192,145423,1,0,0:0:0:0:
256,192,145536,1,0,0:0:0:0:
329,192,145536,1,0,0:0:0:0:
475,192,145649,1,0,0:0:0:0:
182,192,145649,1,0,0:0:0:0:
109,192,145649,1,0,0:0:0:0:
329,192,145761,1,0,0:0:0:0:
402,192,145761,1,0,0:0:0:0:
109,192,145874,1,0,0:0:0:0:
475,192,145874,1,0,0:0:0:0:
256,192,145874,1,0,0:0:0:0:
36,192,145874,1,0,0:0:0:0:
329,192,145987,1,0,0:0:0:0:
109,192,146100,1,0,0:0:0:0:
36,192,146100,1,0,0:0:0:0:
182,192,146100,1,0,0:0:0:0:
402,192,146100,1,0,0:0:0:0:
329,192,146213,1,0,0:0:0:0:
36,192,146325,1,0,0:0:0:0:
475,192,146325,1,0,0:0:0:0:
256,192,146325,1,0,0:0:0:0:
109,192,146325,1,0,0:0:0:0:
402,192,146438,1,0,0:0:0:0:
109,192,146551,1,0,0:0:0:0:
36,192,146551,1,0,0:0:0:0:
329,192,146551,1,0,0:0:0:0:
256,192,146551,1,0,0:0:0:0:
475,192,146664,1,0,0:0:0:0:
182,192,146777,1,0,0:0:0:0:
109,192,146777,1,0,0:0:0:0:
402,192,146777,1,0,0:0:0:0:
329,192,146777,1,0,0:0:0:0:
36,192,146889,1,0,0:0:0:0:
402,192,147002,1,0,0:0:0:0:
475,192,147002,1,0,0:0:0:0:
182,192,147002,1,0,0:0:0:0:
256,192,147002,1,0,0:0:0:0:
109,192,147115,1,0,0:0:0:0:
329,192,147228,1,0,0:0:0:0:
475,192,147228,1,0,0:0:0:0:
36,192,147228,1,0,0:0:0:0:
256,192,147228,1,0,0:0:0:0:
182,192,147340,1,0,0:0:0:0:
329,192,147453,1,0,0:0:0:0:
402,192,147453,1,0,0:0:0:0:
109,192,147453,1,0,0:0:0:0:
182,192,147566,1,0,0:0:0:0:
402,192,147679,1,0,0:0:0:0:
36,192,147679,1,0,0:0:0:0:
256,192,147679,1,0,0:0:0:0:
475,192,147679,1,0,0:0:0:0:
182,192,147792,1,0,0:0:0:0:
402,192,147904,1,0,0:0:0:0:
109,192,147904,1,0,0:0:0:0:
329,192,147904,1,0,0:0:0:0:
475,192,147904,1,0,0:0:0:0:
182,192,148017,1,0,0:0:0:0:
475,192,148130,1,0,0:0:0:0:
36,192,148130,1,0,0:0:0:0:
256,192,148130,1,0,0:0:0:0:
402,192,148130,1,0,0:0:0:0:
109,192,148243,1,0,0:0:0:0:
402,192,148355,1,0,0:0:0:0:
475,192,148355,1,0,0:0:0:0:
182,192,148355,1,0,0:0:0:0:
256,192,148355,1,0,0:0:0:0:
36,192,148468,1,0,0:0:0:0:
329,192,148581,1,0,0:0:0:0:
402,192,148581,1,0,0:0:0:0:
109,192,148581,1,0,0:0:0:0:
182,192,148581,1,0,0:0:0:0:
475,192,148694,1,0,0:0:0:0:
109,192,148807,1,0,0:0:0:0:
36,192,148807,1,0,0:0:0:0:
329,192,148807,1,0,0:0:0:0:
256,192,148807,1,0,0:0:0:0:
402,192,148919,1,0,0:0:0:0:
182,192,149032,1,0,0:0:0:0:
36,192,149032,1,0,0:0:0:0:
475,192,149032,1,0,0:0:0:0:
256,192,149032,1,0,0:0:0:0:
329,192,149145,1,0,0:0:0:0:
182,192,149258,1,0,0:0:0:0:
109,192,149258,1,0,0:0:0:0:
402,192,149258,1,0,0:0:0:0:
329,192,149371,1,0,0:0:0:0:
109,192,149483,1,0,0:0:0:0:
475,192,149483,1,0,0:0:0:0:
256,192,149483,1,0,0:0:0:0:
36,192,149483,1,0,0:0:0:0:
329,192,149596,1,0,0:0:0:0:
109,192,149709,1,0,0:0:0:0:
402,192,149709,1,0,0:0:0:0:
182,192,149709,1,0,0:0:0:0:
36,192,149709,1,0,0:0:0:0:
329,192,149822,1,0,0:0:0:0:
475,192,149934,1,0,0:0:0:0:
36,192,149934,1,0,0:0:0:0:
256,192,149934,1,0,0:0:0:0:
109,192,149934,1,0,0:0:0:0:
182,192,150047,1,0,0:0:0:0:
402,192,150047,1,0,0:0:0:0:
256,192,150160,1,0,0:0:0:0:
109,192,150160,1,0,0:0:0:0:
329,192,150160,1,0,0:0:0:0:
475,192,150273,1,0,0:0:0:0:
182,192,150386,1,0,0:0:0:0:
36,192,150386,1,0,0:0:0:0:
402,192,150386,1,0,0:0:0:0:
256,192,150386,1,0,0:0:0:0:
329,192,150498,1,0,0:0:0:0:
256,192,150611,1,0,0:0:0:0:
475,192,150611,1,0,0:0:0:0:
109,192,150611,1,0,0:0:0:0:
36,192,150611,1,0,0:0:0:0:
475,192,150837,1,0,0:0:0:0:
36,192,150837,1,0,0:0:0:0:
256,192,150837,1,0,0:0:0:0:
402,192,150837,1,0,0:0:0:0:
329,192,150949,1,0,0:0:0:0:
109,192,150949,1,0,0:0:0:0:
256,192,151062,1,0,0:0:0:0:
402,192,151062,1,0,0:0:0:0:
182,192,151062,1,0,0:0:0:0:
36,192,151175,1,0,0:0:0:0:
329,192,151288,1,0,0:0:0:0:
475,192,151288,1,0,0:0:0:0:
109,192,151288,1,0,0:0:0:0:
256,192,151288,1,0,0:0:0:0:
182,192,151401,1,0,0:0:0:0:
475,192,151513,1,0,0:0:0:0:
36,192,151513,1,0,0:0:0:0:
402,192,151513,1,0,0:0:0:0:
256,192,151513,128,0,153543:0:0:0:0:
329,192,151626,1,0,0:0:0:0:
109,192,151626,1,0,0:0:0:0:
402,192,151739,1,0,0:0:0:0:
36,192,151739,1,0,0:0:0:0:
475,192,151852,1,0,0:0:0:0:
109,192,151852,1,0,0:0:0:0:
182,192,151964,1,0,0:0:0:0:
329,192,151964,1,0,0:0:0:0:
475,192,152077,1,0,0:0:0:0:
36,192,152077,1,0,0:0:0:0:
402,192,152190,1,0,0:0:0:0:
182,192,152190,1,0,0:0:0:0:
329,192,152303,1,0,0:0:0:0:
109,192,152303,1,0,0:0:0:0:
36,192,152416,1,0,0:0:0:0:
475,192,152416,1,0,0:0:0:0:
329,192,152528,1,0,0:0:0:0:
182,192,152528,1,0,0:0:0:0:
402,192,152641,1,0,0:0:0:0:
36,192,152641,1,0,0:0:0:0:
475,192,152754,1,0,0:0:0:0:
109,192,152754,1,0,0:0:0:0:
182,192,152867,1,0,0:0:0:0:
329,192,152867,1,0,0:0:0:0:
475,192,152980,1,0,0:0:0:0:
36,192,152980,1,0,0:0:0:0:
402,192,153092,1,0,0:0:0:0:
182,192,153092,1,0,0:0:0:0:
329,192,153205,1,0,0:0:0:0:
109,192,153205,1,0,0:0:0:0:
36,192,153318,1,0,0:0:0:0:
475,192,153318,1,0,0:0:0:0:
182,192,153431,1,0,0:0:0:0:
402,192,153431,1,0,0:0:0:0:
36,192,153543,1,0,0:0:0:0:
329,192,153543,1,0,0:0:0:0:
109,192,153995,1,0,0:0:0:0:
256,192,153995,1,0,0:0:0:0:
182,192,154220,1,0,0:0:0:0:
329,192,154220,1,0,0:0:0:0:
256,192,154446,1,0,0:0:0:0:
402,192,154446,1,0,0:0:0:0:
475,192,154446,1,0,0:0:0:0:
109,192,154897,1,0,0:0:0:0:
329,192,154897,1,0,0:0:0:0:
36,192,155235,1,0,0:0:0:0:
182,192,155292,1,0,0:0:0:0:
475,192,155348,1,0,0:0:0:0:
329,192,155348,1,0,0:0:0:0:
109,192,155348,1,0,0:0:0:0:
182,192,155574,1,0,0:0:0:0:
256,192,155799,1,0,0:0:0:0:
402,192,155799,1,0,0:0:0:0:
109,192,156025,1,0,0:0:0:0:
329,192,156250,1,0,0:0:0:0:
182,192,156250,1,0,0:0:0:0:
475,192,156250,1,0,0:0:0:0:
36,192,156476,1,0,0:0:0:0:
329,192,156701,1,0,0:0:0:0:
475,192,156701,1,0,0:0:0:0:
402,192,156927,1,0,0:0:0:0:
256,192,156927,1,0,0:0:0:0:
475,192,157152,1,0,0:0:0:0:
329,192,157152,1,0,0:0:0:0:
182,192,157152,1,0,0:0:0:0:
256,192,157378,1,0,0:0:0:0:
109,192,157378,1,0,0:0:0:0:
182,192,157604,1,0,0:0:0:0:
36,192,157604,1,0,0:0:0:0:
256,192,157829,1,0,0:0:0:0:
109,192,157829,1,0,0:0:0:0:
36,192,158055,1,0,0:0:0:0:
475,192,158055,1,0,0:0:0:0:
182,192,158055,1,0,0:0:0:0:
109,192,158280,1,0,0:0:0:0:
256,192,158280,1,0,0:0:0:0:
182,192,158506,1,0,0:0:0:0:
329,192,158506,1,0,0:0:0:0:
256,192,158731,1,0,0:0:0:0:
402,192,158731,1,0,0:0:0:0:
329,192,158957,1,0,0:0:0:0:
475,192,158957,1,0,0:0:0:0:
109,192,158957,1,0,0:0:0:0:
182,192,159183,1,0,0:0:0:0:
256,192,159408,1,0,0:0:0:0:
402,192,159408,1,0,0:0:0:0:
329,192,159634,1,0,0:0:0:0:
182,192,159634,1,0,0:0:0:0:
475,192,159859,1,0,0:0:0:0:
256,192,159859,1,0,0:0:0:0:
109,192,159859,1,0,0:0:0:0:
182,192,160085,1,0,0:0:0:0:
402,192,160085,1,0,0:0:0:0:
329,192,160310,1,0,0:0:0:0:
109,192,160310,1,0,0:0:0:0:
36,192,160761,1,0,0:0:0:0:
256,192,160761,1,0,0:0:0:0:
109,192,160987,1,0,0:0:0:0:
329,192,160987,1,0,0:0:0:0:
182,192,161213,1,0,0:0:0:0:
402,192,161213,1,0,0:0:0:0:
256,192,161438,1,0,0:0:0:0:
475,192,161438,1,0,0:0:0:0:
36,192,161664,1,0,0:0:0:0:
182,192,161664,1,0,0:0:0:0:
329,192,161664,1,0,0:0:0:0:
475,192,162058,1,0,0:0:0:0:
329,192,162087,1,0,0:0:0:0:
36,192,162115,1,0,0:0:0:0:
256,192,162115,1,0,0:0:0:0:
109,192,162340,1,0,0:0:0:0:
329,192,162340,1,0,0:0:0:0:
36,192,162566,1,0,0:0:0:0:
182,192,162566,1,0,0:0:0:0:
402,192,162566,1,0,0:0:0:0:
256,192,162792,1,0,0:0:0:0:
475,192,162792,1,0,0:0:0:0:
402,192,163017,1,0,0:0:0:0:
182,192,163017,1,0,0:0:0:0:
329,192,163243,1,0,0:0:0:0:
109,192,163243,1,0,0:0:0:0:
36,192,163468,1,0,0:0:0:0:
182,192,163468,1,0,0:0:0:0:
402,192,163468,1,0,0:0:0:0:
256,192,163694,1,0,0:0:0:0:
36,192,163694,1,0,0:0:0:0:
182,192,163919,1,0,0:0:0:0:
256,192,164145,1,0,0:0:0:0:
402,192,164145,1,0,0:0:0:0:
36,192,164371,1,0,0:0:0:0:
329,192,164371,1,0,0:0:0:0:
475,192,164371,1,0,0:0:0:0:
182,192,164596,1,0,0:0:0:0:
475,192,164822,1,0,0:0:0:0:
329,192,164822,1,0,0:0:0:0:
402,192,165047,1,0,0:0:0:0:
256,192,165047,1,0,0:0:0:0:
36,192,165273,1,0,0:0:0:0:
182,192,165273,1,0,0:0:0:0:
329,192,165273,1,0,0:0:0:0:
256,192,165498,1,0,0:0:0:0:
402,192,165498,1,0,0:0:0:0:
329,192,165724,1,0,0:0:0:0:
182,192,165724,1,0,0:0:0:0:
256,192,165949,1,0,0:0:0:0:
109,192,165949,1,0,0:0:0:0:
36,192,166175,1,0,0:0:0:0:
329,192,166175,1,0,0:0:0:0:
475,192,166175,1,0,0:0:0:0:
36,192,167077,1,0,0:0:0:0:
256,192,167077,1,0,0:0:0:0:
402,192,167077,1,0,0:0:0:0:
329,192,167303,1,0,0:0:0:0:
475,192,167303,1,0,0:0:0:0:
402,192,167528,1,0,0:0:0:0:
256,192,167528,1,0,0:0:0:0:
329,192,167754,1,0,0:0:0:0:
182,192,167754,1,0,0:0:0:0:
256,192,167980,1,0,0:0:0:0:
109,192,167980,1,0,0:0:0:0:
475,192,167980,1,0,0:0:0:0:
182,192,168205,1,0,0:0:0:0:
109,192,168431,1,0,0:0:0:0:
329,192,168431,1,0,0:0:0:0:
182,192,168656,1,0,0:0:0:0:
256,192,168882,1,0,0:0:0:0:
475,192,168882,1,0,0:0:0:0:
36,192,168882,1,0,0:0:0:0:
329,192,169107,1,0,0:0:0:0:
256,192,169333,1,0,0:0:0:0:
109,192,169333,1,0,0:0:0:0:
36,192,169558,1,0,0:0:0:0:
329,192,169558,1,0,0:0:0:0:
109,192,169634,1,0,0:0:0:0:
182,192,169709,1,0,0:0:0:0:
256,192,169784,1,0,0:0:0:0:
475,192,169784,1,0,0:0:0:0:
329,192,170010,1,0,0:0:0:0:
402,192,170235,1,0,0:0:0:0:
182,192,170235,1,0,0:0:0:0:
256,192,170461,1,0,0:0:0:0:
329,192,170686,1,0,0:0:0:0:
109,192,170686,1,0,0:0:0:0:
475,192,170686,1,0,0:0:0:0:
182,192,170912,1,0,0:0:0:0:
256,192,171137,1,0,0:0:0:0:
475,192,171137,1,0,0:0:0:0:
402,192,171363,1,0,0:0:0:0:
182,192,171363,1,0,0:0:0:0:
475,192,171589,1,0,0:0:0:0:
256,192,171589,1,0,0:0:0:0:
36,192,171589,1,0,0:0:0:0:
182,192,171814,1,0,0:0:0:0:
402,192,171814,1,0,0:0:0:0:
329,192,172040,1,0,0:0:0:0:
109,192,172040,1,0,0:0:0:0:
182,192,172265,1,0,0:0:0:0:
402,192,172265,1,0,0:0:0:0:
256,192,172491,1,0,0:0:0:0:
475,192,172491,1,0,0:0:0:0:
109,192,172491,1,0,0:0:0:0:
182,192,172716,1,0,0:0:0:0:
36,192,172716,1,0,0:0:0:0:
109,192,172942,1,0,0:0:0:0:
256,192,172942,1,0,0:0:0:0:
182,192,173168,1,0,0:0:0:0:
329,192,173168,1,0,0:0:0:0:
256,192,173393,1,0,0:0:0:0:
402,192,173393,1,0,0:0:0:0:
109,192,173393,1,0,0:0:0:0:
182,192,173619,1,0,0:0:0:0:
329,192,173619,1,0,0:0:0:0:
256,192,173844,1,0,0:0:0:0:
109,192,173844,1,0,0:0:0:0:
182,192,174070,1,0,0:0:0:0:
329,192,174070,1,0,0:0:0:0:
256,192,174295,1,0,0:0:0:0:
402,192,174295,1,0,0:0:0:0:
36,192,174295,1,0,0:0:0:0:
182,192,174521,1,0,0:0:0:0:
329,192,174521,1,0,0:0:0:0:
256,192,174746,1,0,0:0:0:0:
402,192,174746,1,0,0:0:0:0:
329,192,174972,1,0,0:0:0:0:
475,192,174972,1,0,0:0:0:0:
182,192,175085,1,0,0:0:0:0:
36,192,175085,1,0,0:0:0:0:
402,192,175198,1,0,0:0:0:0:
475,192,175198,1,0,0:0:0:0:
256,192,175198,128,0,177002:0:0:0:0:
109,192,175423,1,0,0:0:0:0:
402,192,175649,1,0,0:0:0:0:
182,192,175874,1,0,0:0:0:0:
329,192,176100,1,0,0:0:0:0:
109,192,176325,1,0,0:0:0:0:
475,192,176551,1,0,0:0:0:0:
182,192,176777,1,0,0:0:0:0:
402,192,176777,1,0,0:0:0:0:
109,192,177002,128,0,178807:0:0:0:0:
475,192,177002,1,0,0:0:0:0:
329,192,177002,1,0,0:0:0:0:
256,192,177228,1,0,0:0:0:0:
402,192,177453,1,0,0:0:0:0:
182,192,177679,1,0,0:0:0:0:
329,192,177904,1,0,0:0:0:0:
475,192,178130,1,0,0:0:0:0:
256,192,178355,1,0,0:0:0:0:
329,192,178581,1,0,0:0:0:0:
475,192,178581,1,0,0:0:0:0:
256,192,178807,1,0,0:0:0:0:
36,192,178807,1,0,0:0:0:0:
402,192,178807,128,0,180611:0:0:0:0:
182,192,179032,1,0,0:0:0:0:
329,192,179258,1,0,0:0:0:0:
109,192,179483,1,0,0:0:0:0:
256,192,179709,1,0,0:0:0:0:
36,192,179934,1,0,0:0:0:0:
256,192,180160,1,0,0:0:0:0:
182,192,180386,1,0,0:0:0:0:
329,192,180611,1,0,0:0:0:0:
475,192,180611,1,0,0:0:0:0:
109,192,180611,1,0,0:0:0:0:
36,192,180611,1,0,0:0:0:0:
109,192,180724,1,0,0:0:0:0:
36,192,180724,1,0,0:0:0:0:
329,192,180724,1,0,0:0:0:0:
475,192,180724,1,0,0:0:0:0:
402,192,180837,1,0,0:0:0:0:
256,192,180837,1,0,0:0:0:0:
182,192,180837,1,0,0:0:0:0:
402,192,181062,1,0,0:0:0:0:
256,192,181062,1,0,0:0:0:0:
182,192,181062,1,0,0:0:0:0:
475,192,181288,5,0,0:0:0:0:
182,192,181288,1,0,0:0:0:0:
402,192,181288,1,0,0:0:0:0:
36,192,181288,1,0,0:0:0:0:
475,192,181401,1,0,0:0:0:0:
402,192,181401,1,0,0:0:0:0:
182,192,181401,1,0,0:0:0:0:
36,192,181401,1,0,0:0:0:0:
109,192,181513,1,0,0:0:0:0:
256,192,181513,1,0,0:0:0:0:
329,192,181513,1,0,0:0:0:0:
329,192,181739,1,0,0:0:0:0:
256,192,181739,1,0,0:0:0:0:
109,192,181739,1,0,0:0:0:0:
256,192,181964,1,0,0:0:0:0:
109,192,181964,1,0,0:0:0:0:
36,192,181964,1,0,0:0:0:0:
329,192,181964,1,0,0:0:0:0:
475,192,181964,1,0,0:0:0:0:
109,192,182416,128,0,182867:0:0:0:0:
475,192,182416,128,0,182867:0:0:0:0:
329,192,182867,1,0,0:0:0:0:
402,192,182867,1,0,0:0:0:0:
36,192,182867,1,0,0:0:0:0:
182,192,182980,1,0,0:0:0:0:
256,192,182980,1,0,0:0:0:0:
402,192,183092,1,0,0:0:0:0:
475,192,183092,1,0,0:0:0:0:
109,192,183092,1,0,0:0:0:0:
256,192,183205,1,0,0:0:0:0:
329,192,183205,1,0,0:0:0:0:
182,192,183318,1,0,0:0:0:0:
475,192,183318,1,0,0:0:0:0:
36,192,183318,1,0,0:0:0:0:
329,192,183431,1,0,0:0:0:0:
402,192,183431,1,0,0:0:0:0:
109,192,183543,1,0,0:0:0:0:
256,192,183543,1,0,0:0:0:0:
36,192,183543,1,0,0:0:0:0:
402,192,183656,1,0,0:0:0:0:
475,192,183656,1,0,0:0:0:0:
182,192,183769,1,0,0:0:0:0:
329,192,183769,1,0,0:0:0:0:
109,192,183769,1,0,0:0:0:0:
36,192,183769,1,0,0:0:0:0:
402,192,183882,1,0,0:0:0:0:
256,192,183882,1,0,0:0:0:0:
475,192,183995,1,0,0:0:0:0:
109,192,183995,1,0,0:0:0:0:
329,192,183995,1,0,0:0:0:0:
182,192,184107,1,0,0:0:0:0:
475,192,184220,1,0,0:0:0:0:
36,192,184220,1,0,0:0:0:0:
256,192,184220,1,0,0:0:0:0:
402,192,184220,1,0,0:0:0:0:
182,192,184333,1,0,0:0:0:0:
109,192,184446,1,0,0:0:0:0:
329,192,184446,1,0,0:0:0:0:
402,192,184446,1,0,0:0:0:0:
256,192,184558,1,0,0:0:0:0:
182,192,184671,1,0,0:0:0:0:
36,192,184671,1,0,0:0:0:0:
402,192,184671,1,0,0:0:0:0:
475,192,184671,1,0,0:0:0:0:
256,192,184784,1,0,0:0:0:0:
109,192,184784,1,0,0:0:0:0:
329,192,184897,1,0,0:0:0:0:
402,192,184897,1,0,0:0:0:0:
182,192,184897,1,0,0:0:0:0:
109,192,185010,1,0,0:0:0:0:
256,192,185122,1,0,0:0:0:0:
36,192,185122,1,0,0:0:0:0:
402,192,185122,1,0,0:0:0:0:
475,192,185122,1,0,0:0:0:0:
182,192,185235,1,0,0:0:0:0:
329,192,185235,1,0,0:0:0:0:
109,192,185348,1,0,0:0:0:0:
256,192,185348,1,0,0:0:0:0:
36,192,185348,1,0,0:0:0:0:
329,192,185461,1,0,0:0:0:0:
475,192,185574,1,0,0:0:0:0:
402,192,185574,1,0,0:0:0:0:
182,192,185574,1,0,0:0:0:0:
36,192,185574,1,0,0:0:0:0:
256,192,185686,1,0,0:0:0:0:
109,192,185686,1,0,0:0:0:0:
402,192,185799,1,0,0:0:0:0:
329,192,185799,1,0,0:0:0:0:
182,192,185799,1,0,0:0:0:0:
109,192,185912,1,0,0:0:0:0:
36,192,186025,1,0,0:0:0:0:
329,192,186025,1,0,0:0:0:0:
475,192,186025,1,0,0:0:0:0:
256,192,186025,1,0,0:0:0:0:
182,192,186137,1,0,0:0:0:0:
109,192,186250,1,0,0:0:0:0:
329,192,186250,1,0,0:0:0:0:
36,192,186250,1,0,0:0:0:0:
402,192,186363,1,0,0:0:0:0:
182,192,186476,1,0,0:0:0:0:
36,192,186476,1,0,0:0:0:0:
475,192,186476,1,0,0:0:0:0:
256,192,186476,1,0,0:0:0:0:
329,192,186589,1,0,0:0:0:0:
182,192,186701,1,0,0:0:0:0:
475,192,186701,1,0,0:0:0:0:
402,192,186701,1,0,0:0:0:0:
329,192,186814,1,0,0:0:0:0:
109,192,186814,1,0,0:0:0:0:
475,192,186927,1,0,0:0:0:0:
256,192,186927,1,0,0:0:0:0:
36,192,186927,1,0,0:0:0:0:
402,192,187040,1,0,0:0:0:0:
182,192,187040,1,0,0:0:0:0:
36,192,187152,1,0,0:0:0:0:
256,192,187152,1,0,0:0:0:0:
475,192,187152,1,0,0:0:0:0:
109,192,187265,1,0,0:0:0:0:
329,192,187265,1,0,0:0:0:0:
475,192,187378,1,0,0:0:0:0:
402,192,187378,1,0,0:0:0:0:
182,192,187378,1,0,0:0:0:0:
329,192,187491,1,0,0:0:0:0:
256,192,187491,1,0,0:0:0:0:
182,192,187604,1,0,0:0:0:0:
109,192,187604,1,0,0:0:0:0:
402,192,187604,1,0,0:0:0:0:
329,192,187716,1,0,0:0:0:0:
256,192,187716,1,0,0:0:0:0:
182,192,187829,1,0,0:0:0:0:
36,192,187829,1,0,0:0:0:0:
402,192,187829,1,0,0:0:0:0:
475,192,187829,1,0,0:0:0:0:
329,192,187942,1,0,0:0:0:0:
256,192,188055,1,0,0:0:0:0:
109,192,188055,1,0,0:0:0:0:
475,192,188055,1,0,0:0:0:0:
402,192,188168,1,0,0:0:0:0:
329,192,188280,1,0,0:0:0:0:
36,192,188280,1,0,0:0:0:0:
182,192,188280,1,0,0:0:0:0:
109,192,188280,1,0,0:0:0:0:
256,192,188393,1,0,0:0:0:0:
402,192,188393,1,0,0:0:0:0:
329,192,188506,1,0,0:0:0:0:
475,192,188506,1,0,0:0:0:0:
109,192,188506,1,0,0:0:0:0:
182,192,188619,1,0,0:0:0:0:
256,192,188619,1,0,0:0:0:0:
402,192,188731,1,0,0:0:0:0:
475,192,188731,1,0,0:0:0:0:
36,192,188731,1,0,0:0:0:0:
109,192,188731,1,0,0:0:0:0:
256,192,188844,1,0,0:0:0:0:
329,192,188844,1,0,0:0:0:0:
182,192,188957,1,0,0:0:0:0:
109,192,188957,1,0,0:0:0:0:
475,192,188957,1,0,0:0:0:0:
256,192,189070,1,0,0:0:0:0:
329,192,189070,1,0,0:0:0:0:
109,192,189183,1,0,0:0:0:0:
36,192,189183,1,0,0:0:0:0:
475,192,189183,1,0,0:0:0:0:
402,192,189183,1,0,0:0:0:0:
182,192,189295,1,0,0:0:0:0:
256,192,189408,1,0,0:0:0:0:
329,192,189408,1,0,0:0:0:0:
36,192,189408,1,0,0:0:0:0:
109,192,189521,1,0,0:0:0:0:
182,192,189634,1,0,0:0:0:0:
256,192,189634,1,0,0:0:0:0:
402,192,189634,1,0,0:0:0:0:
475,192,189634,1,0,0:0:0:0:
36,192,189746,1,0,0:0:0:0:
109,192,189859,1,0,0:0:0:0:
182,192,189859,1,0,0:0:0:0:
329,192,189859,1,0,0:0:0:0:
402,192,189859,1,0,0:0:0:0:
475,192,189972,1,0,0:0:0:0:
36,192,190085,1,0,0:0:0:0:
109,192,190085,1,0,0:0:0:0:
256,192,190085,1,0,0:0:0:0:
329,192,190085,1,0,0:0:0:0:
475,192,190198,1,0,0:0:0:0:
182,192,190310,1,0,0:0:0:0:
109,192,190310,1,0,0:0:0:0:
329,192,190310,1,0,0:0:0:0:
402,192,190310,1,0,0:0:0:0:
36,192,190423,1,0,0:0:0:0:
182,192,190536,1,0,0:0:0:0:
256,192,190536,1,0,0:0:0:0:
402,192,190536,1,0,0:0:0:0:
475,192,190536,1,0,0:0:0:0:
329,192,190649,1,0,0:0:0:0:
109,192,190649,1,0,0:0:0:0:
256,192,190761,1,0,0:0:0:0:
36,192,190761,1,0,0:0:0:0:
475,192,190761,1,0,0:0:0:0:
402,192,190874,1,0,0:0:0:0:
182,192,190874,1,0,0:0:0:0:
329,192,190987,1,0,0:0:0:0:
109,192,190987,1,0,0:0:0:0:
36,192,190987,1,0,0:0:0:0:
256,192,190987,1,0,0:0:0:0:
475,192,191100,1,0,0:0:0:0:
109,192,191213,1,0,0:0:0:0:
182,192,191213,1,0,0:0:0:0:
402,192,191213,1,0,0:0:0:0:
329,192,191213,1,0,0:0:0:0:
36,192,191325,1,0,0:0:0:0:
182,192,191438,1,0,0:0:0:0:
256,192,191438,1,0,0:0:0:0:
402,192,191438,1,0,0:0:0:0:
475,192,191438,1,0,0:0:0:0:
36,192,191551,1,0,0:0:0:0:
109,192,191664,1,0,0:0:0:0:
182,192,191664,1,0,0:0:0:0:
329,192,191664,1,0,0:0:0:0:
402,192,191664,1,0,0:0:0:0:
475,192,191777,1,0,0:0:0:0:
109,192,191889,1,0,0:0:0:0:
36,192,191889,1,0,0:0:0:0:
329,192,191889,1,0,0:0:0:0:
256,192,191889,1,0,0:0:0:0:
402,192,192002,1,0,0:0:0:0:
182,192,192002,1,0,0:0:0:0:
475,192,192115,1,0,0:0:0:0:
256,192,192115,1,0,0:0:0:0:
36,192,192115,1,0,0:0:0:0:
109,192,192228,1,0,0:0:0:0:
329,192,192228,1,0,0:0:0:0:
182,192,192340,1,0,0:0:0:0:
402,192,192340,1,0,0:0:0:0:
475,192,192340,1,0,0:0:0:0:
256,192,192453,1,0,0:0:0:0:
36,192,192453,1,0,0:0:0:0:
329,192,192566,1,0,0:0:0:0:
109,192,192566,1,0,0:0:0:0:
402,192,192566,1,0,0:0:0:0:
182,192,192679,1,0,0:0:0:0:
256,192,192792,1,0,0:0:0:0:
36,192,192792,1,0,0:0:0:0:
329,192,192792,1,0,0:0:0:0:
475,192,192792,1,0,0:0:0:0:
109,192,192904,1,0,0:0:0:0:
182,192,192904,1,0,0:0:0:0:
256,192,193017,1,0,0:0:0:0:
475,192,193017,1,0,0:0:0:0:
36,192,193017,1,0,0:0:0:0:
329,192,193130,1,0,0:0:0:0:
402,192,193130,1,0,0:0:0:0:
182,192,193243,1,0,0:0:0:0:
256,192,193243,1,0,0:0:0:0:
475,192,193243,1,0,0:0:0:0:
36,192,193243,1,0,0:0:0:0:
329,192,193355,1,0,0:0:0:0:
402,192,193468,1,0,0:0:0:0:
109,192,193468,1,0,0:0:0:0:
182,192,193468,1,0,0:0:0:0:
329,192,193581,1,0,0:0:0:0:
256,192,193694,1,0,0:0:0:0:
109,192,193694,1,0,0:0:0:0:
36,192,193694,1,0,0:0:0:0:
475,192,193694,1,0,0:0:0:0:
402,192,193694,1,0,0:0:0:0:
182,192,193807,1,0,0:0:0:0:
109,192,193919,1,0,0:0:0:0:
329,192,193919,1,0,0:0:0:0:
402,192,193919,1,0,0:0:0:0:
182,192,194032,1,0,0:0:0:0:
256,192,194145,1,0,0:0:0:0:
402,192,194145,1,0,0:0:0:0:
475,192,194145,1,0,0:0:0:0:
36,192,194145,1,0,0:0:0:0:
329,192,194258,1,0,0:0:0:0:
402,192,194371,1,0,0:0:0:0:
109,192,194371,1,0,0:0:0:0:
182,192,194371,1,0,0:0:0:0:
329,192,194483,1,0,0:0:0:0:
256,192,194596,1,0,0:0:0:0:
109,192,194596,1,0,0:0:0:0:
36,192,194596,1,0,0:0:0:0:
475,192,194596,1,0,0:0:0:0:
402,192,194596,1,0,0:0:0:0:
182,192,194709,1,0,0:0:0:0:
109,192,194822,1,0,0:0:0:0:
329,192,194822,1,0,0:0:0:0:
402,192,194822,1,0,0:0:0:0:
256,192,194934,1,0,0:0:0:0:
182,192,195047,1,0,0:0:0:0:
36,192,195047,1,0,0:0:0:0:
402,192,195047,1,0,0:0:0:0:
475,192,195047,1,0,0:0:0:0:
402,192,195160,1,0,0:0:0:0:
475,192,195160,1,0,0:0:0:0:
182,192,195160,1,0,0:0:0:0:
36,192,195160,1,0,0:0:0:0:
109,192,195273,1,0,0:0:0:0:
256,192,195273,1,0,0:0:0:0:
329,192,195273,1,0,0:0:0:0:
109,192,195498,1,0,0:0:0:0:
256,192,195498,1,0,0:0:0:0:
329,192,195498,1,0,0:0:0:0:
36,192,195724,1,0,0:0:0:0:
109,192,195724,1,0,0:0:0:0:
329,192,195724,1,0,0:0:0:0:
475,192,195724,1,0,0:0:0:0:
36,192,195837,1,0,0:0:0:0:
109,192,195837,1,0,0:0:0:0:
329,192,195837,1,0,0:0:0:0:
475,192,195837,1,0,0:0:0:0:
402,192,195949,1,0,0:0:0:0:
256,192,195949,1,0,0:0:0:0:
182,192,195949,1,0,0:0:0:0:
109,192,196062,1,0,0:0:0:0:
36,192,196062,1,0,0:0:0:0:
256,192,196175,1,0,0:0:0:0:
329,192,196175,1,0,0:0:0:0:
475,192,196175,1,0,0:0:0:0:
182,192,196288,1,0,0:0:0:0:
109,192,196401,1,0,0:0:0:0:
36,192,196401,1,0,0:0:0:0:
329,192,196401,1,0,0:0:0:0:
475,192,196401,1,0,0:0:0:0:
329,192,196626,1,0,0:0:0:0:
475,192,196626,1,0,0:0:0:0:
109,192,196626,1,0,0:0:0:0:
36,192,196626,1,0,0:0:0:0:
256,192,196852,5,0,0:0:0:0:
329,192,196852,1,0,0:0:0:0:
109,192,196852,1,0,0:0:0:0:
36,192,196852,1,0,0:0:0:0:
402,192,196964,1,0,0:0:0:0:
475,192,196964,1,0,0:0:0:0:
256,192,197077,1,0,0:0:0:0:
182,192,197077,1,0,0:0:0:0:
36,192,197077,1,0,0:0:0:0:
402,192,197190,1,0,0:0:0:0:
329,192,197190,1,0,0:0:0:0:
182,192,197303,1,0,0:0:0:0:
109,192,197303,1,0,0:0:0:0:
475,192,197303,1,0,0:0:0:0:
329,192,197416,1,0,0:0:0:0:
256,192,197416,1,0,0:0:0:0:
109,192,197528,1,0,0:0:0:0:
36,192,197528,1,0,0:0:0:0:
402,192,197528,1,0,0:0:0:0:
256,192,197641,1,0,0:0:0:0:
182,192,197641,1,0,0:0:0:0:
329,192,197754,1,0,0:0:0:0:
36,192,197754,1,0,0:0:0:0:
475,192,197754,1,0,0:0:0:0:
182,192,197867,1,0,0:0:0:0:
109,192,197867,1,0,0:0:0:0:
402,192,197980,1,0,0:0:0:0:
256,192,197980,1,0,0:0:0:0:
475,192,197980,1,0,0:0:0:0:
109,192,198092,1,0,0:0:0:0:
36,192,198092,1,0,0:0:0:0:
329,192,198205,1,0,0:0:0:0:
182,192,198205,1,0,0:0:0:0:
402,192,198205,1,0,0:0:0:0:
475,192,198205,1,0,0:0:0:0:
109,192,198318,1,0,0:0:0:0:
256,192,198318,1,0,0:0:0:0:
36,192,198431,1,0,0:0:0:0:
402,192,198431,1,0,0:0:0:0:
182,192,198431,1,0,0:0:0:0:
329,192,198543,1,0,0:0:0:0:
36,192,198656,1,0,0:0:0:0:
475,192,198656,1,0,0:0:0:0:
256,192,198656,1,0,0:0:0:0:
109,192,198656,1,0,0:0:0:0:
329,192,198769,1,0,0:0:0:0:
402,192,198882,1,0,0:0:0:0:
182,192,198882,1,0,0:0:0:0:
109,192,198882,1,0,0:0:0:0:
256,192,198995,1,0,0:0:0:0:
329,192,199107,1,0,0:0:0:0:
475,192,199107,1,0,0:0:0:0:
109,192,199107,1,0,0:0:0:0:
36,192,199107,1,0,0:0:0:0:
256,192,199220,1,0,0:0:0:0:
402,192,199220,1,0,0:0:0:0:
182,192,199333,1,0,0:0:0:0:
109,192,199333,1,0,0:0:0:0:
329,192,199333,1,0,0:0:0:0:
402,192,199446,1,0,0:0:0:0:
256,192,199558,1,0,0:0:0:0:
475,192,199558,1,0,0:0:0:0:
109,192,199558,1,0,0:0:0:0:
36,192,199558,1,0,0:0:0:0:
329,192,199671,1,0,0:0:0:0:
182,192,199671,1,0,0:0:0:0:
402,192,199784,1,0,0:0:0:0:
256,192,199784,1,0,0:0:0:0:
475,192,199784,1,0,0:0:0:0:
182,192,199897,1,0,0:0:0:0:
36,192,200010,1,0,0:0:0:0:
109,192,200010,1,0,0:0:0:0:
329,192,200010,1,0,0:0:0:0:
475,192,200010,1,0,0:0:0:0:
256,192,200122,1,0,0:0:0:0:
402,192,200122,1,0,0:0:0:0:
109,192,200235,1,0,0:0:0:0:
182,192,200235,1,0,0:0:0:0:
329,192,200235,1,0,0:0:0:0:
402,192,200348,1,0,0:0:0:0:
475,192,200461,1,0,0:0:0:0:
182,192,200461,1,0,0:0:0:0:
36,192,200461,1,0,0:0:0:0:
256,192,200461,1,0,0:0:0:0:
329,192,200574,1,0,0:0:0:0:
402,192,200686,1,0,0:0:0:0:
182,192,200686,1,0,0:0:0:0:
475,192,200686,1,0,0:0:0:0:
109,192,200799,1,0,0:0:0:0:
36,192,200912,1,0,0:0:0:0:
256,192,200912,1,0,0:0:0:0:
329,192,200912,1,0,0:0:0:0:
475,192,200912,1,0,0:0:0:0:
182,192,201025,1,0,0:0:0:0:
109,192,201137,1,0,0:0:0:0:
36,192,201137,1,0,0:0:0:0:
329,192,201137,1,0,0:0:0:0:
402,192,201250,1,0,0:0:0:0:
182,192,201250,1,0,0:0:0:0:
475,192,201363,1,0,0:0:0:0:
256,192,201363,1,0,0:0:0:0:
36,192,201363,1,0,0:0:0:0:
329,192,201476,1,0,0:0:0:0:
109,192,201476,1,0,0:0:0:0:
36,192,201589,1,0,0:0:0:0:
256,192,201589,1,0,0:0:0:0:
475,192,201589,1,0,0:0:0:0:
182,192,201701,1,0,0:0:0:0:
402,192,201701,1,0,0:0:0:0:
329,192,201814,1,0,0:0:0:0:
36,192,201814,1,0,0:0:0:0:
109,192,201814,1,0,0:0:0:0:
256,192,201927,1,0,0:0:0:0:
182,192,201927,1,0,0:0:0:0:
109,192,202040,1,0,0:0:0:0:
402,192,202040,1,0,0:0:0:0:
329,192,202040,1,0,0:0:0:0:
256,192,202152,1,0,0:0:0:0:
182,192,202152,1,0,0:0:0:0:
329,192,202265,1,0,0:0:0:0:
475,192,202265,1,0,0:0:0:0:
109,192,202265,1,0,0:0:0:0:
36,192,202265,1,0,0:0:0:0:
182,192,202378,1,0,0:0:0:0:
402,192,202491,1,0,0:0:0:0:
475,192,202491,1,0,0:0:0:0:
329,192,202491,1,0,0:0:0:0:
109,192,202491,1,0,0:0:0:0:
256,192,202604,1,0,0:0:0:0:
475,192,202716,1,0,0:0:0:0:
36,192,202716,1,0,0:0:0:0:
402,192,202716,1,0,0:0:0:0:
182,192,202716,1,0,0:0:0:0:
329,192,202829,1,0,0:0:0:0:
402,192,202942,1,0,0:0:0:0:
182,192,202942,1,0,0:0:0:0:
109,192,202942,1,0,0:0:0:0:
36,192,202942,1,0,0:0:0:0:
256,192,203055,1,0,0:0:0:0:
329,192,203168,1,0,0:0:0:0:
475,192,203168,1,0,0:0:0:0:
109,192,203168,1,0,0:0:0:0:
36,192,203168,1,0,0:0:0:0:
182,192,203280,1,0,0:0:0:0:
256,192,203280,1,0,0:0:0:0:
402,192,203393,1,0,0:0:0:0:
329,192,203393,1,0,0:0:0:0:
36,192,203393,1,0,0:0:0:0:
109,192,203506,1,0,0:0:0:0:
182,192,203506,1,0,0:0:0:0:
256,192,203619,1,0,0:0:0:0:
475,192,203619,1,0,0:0:0:0:
402,192,203619,1,0,0:0:0:0:
36,192,203619,1,0,0:0:0:0:
182,192,203731,1,0,0:0:0:0:
329,192,203844,1,0,0:0:0:0:
109,192,203844,1,0,0:0:0:0:
402,192,203844,1,0,0:0:0:0:
475,192,203844,1,0,0:0:0:0:
182,192,203957,1,0,0:0:0:0:
256,192,204070,1,0,0:0:0:0:
402,192,204070,1,0,0:0:0:0:
475,192,204070,1,0,0:0:0:0:
36,192,204070,1,0,0:0:0:0:
109,192,204183,1,0,0:0:0:0:
182,192,204295,1,0,0:0:0:0:
256,192,204295,1,0,0:0:0:0:
402,192,204295,1,0,0:0:0:0:
475,192,204295,1,0,0:0:0:0:
36,192,204408,1,0,0:0:0:0:
109,192,204521,1,0,0:0:0:0:
182,192,204521,1,0,0:0:0:0:
329,192,204521,1,0,0:0:0:0:
402,192,204521,1,0,0:0:0:0:
475,192,204634,1,0,0:0:0:0:
329,192,204746,1,0,0:0:0:0:
256,192,204746,1,0,0:0:0:0:
109,192,204746,1,0,0:0:0:0:
36,192,204746,1,0,0:0:0:0:
402,192,204859,1,0,0:0:0:0:
475,192,204972,1,0,0:0:0:0:
256,192,204972,1,0,0:0:0:0:
182,192,204972,1,0,0:0:0:0:
36,192,204972,1,0,0:0:0:0:
329,192,205085,1,0,0:0:0:0:
402,192,205198,1,0,0:0:0:0:
109,192,205198,1,0,0:0:0:0:
182,192,205198,1,0,0:0:0:0:
329,192,205310,1,0,0:0:0:0:
256,192,205423,1,0,0:0:0:0:
36,192,205423,1,0,0:0:0:0:
109,192,205423,1,0,0:0:0:0:
475,192,205423,1,0,0:0:0:0:
329,192,205536,1,0,0:0:0:0:
182,192,205649,1,0,0:0:0:0:
36,192,205649,1,0,0:0:0:0:
109,192,205649,1,0,0:0:0:0:
402,192,205649,1,0,0:0:0:0:
329,192,205761,1,0,0:0:0:0:
256,192,205874,1,0,0:0:0:0:
109,192,205874,1,0,0:0:0:0:
36,192,205874,1,0,0:0:0:0:
475,192,205874,1,0,0:0:0:0:
402,192,205987,1,0,0:0:0:0:
329,192,206100,1,0,0:0:0:0:
256,192,206100,1,0,0:0:0:0:
109,192,206100,1,0,0:0:0:0:
36,192,206100,1,0,0:0:0:0:
475,192,206213,1,0,0:0:0:0:
402,192,206325,1,0,0:0:0:0:
329,192,206325,1,0,0:0:0:0:
182,192,206325,1,0,0:0:0:0:
109,192,206325,1,0,0:0:0:0:
36,192,206438,1,0,0:0:0:0:
182,192,206551,1,0,0:0:0:0:
256,192,206551,1,0,0:0:0:0:
402,192,206551,1,0,0:0:0:0:
475,192,206551,1,0,0:0:0:0:
109,192,206664,1,0,0:0:0:0:
36,192,206777,1,0,0:0:0:0:
256,192,206777,1,0,0:0:0:0:
329,192,206777,1,0,0:0:0:0:
475,192,206777,1,0,0:0:0:0:
182,192,206889,1,0,0:0:0:0:
109,192,207002,1,0,0:0:0:0:
402,192,207002,1,0,0:0:0:0:
329,192,207002,1,0,0:0:0:0:
182,192,207115,1,0,0:0:0:0:
256,192,207228,1,0,0:0:0:0:
475,192,207228,1,0,0:0:0:0:
402,192,207228,1,0,0:0:0:0:
36,192,207228,1,0,0:0:0:0:
182,192,207340,1,0,0:0:0:0:
329,192,207453,1,0,0:0:0:0:
475,192,207453,1,0,0:0:0:0:
402,192,207453,1,0,0:0:0:0:
109,192,207453,1,0,0:0:0:0:
182,192,207566,1,0,0:0:0:0:
256,192,207679,1,0,0:0:0:0:
402,192,207679,1,0,0:0:0:0:
36,192,207679,1,0,0:0:0:0:
475,192,207679,1,0,0:0:0:0:
109,192,207792,1,0,0:0:0:0:
329,192,207792,1,0,0:0:0:0:
182,192,207904,1,0,0:0:0:0:
402,192,207904,1,0,0:0:0:0:
256,192,207904,1,0,0:0:0:0:
36,192,208017,1,0,0:0:0:0:
109,192,208130,1,0,0:0:0:0:
256,192,208130,1,0,0:0:0:0:
329,192,208130,1,0,0:0:0:0:
475,192,208130,1,0,0:0:0:0:
182,192,208243,1,0,0:0:0:0:
402,192,208355,1,0,0:0:0:0:
475,192,208355,1,0,0:0:0:0:
256,192,208355,1,0,0:0:0:0:
36,192,208355,1,0,0:0:0:0:
256,192,208581,1,0,0:0:0:0:
109,192,208581,1,0,0:0:0:0:
36,192,208581,1,0,0:0:0:0:
475,192,208581,1,0,0:0:0:0:
402,192,208694,1,0,0:0:0:0:
182,192,208694,1,0,0:0:0:0:
329,192,208807,1,0,0:0:0:0:
109,192,208807,1,0,0:0:0:0:
256,192,208807,1,0,0:0:0:0:
475,192,208919,1,0,0:0:0:0:
402,192,209032,1,0,0:0:0:0:
256,192,209032,1,0,0:0:0:0:
182,192,209032,1,0,0:0:0:0:
36,192,209032,1,0,0:0:0:0:
329,192,209145,1,0,0:0:0:0:
256,192,209258,1,0,0:0:0:0:
109,192,209258,1,0,0:0:0:0:
36,192,209258,1,0,0:0:0:0:
475,192,209258,1,0,0:0:0:0:
109,192,209483,1,0,0:0:0:0:
36,192,209483,1,0,0:0:0:0:
256,192,209483,1,0,0:0:0:0:
402,192,209483,1,0,0:0:0:0:
329,192,209709,1,0,0:0:0:0:
182,192,209709,1,0,0:0:0:0:
475,192,209709,1,0,0:0:0:0:
402,192,209934,1,0,0:0:0:0:
256,192,209934,1,0,0:0:0:0:
36,192,209934,1,0,0:0:0:0:
475,192,209934,1,0,0:0:0:0:
329,192,210160,1,0,0:0:0:0:
182,192,210160,1,0,0:0:0:0:
109,192,210160,1,0,0:0:0:0:
402,192,210386,1,0,0:0:0:0:
475,192,210386,1,0,0:0:0:0:
256,192,210386,1,0,0:0:0:0:
109,192,210498,1,0,0:0:0:0:
182,192,210498,1,0,0:0:0:0:
36,192,210498,1,0,0:0:0:0:
402,192,210611,1,0,0:0:0:0:
329,192,210611,1,0,0:0:0:0:
475,192,210611,1,0,0:0:0:0:
182,192,210724,1,0,0:0:0:0:
109,192,210724,1,0,0:0:0:0:
36,192,210724,1,0,0:0:0:0:
402,192,210837,1,0,0:0:0:0:
256,192,210837,1,0,0:0:0:0:
475,192,210837,1,0,0:0:0:0:
182,192,210949,1,0,0:0:0:0:
109,192,211062,1,0,0:0:0:0:
329,192,211062,1,0,0:0:0:0:
256,192,211175,1,0,0:0:0:0:
182,192,211288,1,0,0:0:0:0:
402,192,211288,1,0,0:0:0:0:
475,192,211288,1,0,0:0:0:0:
36,192,211288,128,0,211852:0:0:0:0:
256,192,211513,1,0,0:0:0:0:
329,192,211739,1,0,0:0:0:0:
475,192,211964,1,0,0:0:0:0:
402,192,211964,1,0,0:0:0:0:
182,192,211964,1,0,0:0:0:0:
36,192,211964,128,0,212754:0:0:0:0:
256,192,212416,1,0,0:0:0:0:
329,192,212641,1,0,0:0:0:0:
402,192,212867,1,0,0:0:0:0:
475,192,212867,1,0,0:0:0:0:
182,192,212867,1,0,0:0:0:0:
36,192,212867,1,0,0:0:0:0:
329,192,213092,1,0,0:0:0:0:
475,192,213092,1,0,0:0:0:0:
256,192,213205,1,0,0:0:0:0:
182,192,213318,1,0,0:0:0:0:
36,192,213318,1,0,0:0:0:0:
109,192,213543,1,0,0:0:0:0:
402,192,213543,1,0,0:0:0:0:
329,192,213769,5,0,0:0:0:0:
402,192,213769,1,0,0:0:0:0:
256,192,213882,1,0,0:0:0:0:
109,192,213995,1,0,0:0:0:0:
182,192,213995,1,0,0:0:0:0:
36,192,214220,1,0,0:0:0:0:
182,192,214220,1,0,0:0:0:0:
329,192,214220,1,0,0:0:0:0:
475,192,214220,1,0,0:0:0:0:
402,192,214446,1,0,0:0:0:0:
256,192,214446,1,0,0:0:0:0:
109,192,214446,1,0,0:0:0:0:
36,192,214897,5,0,0:0:0:0:
182,192,214897,1,0,0:0:0:0:
475,192,214897,1,0,0:0:0:0:
402,192,214897,1,0,0:0:0:0:
256,192,215010,1,0,0:0:0:0:
475,192,215122,1,0,0:0:0:0:
109,192,215122,1,0,0:0:0:0:
329,192,215122,1,0,0:0:0:0:
256,192,215235,1,0,0:0:0:0:
182,192,215348,1,0,0:0:0:0:
36,192,215348,1,0,0:0:0:0:
475,192,215348,1,0,0:0:0:0:
402,192,215348,1,0,0:0:0:0:
329,192,215461,1,0,0:0:0:0:
109,192,215574,1,0,0:0:0:0:
475,192,215574,1,0,0:0:0:0:
256,192,215574,1,0,0:0:0:0:
329,192,215686,1,0,0:0:0:0:
402,192,215799,1,0,0:0:0:0:
36,192,215799,1,0,0:0:0:0:
182,192,215799,1,0,0:0:0:0:
256,192,215912,1,0,0:0:0:0:
475,192,215912,1,0,0:0:0:0:
182,192,216025,1,0,0:0:0:0:
36,192,216025,1,0,0:0:0:0:
402,192,216025,1,0,0:0:0:0:
256,192,216137,1,0,0:0:0:0:
109,192,216137,1,0,0:0:0:0:
329,192,216250,1,0,0:0:0:0:
182,192,216250,1,0,0:0:0:0:
475,192,216250,1,0,0:0:0:0:
402,192,216250,1,0,0:0:0:0:
109,192,216363,1,0,0:0:0:0:
36,192,216476,1,0,0:0:0:0:
256,192,216476,1,0,0:0:0:0:
402,192,216476,1,0,0:0:0:0:
109,192,216589,1,0,0:0:0:0:
182,192,216701,1,0,0:0:0:0:
329,192,216701,1,0,0:0:0:0:
475,192,216701,1,0,0:0:0:0:
109,192,216814,1,0,0:0:0:0:
36,192,216927,1,0,0:0:0:0:
256,192,216927,1,0,0:0:0:0:
402,192,216927,1,0,0:0:0:0:
182,192,217040,1,0,0:0:0:0:
109,192,217152,1,0,0:0:0:0:
329,192,217152,1,0,0:0:0:0:
475,192,217152,1,0,0:0:0:0:
36,192,217152,1,0,0:0:0:0:
256,192,217265,1,0,0:0:0:0:
182,192,217378,1,0,0:0:0:0:
402,192,217378,1,0,0:0:0:0:
36,192,217378,1,0,0:0:0:0:
329,192,217491,1,0,0:0:0:0:
256,192,217604,1,0,0:0:0:0:
475,192,217604,1,0,0:0:0:0:
109,192,217604,1,0,0:0:0:0:
402,192,217716,1,0,0:0:0:0:
329,192,217829,1,0,0:0:0:0:
182,192,217829,1,0,0:0:0:0:
36,192,217829,1,0,0:0:0:0:
256,192,217942,1,0,0:0:0:0:
402,192,217942,1,0,0:0:0:0:
329,192,218055,1,0,0:0:0:0:
475,192,218055,1,0,0:0:0:0:
109,192,218055,1,0,0:0:0:0:
36,192,218055,1,0,0:0:0:0:
182,192,218168,1,0,0:0:0:0:
256,192,218168,1,0,0:0:0:0:
329,192,218280,1,0,0:0:0:0:
402,192,218280,1,0,0:0:0:0:
36,192,218280,1,0,0:0:0:0:
109,192,218393,1,0,0:0:0:0:
182,192,218393,1,0,0:0:0:0:
402,192,218506,1,0,0:0:0:0:
475,192,218506,1,0,0:0:0:0:
256,192,218506,1,0,0:0:0:0:
109,192,218619,1,0,0:0:0:0:
36,192,218619,1,0,0:0:0:0:
182,192,218731,1,0,0:0:0:0:
329,192,218731,1,0,0:0:0:0:
402,192,218731,1,0,0:0:0:0:
475,192,218844,1,0,0:0:0:0:
36,192,218844,1,0,0:0:0:0:
109,192,218957,1,0,0:0:0:0:
256,192,218957,1,0,0:0:0:0:
329,192,218957,1,0,0:0:0:0:
402,192,219070,1,0,0:0:0:0:
475,192,219070,1,0,0:0:0:0:
256,192,219183,1,0,0:0:0:0:
182,192,219183,1,0,0:0:0:0:
36,192,219183,1,0,0:0:0:0:
402,192,219295,1,0,0:0:0:0:
329,192,219295,1,0,0:0:0:0:
475,192,219408,1,0,0:0:0:0:
182,192,219408,1,0,0:0:0:0:
109,192,219408,1,0,0:0:0:0:
256,192,219521,1,0,0:0:0:0:
329,192,219521,1,0,0:0:0:0:
402,192,219634,1,0,0:0:0:0:
109,192,219634,1,0,0:0:0:0:
36,192,219634,1,0,0:0:0:0:
182,192,219746,1,0,0:0:0:0:
256,192,219746,1,0,0:0:0:0:
329,192,219859,1,0,0:0:0:0:
36,192,219859,1,0,0:0:0:0:
475,192,219859,1,0,0:0:0:0:
109,192,219972,1,0,0:0:0:0:
182,192,219972,1,0,0:0:0:0:
256,192,220085,1,0,0:0:0:0:
402,192,220085,1,0,0:0:0:0:
475,192,220085,1,0,0:0:0:0:
36,192,220198,1,0,0:0:0:0:
109,192,220198,1,0,0:0:0:0:
329,192,220310,1,0,0:0:0:0:
182,192,220310,1,0,0:0:0:0:
256,192,220310,1,0,0:0:0:0:
402,192,220423,1,0,0:0:0:0:
475,192,220536,1,0,0:0:0:0:
256,192,220536,1,0,0:0:0:0:
109,192,220536,1,0,0:0:0:0:
329,192,220649,1,0,0:0:0:0:
402,192,220761,1,0,0:0:0:0:
182,192,220761,1,0,0:0:0:0:
36,192,220761,1,0,0:0:0:0:
475,192,220761,1,0,0:0:0:0:
256,192,220874,1,0,0:0:0:0:
329,192,220987,1,0,0:0:0:0:
109,192,220987,1,0,0:0:0:0:
475,192,220987,1,0,0:0:0:0:
402,192,221100,1,0,0:0:0:0:
256,192,221100,1,0,0:0:0:0:
36,192,221213,1,0,0:0:0:0:
329,192,221213,1,0,0:0:0:0:
182,192,221213,1,0,0:0:0:0:
402,192,221325,1,0,0:0:0:0:
109,192,221325,1,0,0:0:0:0:
182,192,221438,1,0,0:0:0:0:
329,192,221438,1,0,0:0:0:0:
475,192,221438,1,0,0:0:0:0:
109,192,221551,1,0,0:0:0:0:
36,192,221664,1,0,0:0:0:0:
256,192,221664,1,0,0:0:0:0:
402,192,221664,1,0,0:0:0:0:
475,192,221664,1,0,0:0:0:0:
182,192,221777,1,0,0:0:0:0:
109,192,221889,1,0,0:0:0:0:
329,192,221889,1,0,0:0:0:0:
402,192,221889,1,0,0:0:0:0:
182,192,222002,1,0,0:0:0:0:
256,192,222115,1,0,0:0:0:0:
402,192,222115,1,0,0:0:0:0:
475,192,222115,1,0,0:0:0:0:
36,192,222115,1,0,0:0:0:0:
182,192,222228,1,0,0:0:0:0:
109,192,222340,1,0,0:0:0:0:
329,192,222340,1,0,0:0:0:0:
36,192,222340,1,0,0:0:0:0:
402,192,222340,1,0,0:0:0:0:
256,192,222453,1,0,0:0:0:0:
182,192,222566,1,0,0:0:0:0:
36,192,222566,1,0,0:0:0:0:
402,192,222566,1,0,0:0:0:0:
475,192,222566,1,0,0:0:0:0:
109,192,222679,1,0,0:0:0:0:
256,192,222679,1,0,0:0:0:0:
329,192,222792,1,0,0:0:0:0:
182,192,222792,1,0,0:0:0:0:
402,192,222792,1,0,0:0:0:0:
109,192,222904,1,0,0:0:0:0:
402,192,223017,1,0,0:0:0:0:
475,192,223017,1,0,0:0:0:0:
36,192,223017,1,0,0:0:0:0:
256,192,223017,1,0,0:0:0:0:
182,192,223130,1,0,0:0:0:0:
36,192,223243,1,0,0:0:0:0:
109,192,223243,1,0,0:0:0:0:
329,192,223243,1,0,0:0:0:0:
256,192,223355,1,0,0:0:0:0:
36,192,223468,1,0,0:0:0:0:
182,192,223468,1,0,0:0:0:0:
402,192,223468,1,0,0:0:0:0:
475,192,223468,1,0,0:0:0:0:
256,192,223581,1,0,0:0:0:0:
109,192,223694,1,0,0:0:0:0:
329,192,223694,1,0,0:0:0:0:
36,192,223694,1,0,0:0:0:0:
182,192,223807,1,0,0:0:0:0:
402,192,223807,1,0,0:0:0:0:
256,192,223919,1,0,0:0:0:0:
475,192,223919,1,0,0:0:0:0:
36,192,223919,1,0,0:0:0:0:
329,192,224032,1,0,0:0:0:0:
109,192,224145,1,0,0:0:0:0:
475,192,224145,1,0,0:0:0:0:
256,192,224145,1,0,0:0:0:0:
402,192,224258,1,0,0:0:0:0:
182,192,224371,1,0,0:0:0:0:
36,192,224371,1,0,0:0:0:0:
329,192,224371,1,0,0:0:0:0:
256,192,224483,1,0,0:0:0:0:
402,192,224483,1,0,0:0:0:0:
329,192,224596,1,0,0:0:0:0:
109,192,224596,1,0,0:0:0:0:
475,192,224596,1,0,0:0:0:0:
182,192,224709,1,0,0:0:0:0:
256,192,224822,1,0,0:0:0:0:
402,192,224822,1,0,0:0:0:0:
36,192,224822,1,0,0:0:0:0:
475,192,224822,1,0,0:0:0:0:
182,192,224934,1,0,0:0:0:0:
109,192,225047,1,0,0:0:0:0:
36,192,225047,1,0,0:0:0:0:
329,192,225047,1,0,0:0:0:0:
402,192,225047,1,0,0:0:0:0:
256,192,225160,1,0,0:0:0:0:
182,192,225273,1,0,0:0:0:0:
109,192,225273,1,0,0:0:0:0:
402,192,225273,1,0,0:0:0:0:
475,192,225273,1,0,0:0:0:0:
256,192,225386,1,0,0:0:0:0:
329,192,225498,1,0,0:0:0:0:
402,192,225498,1,0,0:0:0:0:
36,192,225498,1,0,0:0:0:0:
109,192,225498,1,0,0:0:0:0:
182,192,225611,1,0,0:0:0:0:
256,192,225724,1,0,0:0:0:0:
475,192,225724,1,0,0:0:0:0:
402,192,225724,1,0,0:0:0:0:
36,192,225724,1,0,0:0:0:0:
182,192,225837,1,0,0:0:0:0:
109,192,225949,1,0,0:0:0:0:
329,192,225949,1,0,0:0:0:0:
182,192,226062,1,0,0:0:0:0:
402,192,226062,1,0,0:0:0:0:
36,192,226175,1,0,0:0:0:0:
256,192,226175,1,0,0:0:0:0:
109,192,226175,1,0,0:0:0:0:
475,192,226175,1,0,0:0:0:0:
329,192,226288,1,0,0:0:0:0:
182,192,226401,1,0,0:0:0:0:
402,192,226401,1,0,0:0:0:0:
329,192,226513,1,0,0:0:0:0:
109,192,226513,1,0,0:0:0:0:
402,192,226626,1,0,0:0:0:0:
475,192,226626,1,0,0:0:0:0:
256,192,226626,1,0,0:0:0:0:
36,192,226626,1,0,0:0:0:0:
182,192,226739,1,0,0:0:0:0:
329,192,226739,1,0,0:0:0:0:
109,192,226852,1,0,0:0:0:0:
256,192,226852,1,0,0:0:0:0:
475,192,226852,1,0,0:0:0:0:
402,192,226964,1,0,0:0:0:0:
36,192,227077,1,0,0:0:0:0:
182,192,227077,1,0,0:0:0:0:
329,192,227077,1,0,0:0:0:0:
256,192,227190,1,0,0:0:0:0:
109,192,227303,1,0,0:0:0:0:
475,192,227303,1,0,0:0:0:0:
329,192,227303,1,0,0:0:0:0:
402,192,227416,1,0,0:0:0:0:
256,192,227416,1,0,0:0:0:0:
329,192,227528,1,0,0:0:0:0:
182,192,227528,1,0,0:0:0:0:
36,192,227528,1,0,0:0:0:0:
36,192,227641,1,0,0:0:0:0:
182,192,227641,1,0,0:0:0:0:
329,192,227641,1,0,0:0:0:0:
402,192,227754,1,0,0:0:0:0:
475,192,227754,1,0,0:0:0:0:
256,192,227754,1,0,0:0:0:0:
402,192,227980,1,0,0:0:0:0:
475,192,227980,1,0,0:0:0:0:
256,192,227980,1,0,0:0:0:0:
182,192,228205,1,0,0:0:0:0:
329,192,228205,1,0,0:0:0:0:
475,192,228205,1,0,0:0:0:0:
475,192,228318,1,0,0:0:0:0:
329,192,228318,1,0,0:0:0:0:
182,192,228318,1,0,0:0:0:0:
256,192,228431,1,0,0:0:0:0:
109,192,228431,1,0,0:0:0:0:
36,192,228431,1,0,0:0:0:0:
402,192,228543,1,0,0:0:0:0:
475,192,228543,1,0,0:0:0:0:
329,192,228656,1,0,0:0:0:0:
109,192,228656,1,0,0:0:0:0:
182,192,228656,1,0,0:0:0:0:
402,192,228769,1,0,0:0:0:0:
475,192,228769,1,0,0:0:0:0:
256,192,228882,1,0,0:0:0:0:
36,192,228882,1,0,0:0:0:0:
109,192,228882,1,0,0:0:0:0:
329,192,228882,1,0,0:0:0:0:
329,192,229107,1,0,0:0:0:0:
256,192,229107,1,0,0:0:0:0:
109,192,229107,1,0,0:0:0:0:
36,192,229107,1,0,0:0:0:0:
36,192,229333,5,0,0:0:0:0:
182,192,229333,1,0,0:0:0:0:
475,192,229333,1,0,0:0:0:0:
402,192,229333,1,0,0:0:0:0:
256,192,229446,1,0,0:0:0:0:
475,192,229558,1,0,0:0:0:0:
109,192,229558,1,0,0:0:0:0:
329,192,229558,1,0,0:0:0:0:
256,192,229671,1,0,0:0:0:0:
182,192,229784,1,0,0:0:0:0:
36,192,229784,1,0,0:0:0:0:
475,192,229784,1,0,0:0:0:0:
402,192,229784,1,0,0:0:0:0:
329,192,229897,1,0,0:0:0:0:
109,192,230010,1,0,0:0:0:0:
475,192,230010,1,0,0:0:0:0:
256,192,230010,1,0,0:0:0:0:
329,192,230122,1,0,0:0:0:0:
402,192,230235,1,0,0:0:0:0:
36,192,230235,1,0,0:0:0:0:
182,192,230235,1,0,0:0:0:0:
256,192,230348,1,0,0:0:0:0:
475,192,230348,1,0,0:0:0:0:
182,192,230461,1,0,0:0:0:0:
36,192,230461,1,0,0:0:0:0:
402,192,230461,1,0,0:0:0:0:
256,192,230574,1,0,0:0:0:0:
109,192,230574,1,0,0:0:0:0:
329,192,230686,1,0,0:0:0:0:
182,192,230686,1,0,0:0:0:0:
475,192,230686,1,0,0:0:0:0:
402,192,230686,1,0,0:0:0:0:
109,192,230799,1,0,0:0:0:0:
36,192,230912,1,0,0:0:0:0:
256,192,230912,1,0,0:0:0:0:
402,192,230912,1,0,0:0:0:0:
109,192,231025,1,0,0:0:0:0:
182,192,231137,1,0,0:0:0:0:
329,192,231137,1,0,0:0:0:0:
475,192,231137,1,0,0:0:0:0:
36,192,231250,1,0,0:0:0:0:
109,192,231250,1,0,0:0:0:0:
256,192,231363,1,0,0:0:0:0:
402,192,231363,1,0,0:0:0:0:
109,192,231476,1,0,0:0:0:0:
182,192,231476,1,0,0:0:0:0:
329,192,231589,1,0,0:0:0:0:
475,192,231589,1,0,0:0:0:0:
36,192,231589,1,0,0:0:0:0:
182,192,231701,1,0,0:0:0:0:
256,192,231701,1,0,0:0:0:0:
402,192,231814,1,0,0:0:0:0:
36,192,231814,1,0,0:0:0:0:
109,192,231814,1,0,0:0:0:0:
256,192,231927,1,0,0:0:0:0:
329,192,231927,1,0,0:0:0:0:
109,192,232040,1,0,0:0:0:0:
182,192,232040,1,0,0:0:0:0:
475,192,232040,1,0,0:0:0:0:
329,192,232152,1,0,0:0:0:0:
402,192,232152,1,0,0:0:0:0:
182,192,232265,1,0,0:0:0:0:
256,192,232265,1,0,0:0:0:0:
36,192,232265,1,0,0:0:0:0:
402,192,232378,1,0,0:0:0:0:
475,192,232378,1,0,0:0:0:0:
256,192,232491,1,0,0:0:0:0:
329,192,232491,1,0,0:0:0:0:
109,192,232491,1,0,0:0:0:0:
475,192,232604,1,0,0:0:0:0:
36,192,232604,1,0,0:0:0:0:
329,192,232716,1,0,0:0:0:0:
402,192,232716,1,0,0:0:0:0:
182,192,232716,1,0,0:0:0:0:
109,192,232829,1,0,0:0:0:0:
36,192,232829,1,0,0:0:0:0:
475,192,232942,1,0,0:0:0:0:
402,192,232942,1,0,0:0:0:0:
256,192,232942,1,0,0:0:0:0:
329,192,233055,1,0,0:0:0:0:
36,192,233168,1,0,0:0:0:0:
182,192,233168,1,0,0:0:0:0:
402,192,233168,1,0,0:0:0:0:
256,192,233280,1,0,0:0:0:0:
329,192,233393,1,0,0:0:0:0:
475,192,233393,1,0,0:0:0:0:
36,192,233393,1,0,0:0:0:0:
109,192,233393,1,0,0:0:0:0:
182,192,233506,1,0,0:0:0:0:
402,192,233619,1,0,0:0:0:0:
36,192,233619,1,0,0:0:0:0:
256,192,233619,1,0,0:0:0:0:
182,192,233731,1,0,0:0:0:0:
109,192,233844,1,0,0:0:0:0:
475,192,233844,1,0,0:0:0:0:
329,192,233844,1,0,0:0:0:0:
256,192,233957,1,0,0:0:0:0:
36,192,233957,1,0,0:0:0:0:
329,192,234070,1,0,0:0:0:0:
475,192,234070,1,0,0:0:0:0:
109,192,234070,1,0,0:0:0:0:
256,192,234183,1,0,0:0:0:0:
402,192,234183,1,0,0:0:0:0:
182,192,234295,1,0,0:0:0:0:
329,192,234295,1,0,0:0:0:0:
36,192,234295,1,0,0:0:0:0:
109,192,234295,1,0,0:0:0:0:
402,192,234408,1,0,0:0:0:0:
475,192,234521,1,0,0:0:0:0:
256,192,234521,1,0,0:0:0:0:
109,192,234521,1,0,0:0:0:0:
402,192,234634,1,0,0:0:0:0:
475,192,234746,1,0,0:0:0:0:
182,192,234746,1,0,0:0:0:0:
36,192,234746,1,0,0:0:0:0:
256,192,234746,1,0,0:0:0:0:
329,192,234859,1,0,0:0:0:0:
402,192,234972,1,0,0:0:0:0:
182,192,234972,1,0,0:0:0:0:
475,192,234972,1,0,0:0:0:0:
109,192,235085,1,0,0:0:0:0:
36,192,235198,1,0,0:0:0:0:
256,192,235198,1,0,0:0:0:0:
329,192,235198,1,0,0:0:0:0:
475,192,235198,1,0,0:0:0:0:
182,192,235310,1,0,0:0:0:0:
109,192,235423,1,0,0:0:0:0:
36,192,235423,1,0,0:0:0:0:
329,192,235423,1,0,0:0:0:0:
402,192,235536,1,0,0:0:0:0:
182,192,235536,1,0,0:0:0:0:
475,192,235649,1,0,0:0:0:0:
256,192,235649,1,0,0:0:0:0:
109,192,235649,1,0,0:0:0:0:
36,192,235649,1,0,0:0:0:0:
329,192,235761,1,0,0:0:0:0:
36,192,235874,1,0,0:0:0:0:
256,192,235874,1,0,0:0:0:0:
475,192,235874,1,0,0:0:0:0:
182,192,235987,1,0,0:0:0:0:
475,192,236100,1,0,0:0:0:0:
329,192,236100,1,0,0:0:0:0:
36,192,236100,1,0,0:0:0:0:
109,192,236100,1,0,0:0:0:0:
256,192,236213,1,0,0:0:0:0:
182,192,236325,1,0,0:0:0:0:
109,192,236325,1,0,0:0:0:0:
402,192,236325,1,0,0:0:0:0:
475,192,236325,1,0,0:0:0:0:
256,192,236438,1,0,0:0:0:0:
109,192,236551,1,0,0:0:0:0:
36,192,236551,1,0,0:0:0:0:
329,192,236551,1,0,0:0:0:0:
475,192,236551,1,0,0:0:0:0:
182,192,236664,1,0,0:0:0:0:
329,192,236777,1,0,0:0:0:0:
109,192,236777,1,0,0:0:0:0:
402,192,236777,1,0,0:0:0:0:
475,192,236777,1,0,0:0:0:0:
256,192,236889,1,0,0:0:0:0:
402,192,237002,1,0,0:0:0:0:
182,192,237002,1,0,0:0:0:0:
475,192,237002,1,0,0:0:0:0:
36,192,237002,1,0,0:0:0:0:
329,192,237115,1,0,0:0:0:0:
109,192,237228,1,0,0:0:0:0:
36,192,237228,1,0,0:0:0:0:
402,192,237228,1,0,0:0:0:0:
182,192,237228,1,0,0:0:0:0:
256,192,237340,1,0,0:0:0:0:
109,192,237453,1,0,0:0:0:0:
36,192,237453,1,0,0:0:0:0:
329,192,237453,1,0,0:0:0:0:
475,192,237453,1,0,0:0:0:0:
256,192,237566,1,0,0:0:0:0:
182,192,237566,1,0,0:0:0:0:
36,192,237679,1,0,0:0:0:0:
329,192,237679,1,0,0:0:0:0:
402,192,237679,1,0,0:0:0:0:
182,192,237792,1,0,0:0:0:0:
109,192,237792,1,0,0:0:0:0:
402,192,237904,1,0,0:0:0:0:
36,192,237904,1,0,0:0:0:0:
256,192,237904,1,0,0:0:0:0:
475,192,237904,1,0,0:0:0:0:
182,192,238017,1,0,0:0:0:0:
402,192,238130,1,0,0:0:0:0:
475,192,238130,1,0,0:0:0:0:
329,192,238130,1,0,0:0:0:0:
109,192,238130,1,0,0:0:0:0:
182,192,238243,1,0,0:0:0:0:
475,192,238355,1,0,0:0:0:0:
36,192,238355,1,0,0:0:0:0:
256,192,238355,1,0,0:0:0:0:
402,192,238355,1,0,0:0:0:0:
109,192,238468,1,0,0:0:0:0:
402,192,238581,1,0,0:0:0:0:
475,192,238581,1,0,0:0:0:0:
182,192,238581,1,0,0:0:0:0:
256,192,238581,1,0,0:0:0:0:
36,192,238694,1,0,0:0:0:0:
329,192,238807,1,0,0:0:0:0:
402,192,238807,1,0,0:0:0:0:
109,192,238807,1,0,0:0:0:0:
182,192,238807,1,0,0:0:0:0:
475,192,238919,1,0,0:0:0:0:
109,192,239032,1,0,0:0:0:0:
36,192,239032,1,0,0:0:0:0:
329,192,239032,1,0,0:0:0:0:
256,192,239032,1,0,0:0:0:0:
402,192,239145,1,0,0:0:0:0:
182,192,239258,1,0,0:0:0:0:
36,192,239258,1,0,0:0:0:0:
475,192,239258,1,0,0:0:0:0:
256,192,239258,1,0,0:0:0:0:
329,192,239371,1,0,0:0:0:0:
182,192,239483,1,0,0:0:0:0:
109,192,239483,1,0,0:0:0:0:
402,192,239483,1,0,0:0:0:0:
329,192,239596,1,0,0:0:0:0:
109,192,239709,1,0,0:0:0:0:
475,192,239709,1,0,0:0:0:0:
256,192,239709,1,0,0:0:0:0:
36,192,239709,1,0,0:0:0:0:
329,192,239822,1,0,0:0:0:0:
109,192,239934,1,0,0:0:0:0:
402,192,239934,1,0,0:0:0:0:
182,192,239934,1,0,0:0:0:0:
36,192,239934,1,0,0:0:0:0:
329,192,240047,1,0,0:0:0:0:
36,192,240160,1,0,0:0:0:0:
475,192,240160,1,0,0:0:0:0:
256,192,240160,1,0,0:0:0:0:
109,192,240160,1,0,0:0:0:0:
402,192,240273,1,0,0:0:0:0:
109,192,240386,1,0,0:0:0:0:
36,192,240386,1,0,0:0:0:0:
329,192,240386,1,0,0:0:0:0:
256,192,240386,1,0,0:0:0:0:
475,192,240498,1,0,0:0:0:0:
182,192,240611,1,0,0:0:0:0:
109,192,240611,1,0,0:0:0:0:
402,192,240611,1,0,0:0:0:0:
329,192,240611,1,0,0:0:0:0:
36,192,240724,1,0,0:0:0:0:
402,192,240837,1,0,0:0:0:0:
475,192,240837,1,0,0:0:0:0:
182,192,240837,1,0,0:0:0:0:
256,192,240837,1,0,0:0:0:0:
109,192,240949,1,0,0:0:0:0:
329,192,241062,1,0,0:0:0:0:
475,192,241062,1,0,0:0:0:0:
36,192,241062,1,0,0:0:0:0:
256,192,241062,1,0,0:0:0:0:
182,192,241175,1,0,0:0:0:0:
329,192,241288,1,0,0:0:0:0:
402,192,241288,1,0,0:0:0:0:
109,192,241288,1,0,0:0:0:0:
182,192,241401,1,0,0:0:0:0:
402,192,241513,1,0,0:0:0:0:
36,192,241513,1,0,0:0:0:0:
256,192,241513,1,0,0:0:0:0:
475,192,241513,1,0,0:0:0:0:
182,192,241626,1,0,0:0:0:0:
402,192,241739,1,0,0:0:0:0:
109,192,241739,1,0,0:0:0:0:
329,192,241739,1,0,0:0:0:0:
475,192,241739,1,0,0:0:0:0:
182,192,241852,1,0,0:0:0:0:
36,192,241964,1,0,0:0:0:0:
475,192,241964,1,0,0:0:0:0:
256,192,241964,1,0,0:0:0:0:
402,192,241964,1,0,0:0:0:0:
329,192,242190,1,0,0:0:0:0:
182,192,242190,1,0,0:0:0:0:
256,192,242416,1,0,0:0:0:0:
109,192,242416,1,0,0:0:0:0:
36,192,242416,1,0,0:0:0:0:
475,192,242416,1,0,0:0:0:0:
402,192,242641,1,0,0:0:0:0:
182,192,242641,1,0,0:0:0:0:
256,192,242867,1,0,0:0:0:0:
475,192,242867,1,0,0:0:0:0:
329,192,242867,1,0,0:0:0:0:
182,192,242980,1,0,0:0:0:0:
36,192,242980,1,0,0:0:0:0:
109,192,242980,1,0,0:0:0:0:
329,192,243092,1,0,0:0:0:0:
402,192,243092,1,0,0:0:0:0:
475,192,243092,1,0,0:0:0:0:
182,192,243205,1,0,0:0:0:0:
36,192,243205,1,0,0:0:0:0:
109,192,243205,1,0,0:0:0:0:
256,192,243318,1,0,0:0:0:0:
329,192,243318,1,0,0:0:0:0:
475,192,243318,1,0,0:0:0:0:
402,192,243543,1,0,0:0:0:0:
182,192,243543,1,0,0:0:0:0:
256,192,243769,1,0,0:0:0:0:
402,192,243769,1,0,0:0:0:0:
109,192,243769,1,0,0:0:0:0:
36,192,243769,1,0,0:0:0:0:
475,192,243995,1,0,0:0:0:0:
182,192,243995,1,0,0:0:0:0:
329,192,243995,1,0,0:0:0:0:
36,192,244220,1,0,0:0:0:0:
475,192,244220,1,0,0:0:0:0:
402,192,244220,1,0,0:0:0:0:
256,192,244220,1,0,0:0:0:0:
109,192,244446,1,0,0:0:0:0:
182,192,244446,1,0,0:0:0:0:
329,192,244446,1,0,0:0:0:0:
256,192,244671,1,0,0:0:0:0:
402,192,244671,1,0,0:0:0:0:
329,192,244897,1,0,0:0:0:0:
182,192,244897,1,0,0:0:0:0:
402,192,245122,1,0,0:0:0:0:
256,192,245122,1,0,0:0:0:0:
329,192,245348,1,0,0:0:0:0:
109,192,245348,1,0,0:0:0:0:
36,192,245348,1,0,0:0:0:0:
475,192,245348,128,0,246701:0:0:0:0:
329,192,246701,1,0,0:0:0:0:
256,192,246927,1,0,0:0:0:0:
402,192,246927,1,0,0:0:0:0:
182,192,247152,1,0,0:0:0:0:
475,192,247152,1,0,0:0:0:0:
109,192,247378,1,0,0:0:0:0:
402,192,247378,1,0,0:0:0:0:
36,192,247378,1,0,0:0:0:0:
329,192,247378,128,0,247716:0:0:0:0:
109,192,247716,1,0,0:0:0:0:
475,192,247716,1,0,0:0:0:0:
402,192,247716,1,0,0:0:0:0:
182,192,247716,128,0,248055:0:0:0:0:
402,192,248055,1,0,0:0:0:0:
109,192,248055,1,0,0:0:0:0:
36,192,248055,1,0,0:0:0:0:
329,192,248055,128,0,248506:0:0:0:0:
109,192,248506,1,0,0:0:0:0:
402,192,248506,1,0,0:0:0:0:
475,192,248506,1,0,0:0:0:0:
182,192,248506,128,0,248731:0:0:0:0:
329,192,248731,1,0,0:0:0:0:
475,192,248731,1,0,0:0:0:0:
36,192,248731,1,0,0:0:0:0:
256,192,248731,128,0,249183:0:0:0:0:
402,192,249183,1,0,0:0:0:0:
109,192,249183,1,0,0:0:0:0:
475,192,249183,1,0,0:0:0:0:
182,192,249183,128,0,249521:0:0:0:0:
402,192,249521,1,0,0:0:0:0:
36,192,249521,1,0,0:0:0:0:
109,192,249521,1,0,0:0:0:0:
329,192,249521,128,0,249859:0:0:0:0:
109,192,249859,1,0,0:0:0:0:
402,192,249859,1,0,0:0:0:0:
475,192,249859,1,0,0:0:0:0:
182,192,249859,128,0,250310:0:0:0:0:
402,192,250310,1,0,0:0:0:0:
109,192,250310,1,0,0:0:0:0:
36,192,250310,1,0,0:0:0:0:
329,192,250310,128,0,250536:0:0:0:0:
256,192,250536,1,0,0:0:0:0:
182,192,250536,1,0,0:0:0:0:
36,192,250536,1,0,0:0:0:0:
475,192,250536,1,0,0:0:0:0:
329,192,250761,1,0,0:0:0:0:
475,192,250761,1,0,0:0:0:0:
36,192,250761,1,0,0:0:0:0:
256,192,250761,128,0,252792:0:0:0:0:
