osu file format v14

[General]
AudioFilename: audio.mp3
AudioLeadIn: 0
PreviewTime: 57071
Countdown: 0
SampleSet: Soft
StackLeniency: 0.7
Mode: 0
LetterboxInBreaks: 0
WidescreenStoryboard: 0

[Editor]
Bookmarks: 16910,32394,47878,57555,88523
DistanceSpacing: 0.9
BeatDivisor: 4
GridSize: 4
TimelineZoom: 1

[Metadata]
Title:*~Asterisk~ (TV Size)
TitleUnicode:*~アスタリスク~ (TV Size)
Artist:ORANGE RANGE
ArtistUnicode:ORANGE RANGE
Creator:-Mikan
Version:The Death and The Strawberry
Source:BLEACH
Tags:BAT Bleach Appreciation Team EvilElvis Jounzan Natteke desu bossandy nekroman4ik meiikyuu anime japanese opening op 1 jpop j-pop pop ブリーチ
BeatmapID:2558545
BeatmapSetID:1230681

[Difficulty]
HPDrainRate:5
CircleSize:4.5
OverallDifficulty:8
ApproachRate:8.5
SliderMultiplier:1.6
SliderTickRate:1

[Events]
//Background and Video events
Video,-805,"video.avi"
0,0,"5CwpkfG.jpeg",0,0
//Break Periods
//Storyboard Layer 0 (Background)
//Storyboard Layer 1 (Fail)
//Storyboard Layer 2 (Pass)
//Storyboard Layer 3 (Foreground)
//Storyboard Layer 4 (Overlay)
//Storyboard Sound Samples

[TimingPoints]
-509,483.870967741935,4,2,1,80,1,0
942,-76.9230769230769,4,2,1,80,0,0
1426,-125,4,2,1,60,0,0
4813,-83.3333333333333,4,2,1,60,0,0
5297,-125,4,2,1,60,0,0
6023,-66.6666666666667,4,2,1,60,0,0
6749,-100,4,2,1,60,0,0
7232,-125,4,2,1,60,0,0
7958,-83.3333333333333,4,2,1,60,0,0
9168,-125,4,2,1,60,0,0
13765,-66.6666666666667,4,2,1,60,0,0
14490,-100,4,2,1,60,0,0
14974,-50,4,2,1,60,0,0
16426,-117.647058823529,4,2,1,60,0,0
16910,-100,4,2,1,70,0,0
17152,-100,4,2,1,70,0,0
18361,-66.6666666666667,4,2,1,70,0,0
18845,-100,4,2,1,70,0,0
20297,-76.9230769230769,4,2,1,70,0,0
20781,-100,4,2,1,70,0,0
22232,-66.6666666666667,4,2,1,70,0,0
22958,-100,4,2,1,70,0,0
24652,-100,4,2,1,70,0,0
24773,-100,4,2,1,70,0,0
26103,-66.6666666666667,4,2,1,70,0,0
26466,-100,4,2,1,70,0,0
28039,-76.9230769230769,4,2,1,70,0,0
28523,-100,4,2,1,70,0,0
30458,-100,4,2,1,70,0,0
30700,-76.9230769230769,4,2,1,70,0,0
32394,-125,4,2,1,50,0,0
47394,-200,4,2,1,50,0,0
47878,-111.111111111111,4,2,1,70,0,0
53200,-76.9230769230769,4,2,1,70,0,0
53684,-111.111111111111,4,2,1,70,0,0
57071,-50,4,2,1,100,0,0
57555,-100,4,2,1,80,0,1
59249,-100,4,2,1,80,0,1
59490,-100,4,2,1,80,0,1
61184,-100,4,2,1,80,0,1
61426,-100,4,2,1,80,0,1
61668,-100,4,2,1,80,0,1
62394,-100,4,2,1,80,0,1
63603,-100,4,2,1,80,0,1
65297,-100,4,2,1,80,0,1
68926,-100,4,2,1,80,0,1
69168,-100,4,2,1,80,0,1
69410,-100,4,2,1,80,0,1
73039,-100,4,2,1,80,0,1
74732,-100,4,2,1,80,0,1
74974,-100,4,2,1,80,0,1
78120,-100,4,2,1,80,0,1
78603,-100,4,2,1,80,0,1
79571,-100,4,2,1,80,0,1
80297,-50,4,2,1,80,0,1
80781,-100,4,2,1,80,0,1
82474,-100,4,2,1,80,0,1
82716,-100,4,2,1,80,0,1
86345,-100,4,2,1,80,0,1
86587,-100,4,2,1,80,0,1
86829,-66.6666666666667,4,2,1,80,0,1
88523,-100,4,2,1,80,0,0
89007,-100,4,2,1,5,0,0

[Colours]
Combo1 : 255,85,85
Combo2 : 255,128,64

[HitObjects]
53,358,700,6,0,L|46:300,1,40
2,254,942,2,0,B|93:258|60:317|174:301,1,155.999992858887,8|0,0:0|0:0,0:0:0:0:
170,146,1426,5,6,1:2:0:0:
154,152,1547,2,0,L|145:218,1,64,2|2,0:0|0:0,0:0:0:0:
215,365,1910,2,0,P|233:330|225:287,1,64,2|10,1:2|0:0,0:0:0:0:
318,250,2273,2,0,L|400:238,1,64,0|2,0:0|0:2,0:0:0:0:
447,271,2636,2,0,L|441:319,1,32,2|0,0:0|0:0,0:0:0:0:
213,147,2878,5,8,1:2:0:0:
336,34,3120,1,2,0:0:0:0:
328,23,3240,1,0,0:0:0:0:
321,12,3361,2,0,P|271:26|241:28,1,64,6|2,1:2|0:0,0:0:0:0:
381,175,3724,1,0,0:0:0:0:
389,172,3845,2,0,P|401:121|415:94,1,64,2|10,1:2|0:0,0:0:0:0:
213,147,4208,2,0,P|250:183|266:208,1,64,2|0,0:0|0:0,0:0:0:0:
306,112,4571,5,2,0:0:0:0:
489,310,4813,2,0,B|466:305|466:305|465:306|465:306|440:302,1,47.9999985351563,8|4,1:2|0:3,0:0:0:0:
316,378,5055,5,4,0:3:0:0:
325,376,5176,1,4,0:3:0:0:
334,374,5297,2,0,P|342:299|348:269,1,96,4|0,1:2|0:0,0:0:0:0:
345,278,5781,1,0,1:2:0:0:
148,218,6023,6,0,P|102:270|-17:227,1,180.000006866455,10|0,1:2|0:0,0:0:0:0:
1,253,6507,1,2,0:0:0:0:
220,67,6749,6,0,L|212:157,1,80,8|2,0:0|0:0,0:0:0:0:
269,196,7111,1,0,0:0:0:0:
274,207,7232,2,0,P|336:235|385:221,1,96,6|0,1:2|1:2,0:0:0:0:
361,231,7716,1,2,1:2:0:0:
215,365,7958,6,0,P|153:373|115:382,1,95.9999970703126,10|0,0:0|1:2,0:0:0:0:
148,218,8442,2,0,P|157:248|164:275,1,47.9999985351563,10|0,0:0|0:0,0:0:0:0:
362,134,8684,5,8,1:2:0:0:
340,107,8805,1,4,0:3:0:0:
306,112,8926,1,4,0:3:0:0:
423,210,9168,5,6,1:2:0:0:
437,224,9289,2,0,P|513:213|530:211,1,64,2|2,0:0|0:0,0:0:0:0:
373,305,9652,2,0,P|297:316|280:318,1,64,2|10,1:2|0:0,0:0:0:0:
451,384,10015,2,0,P|461:341|453:296,1,64,0|2,0:0|0:2,0:0:0:0:
431,255,10378,2,0,L|437:220,1,32,2|0,0:0|0:0,0:0:0:0:
220,67,10620,5,8,1:2:0:0:
108,147,10861,1,2,0:0:0:0:
93,153,10982,1,0,0:0:0:0:
79,160,11103,2,0,P|69:116|53:79,1,64,6|2,1:2|0:0,0:0:0:0:
173,241,11466,1,0,0:0:0:0:
181,237,11587,2,0,P|191:193|207:156,1,64,2|10,1:2|0:0,0:0:0:0:
79,247,11950,2,0,P|38:271|-3:269,1,64,2|0,0:0|0:0,0:0:0:0:
123,340,12313,2,0,L|176:348,1,32,10|0,0:0|0:0,0:0:0:0:
376,274,12555,5,8,1:2:0:0:
354,246,12676,1,4,0:3:0:0:
320,235,12797,1,4,0:3:0:0:
284,237,12918,1,4,0:3:0:0:
254,256,13039,2,0,P|264:315|268:377,1,96,4|0,1:2|0:0,0:0:0:0:
267,350,13523,1,0,1:2:0:0:
512,165,13765,6,0,P|451:187|358:112,1,180.000006866455,10|0,1:2|0:0,0:0:0:0:
362,126,14249,1,2,0:0:0:0:
246,0,14490,6,0,P|244:38|237:86,1,80,8|2,0:0|0:0,0:0:0:0:
174,119,14853,1,0,0:0:0:0:
166,128,14974,2,0,B|58:153|3:107|36:56|76:64|107:93|79:184,1,240,6|0,1:2|0:0,0:0:0:0:
31,200,15458,5,2,1:2:0:0:
246,0,15700,1,10,0:0:0:0:
349,271,15942,1,8,1:2:0:0:
159,150,16184,5,10,1:2:0:0:
162,139,16305,1,0,1:0:0:0:
166,128,16426,2,0,P|216:122|258:173,1,102.000001945496,8|0,1:1|0:0,0:0:0:0:
347,111,16910,6,0,P|354:62|369:20,1,80,6|2,1:2|0:3,0:0:0:0:
291,0,17394,1,10,1:2:0:0:
512,165,17636,5,2,0:3:0:0:
506,175,17757,1,0,0:0:0:0:
500,185,17878,2,0,L|419:181,1,80,0|2,1:0|0:3,0:0:0:0:
267,350,18361,2,0,B|341:332|341:332|403:361|340:401,1,120.000004577637,10|2,1:2|0:3,0:0:0:0:
271,261,18724,5,0,0:0:0:0:
260,254,18845,2,0,L|270:148,1,80,2|2,1:2|0:3,0:0:0:0:
79,38,19329,1,10,1:2:0:0:
132,226,19571,1,2,0:3:0:0:
144,217,19692,1,0,0:0:0:0:
155,210,19813,2,0,L|145:104,1,80,2|2,1:2|0:3,0:0:0:0:
206,67,20176,5,0,0:0:0:0:
210,82,20297,1,10,1:2:0:0:
66,175,20539,1,2,0:3:0:0:
260,254,20781,6,0,P|298:272|343:263,1,80,2|2,1:2|0:3,0:0:0:0:
464,102,21265,1,10,1:2:0:0:
427,222,21507,1,2,0:3:0:0:
417,229,21628,1,0,0:0:0:0:
407,236,21749,2,0,P|400:185|386:143,1,80,0|2,1:2|0:3,0:0:0:0:
498,329,22232,6,0,B|404:328|440:268|322:266,1,180.000006866455,10|0,1:2|0:0,0:0:0:0:
270,307,22716,1,2,1:2:0:0:
68,251,22958,6,0,L|123:240,1,40,2|0,0:3|0:0,0:0:0:0:
210,126,23200,1,10,1:2:0:0:
42,139,23442,6,0,L|101:148,1,40,2|0,0:3|0:0,0:0:0:0:
215,253,23684,1,2,1:2:0:0:
18,274,23926,6,0,L|82:265,1,40,2|0,0:3|0:0,0:0:0:0:
266,104,24168,2,0,L|202:113,1,40,10|0,1:2|0:0,0:0:0:0:
106,10,24410,5,2,0:3:0:0:
117,6,24531,1,0,0:0:0:0:
127,0,24652,2,0,L|120:104,1,80,6|2,1:2|0:3,0:0:0:0:
273,197,25136,1,10,1:2:0:0:
352,119,25378,2,0,P|417:109|452:100,1,80,2|0,0:3|1:0,0:0:0:0:
311,281,25861,5,2,0:3:0:0:
317,291,25982,1,0,0:0:0:0:
324,300,26103,2,0,P|389:310|447:326,1,120.000004577637,10|2,1:2|0:3,0:0:0:0:
507,265,26466,5,0,0:0:0:0:
505,254,26587,2,0,P|460:231|413:247,1,80,2|2,1:2|0:3,0:0:0:0:
342,377,27071,1,10,1:2:0:0:
202,167,27313,1,2,0:3:0:0:
213,169,27434,1,0,0:0:0:0:
224,173,27555,2,0,L|213:263,1,80,2|2,1:2|0:3,0:0:0:0:
150,293,27918,5,0,0:0:0:0:
155,304,28039,1,10,1:2:0:0:
62,159,28281,1,2,0:3:0:0:
0,253,28523,6,0,L|86:269,1,80,2|2,1:2|0:3,0:0:0:0:
272,112,29007,1,10,1:2:0:0:
187,21,29249,5,2,0:3:0:0:
175,25,29370,1,0,0:0:0:0:
164,30,29490,2,0,P|149:92|160:130,1,80,0|2,1:2|0:3,0:0:0:0:
289,270,29974,2,0,P|304:208|293:170,1,80,10|2,1:2|0:3,0:0:0:0:
231,221,30337,1,0,0:0:0:0:
231,221,30458,1,2,1:2:0:0:
379,323,30700,6,0,P|438:313|457:313,1,51.999997619629,10|0,0:3|0:0,0:0:0:0:
149,191,30942,2,0,P|90:201|71:201,1,51.999997619629,10|0,0:0|0:0,0:0:0:0:
302,15,31184,5,2,0:3:0:0:
296,45,31305,1,8,0:0:0:0:
290,75,31426,1,0,1:0:0:0:
386,57,31668,5,4,0:3:0:0:
209,24,31910,1,0,1:0:0:0:
415,187,32152,5,8,0:3:0:0:
430,183,32273,1,8,0:3:0:0:
448,178,32394,2,0,L|458:106,1,64,6|0,1:2|1:2,0:0:0:0:
399,53,32757,1,2,0:0:0:0:
386,57,32878,2,0,P|372:98|378:130,1,64,8|0,0:0|1:2,0:0:0:0:
301,193,33240,5,2,1:2:0:0:
272,213,33361,1,2,1:2:0:0:
236,216,33482,1,2,0:0:0:0:
203,202,33603,2,0,L|195:156,1,32,10|0,0:0|0:0,0:0:0:0:
78,267,33845,5,2,1:2:0:0:
112,274,33966,1,2,0:0:0:0:
146,280,34087,1,2,0:0:0:0:
260,369,34329,6,0,P|306:358|339:356,1,64,2|0,1:2|1:2,0:0:0:0:
389,314,34692,1,2,0:0:0:0:
380,302,34813,2,0,L|390:224,1,64,10|2,0:0|1:2,0:0:0:0:
271,70,35297,6,0,L|261:148,1,64,2|8,1:2|0:0,0:0:0:0:
197,170,35660,2,0,P|165:184|113:170,1,64,2|0,0:0|0:0,0:0:0:0:
245,235,36023,2,0,L|292:239,1,32,2|2,0:0|0:0,0:0:0:0:
380,302,36265,5,2,1:2:0:0:
403,328,36386,1,2,0:0:0:0:
436,338,36507,1,2,1:2:0:0:
471,334,36628,1,2,0:0:0:0:
500,315,36749,2,0,L|487:237,1,64,10|2,0:0|1:2,0:0:0:0:
428,213,37111,1,0,0:0:0:0:
418,201,37232,2,0,L|428:150,1,32,2|2,1:2|0:0,0:0:0:0:
512,135,37474,2,0,L|502:84,1,32,10|0,0:0|0:0,0:0:0:0:
433,31,37716,6,0,P|398:52|353:50,1,64,2|2,1:2|0:0,0:0:0:0:
312,96,38079,1,0,0:0:0:0:
292,108,38200,2,0,P|263:92|221:85,1,64,2|2,1:2|1:2,0:0:0:0:
173,39,38563,1,0,0:0:0:0:
173,39,38684,1,10,0:0:0:0:
131,150,38926,6,0,L|137:188,1,32,2|0,1:2|0:0,0:0:0:0:
30,294,39168,1,2,1:2:0:0:
27,171,39410,1,8,0:0:0:0:
22,192,39531,1,0,0:0:0:0:
16,213,39652,1,2,1:2:0:0:
134,324,39894,5,2,0:0:0:0:
134,324,40015,1,2,0:0:0:0:
134,324,40136,2,0,P|183:311|211:310,1,64,2|2,1:2|1:2,0:0:0:0:
265,277,40499,1,2,0:0:0:0:
275,302,40620,2,0,L|270:350,1,32,10|0,0:0|0:0,0:0:0:0:
361,383,40861,1,0,1:2:0:0:
428,304,41103,6,0,P|421:264|407:225,1,64,2|10,1:2|0:0,0:0:0:0:
457,179,41466,1,0,0:0:0:0:
475,173,41587,2,0,L|484:57,1,96,2|0,1:2|0:0,0:0:0:0:
408,41,42071,6,0,P|403:77|403:94,1,32,2|2,1:2|0:0,0:0:0:0:
309,143,42313,2,0,P|314:107|314:90,1,32,2|0,1:2|0:0,0:0:0:0:
250,65,42555,2,0,L|176:77,1,64,10|2,0:0|1:2,0:0:0:0:
125,34,42918,5,0,0:0:0:0:
106,45,43039,2,0,L|48:39,1,32,2|2,1:2|1:2,0:0:0:0:
0,138,43281,1,10,0:2:0:0:
28,133,43402,1,2,0:2:0:0:
56,129,43523,1,2,1:2:0:0:
138,202,43765,5,0,0:0:0:0:
138,202,43886,1,0,0:0:0:0:
138,202,44007,2,0,L|129:280,1,64,2|0,1:2|1:2,0:0:0:0:
70,307,44370,1,2,0:0:0:0:
57,318,44490,2,0,L|8:312,1,32,10|0,0:0|0:0,0:0:0:0:
210,250,44732,2,0,L|259:256,1,32,2|0,1:2|0:0,0:0:0:0:
56,129,44974,5,2,1:2:0:0:
186,75,45216,1,10,0:0:0:0:
197,82,45337,2,0,L|190:11,1,64,2|0,0:0|0:0,0:0:0:0:
119,15,45700,6,0,L|79:22,1,32,2|0,0:0|0:0,0:0:0:0:
279,85,45942,1,2,1:2:0:0:
138,202,46184,1,2,1:2:0:0:
241,253,46426,6,0,L|281:246,1,32,10|0,0:0|0:0,0:0:0:0:
329,304,46668,2,0,B|398:314|373:353|447:363,1,128,2|8,1:2|0:0,0:0:0:0:
499,317,47273,5,0,0:0:0:0:
491,307,47394,2,0,L|504:233,1,60,2|0,1:2|0:0,0:0:0:0:
436,197,47878,6,0,L|395:209,2,35.9999989013672,6|2|2,1:2|0:0|0:0,0:0:0:0:
510,129,48240,1,0,1:2:0:0:
502,114,48361,2,0,L|404:97,1,71.9999978027344,2|2,1:2|1:2,0:0:0:0:
354,24,48724,5,2,0:0:0:0:
336,52,48845,1,2,0:0:0:0:
305,64,48966,1,0,0:0:0:0:
273,58,49087,2,0,L|280:10,1,35.9999989013672,2|0,1:2|0:0,0:0:0:0:
108,145,49329,6,0,L|121:206,1,35.9999989013672,10|0,0:0|0:0,0:0:0:0:
67,239,49571,1,2,0:0:0:0:
56,236,49692,1,2,0:0:0:0:
45,233,49813,2,0,L|-16:239,1,35.9999989013672,2|2,1:2|0:0,0:0:0:0:
145,329,50055,2,0,L|206:335,1,35.9999989013672,2|2,0:0|1:2,0:0:0:0:
74,373,50297,5,2,1:2:0:0:
265,212,50539,2,0,L|276:265,1,35.9999989013672,2|2,1:2|0:0,0:0:0:0:
330,306,50781,5,2,0:0:0:0:
364,326,50902,1,2,0:0:0:0:
403,327,51023,1,2,1:2:0:0:
440,312,51144,1,2,0:0:0:0:
462,275,51265,2,0,L|517:284,2,35.9999989013672,10|2|2,0:0|0:0|0:0,0:0:0:0:
269,138,51749,6,0,P|185:148|166:151,1,71.9999978027344,2|2,1:2|0:0,0:0:0:0:
135,98,52111,1,0,1:2:0:0:
139,88,52232,2,0,P|177:67|224:76,1,71.9999978027344,2|2,0:2|1:2,0:0:0:0:
197,146,52595,5,2,0:0:0:0:
168,177,52716,1,2,0:0:0:0:
126,183,52837,1,2,0:0:0:0:
81,169,52958,2,0,L|42:163,1,35.9999989013672,2|0,1:2|0:0,0:0:0:0:
259,351,53200,6,0,B|360:349|308:291|423:292,1,155.999992858887,10|0,0:0|0:0,0:0:0:0:
464,336,53684,6,0,L|460:372,1,35.9999989013672,2|2,1:2|0:0,0:0:0:0:
338,223,53926,2,0,B|333:203|333:203|339:165,1,35.9999989013672,2|2,0:0|1:2,0:0:0:0:
397,103,54168,1,2,1:2:0:0:
404,112,54289,1,0,0:0:0:0:
413,122,54410,2,0,L|467:114,1,35.9999989013672,2|0,1:2|0:0,0:0:0:0:
299,56,54652,2,0,L|245:64,1,35.9999989013672,2|0,1:2|0:0,0:0:0:0:
360,6,54894,5,2,1:2:0:0:
134,255,55136,1,10,0:0:0:0:
134,255,55257,1,8,0:0:0:0:
134,255,55378,1,8,0:0:0:0:
180,336,55620,6,0,P|216:327|261:324,5,71.9999978027344,2|0|0|0|0|0,0:0|0:0|0:0|0:0|0:0|0:0,0:0:0:0:
74,373,56950,5,0,0:0:0:0:
68,364,57071,2,0,B|110:316|130:220|29:184|5:289|118:287,1,240,8|0,0:0|0:0,0:0:0:0:
192,217,57555,5,6,1:2:0:0:
182,204,57676,2,0,L|191:149,1,40,2|2,0:0|0:3,0:0:0:0:
61,110,57918,1,2,0:0:0:0:
71,97,58039,2,0,L|62:42,1,40,10|0,1:2|0:0,0:0:0:0:
208,18,58281,5,2,0:3:0:0:
191,30,58402,2,0,L|135:21,1,40,0|2,0:0|1:2,0:0:0:0:
6,186,58644,1,2,0:0:0:0:
22,198,58765,2,0,L|99:182,1,40,2|0,0:3|0:0,0:0:0:0:
252,326,59007,1,8,1:2:0:0:
384,158,59249,6,0,L|379:216,1,40,2|0,0:3|0:0,0:0:0:0:
501,334,59490,1,2,1:2:0:0:
485,194,59732,6,0,L|490:252,1,40,2|0,0:3|0:0,0:0:0:0:
383,363,59974,1,8,1:2:0:0:
372,140,60216,6,0,L|367:204,1,40,2|2,0:3|0:0,0:0:0:0:
466,384,60458,2,0,P|485:333|475:293,1,80,0|2,1:0|0:3,0:0:0:0:
406,259,60821,1,0,0:0:0:0:
392,271,60942,2,0,L|295:287,1,80,8|2,1:2|0:3,0:0:0:0:
202,185,61305,5,0,0:0:0:0:
188,164,61426,2,0,L|196:114,2,40,2|0|2,1:2|0:0|0:3,0:0:0:0:
113,200,61789,1,2,0:0:0:0:
103,208,61910,2,0,B|97:253|97:253|110:304,1,80,10|2,1:2|0:3,0:0:0:0:
223,369,62273,1,0,0:0:0:0:
233,361,62394,2,0,B|239:316|239:316|226:265,1,80,2|2,1:2|0:3,0:0:0:0:
286,227,62757,5,0,0:0:0:0:
301,246,62878,2,0,L|353:240,1,40,10|0,1:2|0:0,0:0:0:0:
492,123,63120,2,0,L|440:129,1,40,2|2,0:3|0:0,0:0:0:0:
255,38,63361,5,2,1:2:0:0:
276,9,63482,1,2,0:0:0:0:
311,0,63603,1,2,0:3:0:0:
346,3,63724,1,0,0:0:0:0:
372,26,63845,2,0,L|362:162,1,120,10|0,1:2|0:0,0:0:0:0:
428,213,64329,5,2,1:2:0:0:
449,222,64450,2,0,L|493:213,1,40,2|2,0:0|0:3,0:0:0:0:
370,333,64692,1,2,0:0:0:0:
349,342,64813,2,0,L|305:333,1,40,10|0,1:2|0:0,0:0:0:0:
445,380,65055,1,2,0:3:0:0:
215,195,65297,5,6,1:2:0:0:
202,185,65418,2,0,L|140:200,1,40,2|2,0:0|0:3,0:0:0:0:
308,96,65660,1,0,0:0:0:0:
321,86,65781,2,0,L|383:101,1,40,10|0,1:2|0:0,0:0:0:0:
210,16,66023,5,2,0:3:0:0:
196,28,66144,2,0,L|208:90,1,40,2|2,0:0|1:2,0:0:0:0:
314,180,66386,1,0,0:0:0:0:
328,192,66507,2,0,L|316:254,1,40,2|0,0:3|0:0,0:0:0:0:
246,300,66749,5,8,1:2:0:0:
359,95,66990,1,2,0:3:0:0:
105,45,67232,5,2,1:2:0:0:
95,52,67353,2,0,P|88:86|93:107,1,40,2|2,0:0|0:3,0:0:0:0:
202,185,67595,1,2,0:0:0:0:
200,172,67716,2,0,P|174:148|153:142,1,40,10|0,1:2|0:0,0:0:0:0:
1,221,67958,1,2,0:3:0:0:
13,225,68079,2,0,P|59:209|80:186,1,80,2|0,0:0|0:0,0:0:0:0:
12,104,68442,6,0,L|7:155,1,40,2|0,0:3|0:0,0:0:0:0:
170,308,68684,1,8,1:2:0:0:
163,107,68926,6,0,L|171:162,1,40,2|0,0:3|0:0,0:0:0:0:
37,318,69168,2,0,L|30:364,2,40,2|2|2,1:2|0:0|0:3,0:0:0:0:
103,272,69531,5,2,0:0:0:0:
117,257,69652,2,0,L|199:268,1,80,10|2,1:2|0:3,0:0:0:0:
260,317,70015,1,0,0:0:0:0:
277,301,70136,2,0,L|271:243,1,40,2|0,1:2|0:0,0:0:0:0:
452,127,70378,1,2,0:3:0:0:
455,146,70499,1,2,0:0:0:0:
457,165,70620,1,10,1:2:0:0:
390,230,70861,6,0,L|330:223,1,40,2|0,0:3|0:0,0:0:0:0:
163,107,71103,2,0,L|223:114,1,40,2|2,1:2|0:0,0:0:0:0:
324,69,71345,6,0,P|325:45|332:13,1,40,8|0,0:3|0:0,0:0:0:0:
117,257,71587,2,0,P|116:233|109:201,1,40,2|0,1:2|0:0,0:0:0:0:
260,317,71829,5,4,0:3:0:0:
274,330,71950,1,4,0:3:0:0:
293,335,72071,1,2,1:2:0:0:
316,336,72192,1,2,0:0:0:0:
334,327,72313,2,0,L|391:313,1,40,10|2,0:0|0:0,0:0:0:0:
215,194,72555,5,2,1:2:0:0:
164,205,72676,1,8,0:3:0:0:
113,217,72797,1,8,0:3:0:0:
62,230,72918,1,8,0:3:0:0:
12,244,73039,5,6,1:2:0:0:
7,233,73160,2,0,L|21:169,1,40,2|2,0:0|0:3,0:0:0:0:
95,318,73402,1,2,0:0:0:0:
100,329,73523,2,0,L|86:393,1,40,10|0,1:2|0:0,0:0:0:0:
211,244,73765,1,2,0:3:0:0:
206,233,73886,2,0,L|220:169,1,40,0|2,0:0|1:2,0:0:0:0:
290,334,74128,1,2,0:0:0:0:
295,345,74249,2,0,L|281:409,1,40,2|0,0:3|0:0,0:0:0:0:
397,289,74490,1,8,1:2:0:0:
134,119,74732,6,0,L|83:128,1,40,2|0,0:3|0:0,0:0:0:0:
289,36,74974,1,2,1:2:0:0:
129,7,75216,6,0,L|79:-2,1,40,2|0,0:3|0:0,0:0:0:0:
292,149,75458,1,8,1:2:0:0:
92,139,75700,6,0,L|41:148,1,40,2|0,0:3|0:0,0:0:0:0:
274,25,75942,2,0,L|353:12,1,80,2|2,1:2|0:3,0:0:0:0:
352,12,76305,1,0,0:0:0:0:
352,12,76426,1,8,1:2:0:0:
419,88,76668,1,2,0:3:0:0:
503,58,76910,5,2,1:2:0:0:
512,46,77031,2,0,L|504:1,1,40,0|2,0:0|0:3,0:0:0:0:
378,146,77273,1,2,0:0:0:0:
369,158,77394,2,0,L|377:203,2,40,10|0|2,1:2|0:0|0:3,0:0:0:0:
437,104,77757,5,0,0:0:0:0:
444,113,77878,2,0,B|483:123|483:123|532:113,1,80,2|2,1:2|0:3,0:0:0:0:
300,235,78240,1,0,0:0:0:0:
293,226,78361,2,0,B|254:216|254:216|215:223,1,80,10|2,1:2|0:3,0:0:0:0:
145,272,78724,5,2,0:0:0:0:
147,283,78845,1,2,1:2:0:0:
148,294,78966,1,2,0:0:0:0:
149,305,79087,2,0,L|198:317,1,40,2|0,0:3|0:0,0:0:0:0:
78,214,79329,2,0,L|-5:232,1,80,10|2,1:2|0:3,0:0:0:0:
198,41,79813,5,2,1:2:0:0:
206,49,79934,2,0,L|201:108,1,40,2|2,0:0|0:3,0:0:0:0:
282,129,80176,1,2,0:0:0:0:
290,138,80297,2,0,B|398:163|453:117|420:66|380:74|349:103|377:194,1,240,10|0,1:2|0:0,0:0:0:0:
431,217,80781,5,6,1:2:0:0:
451,200,80902,2,0,L|502:214,1,40,0|2,0:0|0:3,0:0:0:0:
351,296,81144,1,2,0:0:0:0:
331,279,81265,2,0,L|280:293,1,40,10|0,1:2|0:0,0:0:0:0:
397,361,81507,1,2,0:3:0:0:
410,355,81628,2,0,P|447:383|506:372,1,80,2|0,0:0|0:0,0:0:0:0:
481,274,81990,6,0,L|470:318,1,40,2|0,0:3|0:0,0:0:0:0:
309,153,82232,2,0,L|320:197,1,40,8|0,1:2|0:0,0:0:0:0:
471,41,82474,2,0,L|460:85,1,40,2|0,0:3|0:0,0:0:0:0:
333,28,82716,5,2,1:2:0:0:
319,14,82837,2,0,L|260:25,1,40,2|2,0:0|0:3,0:0:0:0:
224,103,83079,1,2,0:0:0:0:
210,117,83200,2,0,L|151:106,1,40,10|0,1:2|0:0,0:0:0:0:
118,38,83442,1,2,0:3:0:0:
104,24,83563,2,0,L|21:39,1,80,2|0,0:0|0:0,0:0:0:0:
0,114,83926,6,0,P|1:137|9:161,1,40,2|0,0:3|0:0,0:0:0:0:
128,261,84168,1,8,1:2:0:0:
170,109,84410,6,0,P|169:132|161:156,1,40,2|0,0:3|0:0,0:0:0:0:
11,267,84652,1,2,1:2:0:0:
4,255,84773,2,0,L|52:246,1,40,2|2,0:0|0:3,0:0:0:0:
201,362,85015,1,0,0:0:0:0:
208,350,85136,2,0,L|160:341,1,40,10|0,1:2|0:0,0:0:0:0:
294,270,85378,5,2,0:3:0:0:
299,281,85499,2,0,P|366:310|388:300,1,80,2|2,0:0|0:0,0:0:0:0:
409,228,85861,2,0,L|339:237,1,40,2|0,0:3|0:0,0:0:0:0:
210,117,86103,1,8,1:2:0:0:
333,28,86345,6,0,L|323:79,1,40,2|0,0:3|0:0,0:0:0:0:
226,192,86587,1,2,1:2:0:0:
214,196,86708,1,0,1:0:0:0:
197,202,86829,6,0,P|184:144|176:127,1,60.0000022888184,10|0,0:0|0:0,0:0:0:0:
432,365,87071,2,0,P|445:307|453:290,1,60.0000022888184,10|0,0:0|0:0,0:0:0:0:
299,281,87313,5,10,0:0:0:0:
299,281,87434,1,8,0:0:0:0:
299,281,87555,1,2,1:2:0:0:
162,357,87797,5,2,0:0:0:0:
440,208,88039,1,2,1:2:0:0:
202,51,88281,5,8,0:3:0:0:
198,63,88402,1,8,0:3:0:0:
196,75,88523,2,0,P|116:117|28:76,1,160,4|0,1:2|0:0,0:0:0:0:
