osu file format v14

[General]
AudioFilename: audio.mp3
AudioLeadIn: 0
PreviewTime: 57071
Countdown: 0
SampleSet: Soft
StackLeniency: 0.7
Mode: 0
LetterboxInBreaks: 0
WidescreenStoryboard: 1

[Editor]
Bookmarks: 16910,32394,47878,55136,57555,88523
DistanceSpacing: 0.9
BeatDivisor: 4
GridSize: 4
TimelineZoom: 1

[Metadata]
Title:*~Asterisk~ (TV Size)
TitleUnicode:*~アスタリスク~ (TV Size)
Artist:ORANGE RANGE
ArtistUnicode:ORANGE RANGE
Creator:-Mikan
Version:Advanced
Source:BLEACH
Tags:BAT Bleach Appreciation Team EvilElvis Jounzan Natteke desu bossandy nekroman4ik meiikyuu anime japanese opening op 1 jpop j-pop pop ブリーチ
BeatmapID:2636078
BeatmapSetID:1230681

[Difficulty]
HPDrainRate:4.5
CircleSize:3.8
OverallDifficulty:5
ApproachRate:6.5
SliderMultiplier:1.4
SliderTickRate:1

[Events]
//Background and Video events
Video,-805,"video.avi"
0,0,"5CwpkfG.jpeg",0,0
//Break Periods
//Storyboard Layer 0 (Background)
//Storyboard Layer 1 (Fail)
//Storyboard Layer 2 (Pass)
//Storyboard Layer 3 (Foreground)
//Storyboard Layer 4 (Overlay)
//Storyboard Sound Samples

[TimingPoints]
-509,483.870967741935,4,2,1,80,1,0
1426,-100,4,2,1,60,0,0
16910,-100,4,2,1,70,0,0
17152,-100,4,2,1,70,0,0
24652,-100,4,2,1,70,0,0
24773,-100,4,2,1,70,0,0
30458,-100,4,2,1,70,0,0
30700,-100,4,2,1,70,0,0
32394,-100,4,2,1,50,0,0
47394,-100,4,2,1,50,0,0
47878,-100,4,2,1,70,0,1
55620,-100,4,2,1,70,0,0
57071,-100,4,2,1,100,0,0
57555,-100,4,2,1,80,0,1
59249,-100,4,2,1,80,0,1
59490,-100,4,2,1,80,0,1
61184,-100,4,2,1,80,0,1
61426,-100,4,2,1,80,0,1
61668,-100,4,2,1,80,0,1
62394,-100,4,2,1,80,0,1
63603,-100,4,2,1,80,0,1
65297,-100,4,2,1,80,0,1
68926,-100,4,2,1,80,0,1
69168,-100,4,2,1,80,0,1
69410,-100,4,2,1,80,0,1
73039,-100,4,2,1,80,0,1
74732,-100,4,2,1,80,0,1
74974,-100,4,2,1,80,0,1
78120,-100,4,2,1,80,0,1
78603,-100,4,2,1,80,0,1
79571,-100,4,2,1,80,0,1
80781,-100,4,2,1,80,0,1
82474,-100,4,2,1,80,0,1
82716,-100,4,2,1,80,0,1
86345,-100,4,2,1,80,0,1
86587,-100,4,2,1,80,0,1
88523,-100,4,2,1,80,0,0
89007,-100,4,2,1,5,0,0

[Colours]
Combo1 : 255,85,85
Combo2 : 255,128,64

[HitObjects]
63,83,942,5,8,0:0:0:0:
212,44,1426,2,0,B|294:53|255:106|364:104,1,140,6|2,1:2|1:2,0:0:0:0:
390,49,2152,1,10,0:0:0:0:
451,95,2394,2,0,P|465:63|457:9,2,70,2|2|8,1:2|0:0|1:2,0:0:0:0:
492,160,3120,1,2,0:0:0:0:
437,214,3361,2,0,L|292:193,1,140,6|2,1:2|1:2,0:0:0:0:
236,240,4087,1,10,0:0:0:0:
174,193,4329,2,0,L|198:345,1,140,2|8,1:2|1:2,0:0:0:0:
45,364,5297,6,0,L|65:203,1,140,4|0,1:2|1:2,0:0:0:0:
50,148,6023,2,0,L|-45:169,2,70,10|0|2,1:2|1:2|0:0,0:0:0:0:
98,87,6749,2,0,L|169:101,1,70,8|2,0:0|0:0,0:0:0:0:
226,149,7232,2,0,B|299:137|274:94|360:79,1,140,6|2,1:2|1:2,0:0:0:0:
404,31,7958,2,0,L|386:193,1,140,10|10,0:0|0:0,0:0:0:0:
445,222,8684,2,0,L|485:212,2,35,8|4|4,1:2|0:3|0:3,0:0:0:0:
391,277,9168,6,0,B|305:288|349:342|245:349,1,140,6|2,1:2|1:2,0:0:0:0:
219,290,9894,1,10,0:0:0:0:
144,309,10136,2,0,L|134:384,2,70,2|2|8,1:2|0:0|1:2,0:0:0:0:
79,267,10861,1,2,0:0:0:0:
26,322,11103,2,0,L|3:161,1,140,6|2,1:2|1:2,0:0:0:0:
59,127,11829,1,10,0:0:0:0:
8,68,12071,2,0,L|-4:-11,2,70,2|10|8,1:2|0:0|1:2,0:0:0:0:
157,107,13039,6,0,P|231:89|286:143,1,140,4|0,1:2|1:2,0:0:0:0:
335,73,13765,2,0,L|308:236,1,140,10|2,1:2|0:0,0:0:0:0:
360,271,14490,2,0,L|449:254,1,70,8|2,0:0|0:0,0:0:0:0:
487,307,14974,1,6,1:2:0:0:
345,367,15458,1,2,1:2:0:0:
345,367,15700,1,10,0:0:0:0:
279,327,15942,1,8,1:2:0:0:
279,327,16184,1,10,1:2:0:0:
210,362,16426,2,0,B|151:358|180:321|90:324,1,105,8|0,1:1|0:0,0:0:0:0:
96,333,16910,6,0,L|111:245,1,70,6|2,1:2|0:3,0:0:0:0:
45,217,17394,1,10,1:2:0:0:
77,147,17636,2,0,P|65:106|131:32,1,140,2|2,0:3|0:3,0:0:0:0:
180,81,18361,2,0,L|253:68,1,70,10|2,1:2|0:3,0:0:0:0:
304,15,18845,2,0,B|385:22|349:76|432:73,1,140,2|10,1:2|1:2,0:0:0:0:
493,36,19571,1,2,0:3:0:0:
510,111,19813,2,0,L|501:200,1,70,2|2,1:2|0:3,0:0:0:0:
428,203,20297,1,10,1:2:0:0:
428,203,20539,1,2,0:3:0:0:
368,153,20781,6,0,L|273:165,1,70,2|2,1:2|0:3,0:0:0:0:
243,216,21265,1,10,1:2:0:0:
177,175,21507,2,0,L|212:339,1,140,2|2,0:3|0:3,0:0:0:0:
274,348,22232,2,0,P|330:373|358:369,1,70,10|2,1:2|0:3,0:0:0:0:
399,326,22716,1,2,1:2:0:0:
471,352,22958,2,0,L|482:272,1,70,2|10,0:3|1:2,0:0:0:0:
422,231,23442,1,2,0:3:0:0:
422,231,23684,1,2,1:2:0:0:
477,178,23926,2,0,L|466:98,1,70,2|10,0:3|1:2,0:0:0:0:
504,40,24410,1,2,0:3:0:0:
428,23,24652,6,0,B|355:26|370:78|291:77,1,140,6|10,1:2|1:2,0:0:0:0:
243,26,25378,1,2,0:3:0:0:
173,59,25620,2,0,L|95:47,1,70,0|2,1:0|0:3,0:0:0:0:
36,85,26103,2,0,P|20:126|30:166,1,70,10|2,1:2|0:3,0:0:0:0:
94,181,26587,1,2,1:2:0:0:
35,231,26829,2,0,L|26:306,1,70,2|10,0:3|1:2,0:0:0:0:
81,354,27313,1,2,0:3:0:0:
81,354,27555,1,2,1:2:0:0:
152,324,27797,2,0,L|142:235,2,70,2|10|2,0:3|1:2|0:3,0:0:0:0:
221,357,28523,6,0,P|261:322|352:357,1,140,2|10,1:2|1:2,0:0:0:0:
407,302,29249,1,2,0:3:0:0:
477,332,29490,2,0,P|492:293|492:259,1,70,0|2,1:2|0:3,0:0:0:0:
436,211,29974,2,0,P|421:172|421:138,1,70,10|2,1:2|0:3,0:0:0:0:
464,80,30458,1,2,1:2:0:0:
402,33,30700,5,10,0:3:0:0:
402,33,30942,2,0,L|312:46,1,70,10|2,0:0|0:3,0:0:0:0:
273,92,31426,1,0,1:0:0:0:
209,48,31668,2,0,L|216:6,2,35,4|4|0,0:3|0:3|1:0,0:0:0:0:
140,84,32152,2,0,L|148:124,1,35,8|8,0:3|0:3,0:0:0:0:
120,146,32394,6,0,L|94:292,1,140,6|8,1:2|0:0,0:0:0:0:
136,349,33120,2,0,B|217:346|193:301|272:300,1,140,0|10,1:2|0:0,0:0:0:0:
321,351,33845,1,2,1:2:0:0:
458,280,34329,2,0,B|471:245|471:245|456:202,1,70,2|0,1:2|1:2,0:0:0:0:
445,138,34813,2,0,L|290:163,1,140,10|2,0:0|1:2,0:0:0:0:
250,106,35539,1,8,0:0:0:0:
298,45,35781,1,0,1:2:0:0:
148,7,36265,6,0,P|55:26|36:65,1,140,2|10,1:2|0:0,0:0:0:0:
77,124,36990,2,0,L|65:201,1,70,2|2,1:2|1:2,0:0:0:0:
114,253,37474,2,0,B|198:251|176:300|250:301,1,140,10|2,0:0|0:0,0:0:0:0:
291,241,38200,2,0,L|267:147,2,70,2|2|10,1:2|1:2|0:0,0:0:0:0:
445,231,39168,2,0,L|430:322,1,70,2|8,1:2|0:0,0:0:0:0:
369,342,39652,1,2,1:2:0:0:
218,309,40136,6,0,B|145:312|168:365|75:366,1,140,2|10,1:2|0:0,0:0:0:0:
29,322,40861,1,0,1:2:0:0:
74,259,41103,2,0,L|83:178,2,70,2|10|2,1:2|0:0|1:2,0:0:0:0:
218,309,42071,2,0,L|370:340,1,140,2|10,1:2|0:0,0:0:0:0:
424,371,42797,1,2,1:2:0:0:
470,309,43039,2,0,L|447:222,1,70,2|10,1:2|0:2,0:0:0:0:
510,190,43523,2,0,P|528:138|515:108,1,70,2|0,1:2|0:0,0:0:0:0:
471,69,44007,6,0,L|314:101,1,140,2|10,1:2|0:0,0:0:0:0:
276,45,44732,1,2,1:2:0:0:
202,67,44974,2,0,P|133:45|113:47,1,70,2|10,1:2|0:0,0:0:0:0:
69,6,45458,2,0,L|90:151,1,140,0|2,1:2|1:2,0:0:0:0:
32,197,46184,1,2,1:2:0:0:
86,251,46426,1,10,0:0:0:0:
55,321,46668,2,0,P|108:282|182:308,1,140,2|8,1:2|0:0,0:0:0:0:
235,348,47394,2,0,P|277:372|335:355,1,105,2|0,1:2|0:0,0:0:0:0:
349,325,47878,5,6,1:2:0:0:
261,198,48361,1,2,1:2:0:0:
317,145,48603,2,0,L|461:173,1,140,2|2,1:2|1:2,0:0:0:0:
509,116,49329,1,10,0:0:0:0:
387,20,49813,2,0,L|229:47,1,140,2|2,1:2|1:2,0:0:0:0:
175,18,50539,2,0,B|142:48|142:48|176:146,1,140,2|2,1:2|1:2,0:0:0:0:
107,179,51265,1,10,0:0:0:0:
190,308,51749,6,0,P|120:272|51:301,1,140,2|2,1:2|0:2,0:0:0:0:
28,356,52474,2,0,L|2:216,1,140,2|2,1:2|1:2,0:0:0:0:
30,146,53200,1,10,0:0:0:0:
162,67,53684,2,0,B|247:78|200:126|290:136,1,140,2|2,1:2|0:2,0:0:0:0:
330,77,54410,1,2,1:2:0:0:
393,120,54652,2,0,P|408:152|392:194,1,70,2|2,1:2|1:2,0:0:0:0:
338,231,55136,2,0,L|347:272,2,35,10|8|8,0:0|0:0|0:0,0:0:0:0:
256,192,55620,12,8,57071,0:0:0:0:
80,384,57555,6,0,L|91:299,1,70,6|2,1:2|0:3,0:0:0:0:
25,269,58039,2,0,P|1:229|3:187,1,70,10|2,1:2|0:3,0:0:0:0:
61,160,58523,2,0,P|81:118|78:80,1,70,2|2,1:2|0:3,0:0:0:0:
19,48,59007,1,8,1:2:0:0:
79,0,59249,1,2,0:3:0:0:
149,30,59490,6,0,L|248:52,1,70,2|2,1:2|0:3,0:0:0:0:
258,110,59974,1,8,1:2:0:0:
322,68,60216,1,2,0:3:0:0:
369,128,60458,2,0,L|530:109,1,140,0|8,1:0|1:2,0:0:0:0:
476,241,61426,6,0,L|396:231,1,70,2|2,1:2|0:3,0:0:0:0:
332,253,61910,2,0,P|314:292|325:340,1,70,10|2,1:2|0:3,0:0:0:0:
247,355,62394,1,2,1:2:0:0:
184,309,62636,1,2,0:3:0:0:
112,338,62878,2,0,L|21:347,1,70,10|2,1:2|0:3,0:0:0:0:
0,280,63361,2,0,L|26:143,1,140,2|10,1:2|1:2,0:0:0:0:
92,103,64087,1,2,0:3:0:0:
147,156,64329,2,0,B|221:152|209:114|276:104,1,140,2|10,1:2|1:2,0:0:0:0:
421,56,65297,6,0,P|438:107|427:143,1,70,6|2,1:2|0:3,0:0:0:0:
380,176,65781,2,0,L|398:260,1,70,10|2,1:2|0:3,0:0:0:0:
349,306,66265,2,0,L|334:385,2,70,2|2|8,1:2|0:3|1:2,0:0:0:0:
287,259,66990,1,2,0:3:0:0:
218,294,67232,2,0,P|140:306|128:311,1,70,2|2,1:2|0:3,0:0:0:0:
78,334,67716,2,0,P|53:291|68:253,1,70,10|2,1:2|0:3,0:0:0:0:
103,212,68200,2,0,P|89:137|67:70,1,140,0|8,1:0|1:2,0:0:0:0:
214,23,69168,6,0,P|261:1|296:4,1,70,2|2,1:2|0:3,0:0:0:0:
344,40,69652,2,0,L|325:125,1,70,10|2,1:2|0:3,0:0:0:0:
264,151,70136,1,2,1:2:0:0:
317,205,70378,1,2,0:3:0:0:
258,255,70620,2,0,L|276:327,2,70,10|2|2,1:2|0:3|1:2,0:0:0:0:
317,205,71345,5,8,0:3:0:0:
380,248,71587,1,2,1:2:0:0:
448,212,71829,2,0,L|457:123,1,70,4|2,0:3|1:2,0:0:0:0:
498,78,72313,1,10,0:0:0:0:
430,41,72555,2,0,L|414:-8,2,35,2|8|8,1:2|0:3|0:3,0:0:0:0:
363,79,73039,6,0,L|282:67,1,70,6|2,1:2|0:3,0:0:0:0:
231,23,73523,2,0,L|145:40,1,70,10|2,1:2|0:3,0:0:0:0:
88,11,74007,2,0,P|65:57|71:88,1,70,2|2,1:2|0:3,0:0:0:0:
119,129,74490,1,8,1:2:0:0:
69,188,74732,1,2,0:3:0:0:
119,246,74974,2,0,B|207:261,1,70,2|2,1:2|0:3,0:0:0:0:
231,321,75458,2,0,L|309:309,1,70,8|2,1:2|0:3,0:0:0:0:
362,356,75942,2,0,B|413:321|413:321|387:224,1,140,2|8,1:2|1:2,0:0:0:0:
477,116,76910,6,0,L|490:26,2,70,2|2|10,1:2|0:3|1:2,0:0:0:0:
403,141,77636,1,2,0:3:0:0:
341,94,77878,2,0,L|250:108,1,70,2|2,1:2|0:3,0:0:0:0:
210,151,78361,2,0,B|138:137|161:86|79:75,1,140,10|2,1:2|1:2,0:0:0:0:
26,115,79087,1,2,0:3:0:0:
60,183,79329,2,0,L|37:323,1,140,10|2,1:2|1:2,0:0:0:0:
96,370,80055,1,2,0:3:0:0:
170,350,80297,2,0,L|157:276,1,70,10|2,1:2|0:3,0:0:0:0:
212,225,80781,6,0,L|306:249,1,70,6|2,1:2|0:3,0:0:0:0:
325,304,81265,2,0,L|423:288,1,70,10|2,1:2|0:3,0:0:0:0:
446,235,81749,1,2,1:2:0:0:
394,178,81990,1,2,0:3:0:0:
449,125,82232,2,0,L|459:37,1,70,8|2,1:2|0:3,0:0:0:0:
388,18,82716,2,0,P|356:10|300:40,1,70,2|2,1:2|0:3,0:0:0:0:
272,80,83200,1,10,1:2:0:0:
203,44,83442,1,2,0:3:0:0:
138,85,83684,2,0,B|60:86|95:144|6:142,1,140,2|8,1:2|1:2,0:0:0:0:
25,296,84652,6,0,P|68:304|97:323,1,70,2|2,1:2|0:3,0:0:0:0:
156,277,85136,2,0,L|139:182,1,70,10|2,1:2|0:3,0:0:0:0:
199,154,85620,1,2,1:2:0:0:
257,204,85861,1,2,0:3:0:0:
324,166,86103,1,8,1:2:0:0:
458,241,86587,6,0,L|447:334,1,70,2|10,1:2|0:0,0:0:0:0:
383,350,87071,1,10,0:0:0:0:
326,297,87313,1,10,0:0:0:0:
264,343,87555,2,0,L|180:363,1,70,2|2,1:2|0:0,0:0:0:0:
133,313,88039,1,2,1:2:0:0:
60,337,88281,2,0,L|51:376,2,35,8|8|4,0:3|0:3|1:2,0:0:0:0:
