osu file format v14

[General]
AudioFilename: audio.mp3
AudioLeadIn: 0
PreviewTime: 56940
Countdown: 0
SampleSet: Soft
StackLeniency: 0.4
Mode: 0
LetterboxInBreaks: 0
WidescreenStoryboard: 1

[Editor]
Bookmarks: 29161,29955,86161,86337,86690
DistanceSpacing: 1.5
BeatDivisor: 4
GridSize: 4
TimelineZoom: 1.8

[Metadata]
Title:O2 (TV Size)
TitleUnicode:O2 (TV Size)
Artist:ORANGE RANGE
ArtistUnicode:ORANGE RANGE
Creator:Emiru Ikuno 11
Version:Hard
Source:Code Geass: Lelouch of the Rebellion R2
Tags:コードギアス 反逆のルルーシュ 続編 オー・ツー オレンジレンジ Fenette シャーリー フェネット Shirley Anime Japanese jp op opening short ver version 1 2008 rock jrock j-rock Apis035
BeatmapID:2285816
BeatmapSetID:1023775

[Difficulty]
HPDrainRate:4
CircleSize:3.5
OverallDifficulty:5
ApproachRate:7
SliderMultiplier:1.4
SliderTickRate:1

[Events]
//Background and Video events
0,0,"bg0.jpg",0,0
Video,-978,"o2.mp4"
//Break Periods
//Storyboard Layer 0 (Background)
//Storyboard Layer 1 (Fail)
//Storyboard Layer 2 (Pass)
//Storyboard Layer 3 (Foreground)
//Storyboard Layer 4 (Overlay)
//Storyboard Sound Samples

[TimingPoints]
463,353.877912120318,4,2,1,60,1,0
3294,-133.333333333333,4,2,1,60,0,0
6125,-111.111111111111,4,2,1,60,0,0
6822,378.931413414172,4,2,1,60,1,0
6822,-111.111111111111,4,2,1,60,0,0
7390,279.082748034792,4,2,1,60,1,0
7529,352.941176470588,4,2,1,60,1,0
11764,352.941176470588,4,2,1,60,1,0
57999,327.97638570023,4,2,1,60,1,0
58326,379.003221527383,4,2,1,60,1,1
58705,352.941176470588,4,2,1,60,1,1
58881,-100,4,2,1,60,0,1
63999,352.941176470588,4,2,1,60,1,1
83057,-100,4,2,1,60,0,1
86587,-100,4,2,1,60,0,0

[Colours]
Combo1 : 75,73,114
Combo2 : 145,126,108
Combo3 : 228,134,48

[HitObjects]
57,85,463,5,6,3:2:0:0:
57,85,1878,5,6,3:2:0:0:
59,83,3294,6,0,B|99:68|145:106|111:119|160:155|202:135,1,157.5,6|2,3:2|1:2,2:0:0:0:
329,53,4178,1,0,3:0:0:0:
329,53,4355,1,0,3:0:0:0:
430,180,4709,1,2,3:2:0:0:
430,180,4886,2,0,B|408:217|408:217|419:284,1,105,2|2,2:0|3:2,2:0:0:0:
290,371,5594,2,0,L|225:365,1,52.5000000000001,4|4,3:0|3:0,2:0:0:0:
181,310,5948,1,0,2:0:0:0:
101,361,6125,6,0,L|35:370,1,63.0000000000001,6|0,2:0|2:0,2:0:0:0:
0,283,6478,2,0,P|-4:251|10:214,1,63.0000000000001,2|2,2:0|2:0,2:0:0:0:
90,182,6822,2,0,L|69:51,1,125.999996154785,2|0,2:0|2:0,2:0:0:0:
150,5,7390,1,0,2:0:0:0:
198,85,7529,6,0,L|287:100,1,70,6|2,2:0|2:0,2:0:0:0:
314,174,7881,1,2,2:0:0:0:
235,226,8058,2,0,B|190:247|190:247|224:338,1,140,2|8,2:0|3:0,2:0:0:0:
299,364,8587,1,8,3:0:0:0:
479,306,8940,6,0,L|466:230,1,70,6|2,2:0|2:0,2:0:0:0:
376,221,9293,1,2,2:0:0:0:
441,152,9470,2,0,L|461:26,2,140,2|2|2,2:0|2:0|2:0,2:0:0:0:
349,127,10352,6,0,P|315:110|283:111,1,70,6|0,1:2|2:0,2:0:0:0:
233,185,10705,2,0,P|201:205|168:205,1,70,2|0,1:2|2:0,2:0:0:0:
95,255,11058,2,0,L|99:294,6,35,0|0|0|0|0|0|0,1:0|1:0|1:0|1:0|3:0|3:0|3:0,2:0:0:0:
47,173,11764,6,0,L|67:38,1,140,6|2,3:2|3:2,2:0:0:0:
146,98,12293,2,0,P|217:104|265:57,1,140,0|0,1:0|2:0,2:0:0:0:
346,41,12822,1,2,1:2:0:0:
346,41,13175,6,0,B|329:179,1,140,2|2,3:2|3:2,2:0:0:0:
382,245,13705,2,0,B|408:270|437:281|437:281|401:302|384:341,1,140,0|0,1:0|2:0,2:0:0:0:
321,382,14234,1,2,1:2:0:0:
247,340,14411,1,0,1:0:0:0:
247,340,14499,1,0,1:0:0:0:
247,340,14587,2,0,B|235:322|195:311|195:311|221:293|240:262,1,140,2|2,3:2|3:2,2:0:0:0:
305,194,15116,2,0,P|312:117|264:65,1,140,0|0,1:0|2:0,2:0:0:0:
212,19,15646,1,2,1:2:0:0:
144,85,15822,5,0,3:0:0:0:
144,85,15999,2,0,L|131:153,1,70,2|0,3:2|1:0,2:0:0:0:
201,226,16352,1,2,3:2:0:0:
201,226,16528,2,0,L|214:294,1,70,0|2,3:0|1:2,2:0:0:0:
293,355,16881,1,0,3:0:0:0:
293,355,17058,2,0,P|321:340|361:342,1,70,2|4,3:2|1:2,2:0:0:0:
436,297,17411,6,0,L|448:228,1,70,2|0,3:2|2:0,2:0:0:0:
419,144,17764,2,0,P|386:124|341:129,1,70,2|0,3:2|1:0,2:0:0:0:
272,152,18116,2,0,L|256:282,1,140,2|2,3:2|1:2,2:0:0:0:
186,340,18646,1,0,2:0:0:0:
128,264,18822,6,0,P|92:268|54:254,1,70,2|0,3:2|2:0,2:0:0:0:
5,188,19175,1,2,3:2:0:0:
56,108,19352,2,0,B|87:93|98:60|98:60|119:91|161:100,1,140,0|0,1:0|2:0,2:0:0:0:
196,175,19881,1,2,1:2:0:0:
340,53,20234,6,0,L|415:63,1,70,6|0,1:2|3:0,2:0:0:0:
472,125,20587,1,2,3:2:0:0:
472,125,20764,2,0,P|481:161|469:201,1,70,4|0,1:2|2:0,2:0:0:0:
390,225,21116,2,0,L|380:296,2,70,0|6|0,3:2|1:2|2:0,2:0:0:0:
334,148,21646,5,2,1:2:0:0:
266,213,21822,1,0,1:0:0:0:
213,133,21999,1,0,1:0:0:0:
146,199,22175,1,2,1:2:0:0:
61,29,22528,1,2,2:0:0:0:
0,112,22705,1,2,1:2:0:0:
78,295,23058,5,6,3:2:0:0:
78,295,23234,1,0,3:0:0:0:
155,349,23411,2,0,B|205:338|205:338|232:317|232:317|284:305,2,140,2|2|2,1:2|3:2|1:2,2:0:0:0:
241,181,24469,5,2,3:2:0:0:
241,181,24646,1,0,3:0:0:0:
324,224,24822,2,0,L|406:202,1,70,2|0,1:2|2:0,2:0:0:0:
419,119,25175,1,2,3:2:0:0:
419,119,25352,1,0,2:0:0:0:
337,71,25528,2,0,L|276:87,1,70,2|0,1:2|2:0,2:0:0:0:
188,52,25881,5,6,3:2:0:0:
188,52,26058,1,0,3:0:0:0:
130,126,26234,2,0,L|120:198,1,70,2|0,1:2|2:0,2:0:0:0:
55,256,26587,2,0,L|21:261,2,35,2|0|0,3:2|3:0|3:0,2:0:0:0:
131,312,26940,2,0,P|160:297|203:302,1,70,2|0,1:2|2:0,2:0:0:0:
264,356,27293,5,0,1:0:0:0:
304,270,27469,1,0,1:0:0:0:
384,320,27646,1,0,1:0:0:0:
429,237,27822,1,0,1:0:0:0:
429,237,27999,2,0,P|425:158|374:117,1,140,4|4,3:2|1:2,2:0:0:0:
238,19,28705,6,0,L|216:166,1,140,0|2,3:0|1:2,2:0:0:0:
145,203,29234,1,0,3:0:0:0:
191,285,29411,2,0,P|220:302|263:300,1,70,2|0,2:0|1:0,2:0:0:0:
306,228,29764,2,0,P|341:212|378:217,1,70,2|0,3:2|2:0,2:0:0:0:
442,267,30116,6,0,B|413:234|413:234|441:137,1,140,2|2,3:2|1:2,2:0:0:0:
500,85,30646,1,0,3:0:0:0:
427,24,30822,2,0,L|362:33,1,70,2|0,2:0|3:0,2:0:0:0:
300,102,31175,2,0,L|222:91,1,70,2|0,1:2|1:0,2:0:0:0:
159,147,31528,6,0,P|146:214|184:285,1,140,2|2,3:2|1:2,2:0:0:0:
249,313,32058,1,0,3:0:0:0:
170,364,32234,2,0,L|99:375,1,70,2|0,2:0|1:0,2:0:0:0:
31,316,32587,2,0,L|43:244,1,70,2|0,3:2|2:0,2:0:0:0:
107,185,32940,6,0,L|95:50,1,140,2|2,3:2|1:2,2:0:0:0:
178,13,33469,2,0,P|214:13|248:35,1,70,0|2,3:0|2:0,2:0:0:0:
294,100,33822,1,0,1:0:0:0:
229,169,33999,2,0,L|221:234,1,70,4|8,3:0|3:0,2:0:0:0:
279,306,34352,6,0,B|304:302|337:331|337:331|351:300|393:287,1,140,2|2,3:2|1:2,2:0:0:0:
443,221,34881,1,0,3:0:0:0:
374,155,35058,2,0,L|379:79,1,70,2|0,2:0|1:0,2:0:0:0:
324,14,35411,2,0,P|281:1|249:10,1,70,2|0,3:2|2:0,2:0:0:0:
195,69,35764,6,0,B|151:66|151:66|112:90|112:90|60:86,1,140,2|2,3:2|1:2,2:0:0:0:
0,144,36293,1,0,3:0:0:0:
61,215,36469,2,0,L|123:207,1,70,2|0,2:0|3:0,2:0:0:0:
192,271,36822,2,0,L|254:278,1,70,2|0,1:2|1:0,2:0:0:0:
317,207,37175,6,0,B|300:186|300:186|310:106,2,105,2|0|0,3:2|2:0|3:0,2:0:0:0:
381,276,37881,2,0,B|398:297|398:297|388:377,2,105,2|0|0,2:0|2:0|2:0,2:0:0:0:
429,194,38587,6,0,B|448:165|448:165|415:64,1,140,2|2,3:2|1:2,2:0:0:0:
333,37,39116,1,0,3:0:0:0:
274,110,39293,2,0,P|245:130|201:127,1,70,0|0,2:0|1:0,2:0:0:0:
150,65,39646,1,4,3:0:0:0:
150,65,39822,1,8,3:0:0:0:
82,131,39999,6,0,L|100:280,1,140,8|6,1:3|1:2,2:0:0:0:
149,334,40528,1,0,3:0:0:0:
149,334,40705,1,0,2:0:0:0:
207,259,40881,2,0,L|215:179,1,70,0|2,1:0|3:2,2:0:0:0:
166,113,41234,1,0,2:0:0:0:
255,81,41411,6,0,P|295:42|372:42,1,140,2|2,3:2|1:2,2:0:0:0:
455,53,41940,1,0,3:0:0:0:
409,136,42116,2,0,B|407:198,1,70,2|0,2:0|3:0,2:0:0:0:
462,281,42469,1,2,1:2:0:0:
462,281,42646,1,0,1:0:0:0:
380,328,42822,6,0,B|323:299|323:299|245:319,1,140,2|2,3:2|1:2,2:0:0:0:
185,369,43352,2,0,L|108:352,1,70,0|0,3:0|2:0,2:0:0:0:
63,282,43705,1,0,1:0:0:0:
119,206,43881,2,0,L|126:144,1,70,2|0,3:2|2:0,2:0:0:0:
180,65,44234,6,0,B|236:31|236:31|308:49,1,140,2|2,3:2|1:2,2:0:0:0:
322,137,44764,2,0,L|313:209,1,70,0|0,3:0|2:0,2:0:0:0:
251,270,45116,1,0,1:0:0:0:
298,351,45293,1,4,3:0:0:0:
365,284,45469,1,8,3:0:0:0:
436,346,45646,6,0,B|446:308|474:295|474:295|444:273|439:231,1,140,2|2,3:2|1:2,2:0:0:0:
477,160,46175,2,0,L|406:138,1,70,0|2,3:0|2:0,2:0:0:0:
354,70,46528,1,0,1:0:0:0:
354,70,46705,2,0,L|284:75,1,70,0|0,2:0|2:0,2:0:0:0:
233,149,47058,6,0,P|211:207|228:266,1,140,2|2,3:2|1:2,2:0:0:0:
163,335,47587,2,0,L|100:326,1,70,0|2,3:0|2:0,2:0:0:0:
26,267,47940,1,0,3:0:0:0:
93,200,48116,1,2,1:2:0:0:
24,135,48293,1,0,1:0:0:0:
89,67,48469,6,0,B|123:48|123:48|225:76,1,140,2|2,3:2|1:2,2:0:0:0:
254,153,48999,2,0,L|323:141,1,70,0|2,3:0|2:0,2:0:0:0:
406,171,49352,1,0,1:0:0:0:
342,240,49528,2,0,L|352:310,1,70,2|0,3:2|2:0,2:0:0:0:
405,380,49881,6,0,P|350:353|275:388,1,140,0|2,3:0|1:2,2:0:0:0:
197,352,50411,1,0,3:0:0:0:
268,290,50587,1,2,3:2:0:0:
183,246,50764,1,4,1:3:0:0:
257,188,50940,1,8,3:0:0:0:
194,131,51116,1,8,3:0:0:0:
194,131,51205,1,8,3:0:0:0:
194,131,51293,6,0,B|152:118|152:118|51:153,1,140,6|2,3:2|1:2,2:0:0:0:
34,230,51822,2,0,P|82:275|79:359,1,140,4|0,3:2|3:0,2:0:0:0:
177,367,52352,2,0,B|223:350|223:350|245:316|245:316|291:302,1,140,6|0,1:2|3:0,2:0:0:0:
359,357,52881,6,0,L|426:366,1,70,2|0,2:0|1:0,2:0:0:0:
488,298,53234,2,0,L|470:160,1,140,2|2,2:0|3:2,2:0:0:0:
398,111,53764,1,0,1:0:0:0:
398,111,53940,1,2,3:2:0:0:
328,174,54116,6,0,P|273:140|197:165,1,140,6|2,3:2|1:2,2:0:0:0:
172,235,54646,2,0,L|162:365,1,140,4|0,3:2|3:0,2:0:0:0:
67,367,55175,2,0,L|50:229,1,140,6|0,1:2|2:0,2:0:0:0:
0,161,55705,5,2,3:2:0:0:
81,114,55881,1,0,1:0:0:0:
232,227,56234,1,0,3:0:0:0:
309,172,56411,1,0,1:0:0:0:
382,230,56587,1,0,1:0:0:0:
455,170,56764,1,0,1:0:0:0:
256,192,56940,12,8,57999,3:0:0:0:
225,27,58326,6,0,L|235:103,1,70,6|0,3:2|2:0,2:0:0:0:
170,179,58705,1,2,1:2:0:0:
251,244,58881,2,0,P|325:258|394:223,1,140,0|0,3:0|3:0,2:0:0:0:
427,137,59410,2,0,L|415:53,1,70,2|0,1:2|2:0,2:0:0:0:
331,5,59763,6,0,P|293:4|255:27,1,70,2|0,3:2|2:0,2:0:0:0:
189,92,60116,1,2,1:2:0:0:
114,18,60293,2,0,B|156:40|156:40|123:153,1,140,0|0,3:0|3:0,2:0:0:0:
59,208,60822,2,0,L|70:286,1,70,2|0,1:2|2:0,2:0:0:0:
146,348,61175,6,0,L|219:333,1,70,2|0,3:2|2:0,2:0:0:0:
254,236,61528,1,2,1:2:0:0:
321,316,61705,2,0,P|380:355|447:332,1,140,0|0,3:0|3:0,2:0:0:0:
493,244,62234,2,0,L|500:155,1,70,2|0,1:2|2:0,2:0:0:0:
446,82,62587,5,2,3:2:0:0:
364,148,62763,2,0,B|302:111|302:111|209:135,1,140,0|0,2:0|3:0,2:0:0:0:
182,218,63293,2,0,B|116:234|116:234|54:197,1,140,2|2,2:0|1:2,2:0:0:0:
2,106,63822,1,0,2:0:0:0:
80,35,63999,6,0,B|145:18|145:18|207:55,1,140,6|2,3:2|1:2,2:0:0:0:
303,11,64528,1,0,3:0:0:0:
350,105,64704,2,0,L|323:252,1,140,2|2,2:0|1:2,2:0:0:0:
373,336,65234,1,0,2:0:0:0:
273,370,65410,6,0,P|228:371|192:340,1,70,2|0,3:2|2:0,2:0:0:0:
127,289,65763,1,2,1:2:0:0:
200,214,65940,2,0,L|207:139,1,70,0|2,3:0|2:0,2:0:0:0:
276,65,66293,1,0,3:0:0:0:
191,3,66469,2,0,P|156:2|125:18,1,70,2|0,1:2|2:0,2:0:0:0:
42,83,66822,6,0,L|63:232,1,140,2|2,3:2|1:2,2:0:0:0:
134,298,67351,2,0,P|173:300|203:279,1,70,0|2,3:0|2:0,2:0:0:0:
245,190,67704,2,0,P|277:173|322:178,1,70,0|2,3:0|1:2,2:0:0:0:
399,228,68057,1,0,2:0:0:0:
482,291,68234,5,0,3:0:0:0:
482,291,68410,1,0,3:0:0:0:
287,371,68763,1,0,3:0:0:0:
233,167,69116,1,2,3:2:0:0:
233,167,69293,2,0,L|246:90,1,70,2|2,1:2|1:2,2:0:0:0:
329,35,69646,6,0,L|408:51,1,70,6|0,3:2|2:0,2:0:0:0:
461,132,69999,1,2,1:2:0:0:
361,164,70175,2,0,P|318:212|326:304,1,140,0|0,3:0|3:0,2:0:0:0:
265,377,70704,2,0,L|184:362,1,70,2|0,1:2|2:0,2:0:0:0:
124,287,71057,6,0,L|139:208,1,70,2|0,3:2|2:0,2:0:0:0:
229,167,71410,1,2,1:2:0:0:
191,69,71587,2,0,B|151:48|151:48|42:92,1,140,0|0,3:0|3:0,2:0:0:0:
4,171,72116,2,0,L|15:255,1,70,2|0,1:2|2:0,2:0:0:0:
89,311,72469,6,0,P|123:294|162:293,1,70,2|0,3:2|2:0,2:0:0:0:
235,358,72822,1,2,1:2:0:0:
317,292,72999,2,0,P|342:220|303:146,1,140,0|0,3:0|3:0,2:0:0:0:
247,88,73528,2,0,L|160:92,1,70,2|0,1:2|2:0,2:0:0:0:
103,15,73881,5,2,3:2:0:0:
27,88,74057,2,0,P|-4:192|17:239,1,140,0|0,2:0|3:0,2:0:0:0:
88,281,74587,2,0,L|257:266,1,140,2|2,2:0|1:2,2:0:0:0:
312,205,75116,1,0,2:0:0:0:
226,144,75293,2,0,B|212:123|167:111|167:111|196:91|218:56,1,140,6|2,3:2|1:2,2:0:0:0:
305,0,75822,1,0,3:0:0:0:
401,41,75999,2,0,B|414:61|459:73|459:73|430:93|410:125,1,140,2|2,2:0|1:2,2:0:0:0:
327,190,76528,1,0,2:0:0:0:
417,244,76704,6,0,P|436:281|432:324,1,70,2|0,3:2|2:0,2:0:0:0:
356,377,77057,1,2,1:2:0:0:
267,320,77234,2,0,L|186:316,1,70,0|2,3:0|2:0,2:0:0:0:
111,255,77587,1,0,3:0:0:0:
189,184,77763,2,0,P|201:146|188:91,1,70,2|0,1:2|2:0,2:0:0:0:
152,21,78116,6,0,B|113:-3|113:-3|11:14,1,140,2|2,1:2|1:2,2:0:0:0:
28,117,78646,2,0,L|43:198,1,70,2|0,3:2|2:0,2:0:0:0:
114,260,78999,2,0,L|99:341,1,70,2|0,3:2|2:0,2:0:0:0:
191,383,79351,1,0,2:0:0:0:
271,315,79528,2,0,L|255:156,1,140,2|2,3:2|1:2,2:0:0:0:
293,76,80057,2,0,P|357:30|437:50,1,140,0|0,1:0|1:0,2:0:0:0:
480,118,80587,1,0,1:0:0:0:
364,293,80940,6,0,B|306:254|306:254|218:272,1,140,4|0,3:2|1:0,2:0:0:0:
187,175,81469,2,0,B|129:136|129:136|41:154,1,140,4|0,3:2|3:0,2:0:0:0:
2,238,81999,1,4,1:2:0:0:
164,370,82351,5,2,3:2:0:0:
296,206,82704,1,2,1:2:0:0:
441,357,83057,2,0,L|481:353,2,35,2|0|0,1:2|1:0|1:0,1:0:0:0:
372,276,83410,2,0,L|332:280,2,35,2|0|0,3:2|3:0|3:0,3:0:0:0:
431,189,83763,6,0,P|432:149|412:113,1,70,2|0,1:2|1:0,2:0:0:0:
332,73,84116,1,0,2:0:0:0:
332,73,84293,2,0,L|262:84,1,70,2|2,2:0|2:0,2:0:0:0:
187,157,84646,1,0,2:0:0:0:
187,157,84822,2,0,P|181:194|198:226,1,70,2|2,2:0|2:0,2:0:0:0:
294,270,85175,5,0,2:0:0:0:
294,270,85351,2,0,P|295:304|282:336,1,70,2|2,2:0|2:0,2:0:0:0:
187,379,85704,1,0,2:0:0:0:
187,379,85881,2,0,L|100:362,1,70,2|0,2:0|2:0,2:0:0:0:
47,287,86234,2,0,L|123:271,1,70,2|0,1:2|2:0,2:0:0:0:
217,246,86587,5,0,1:0:0:0:
