osu file format v14

[General]
AudioFilename: dokidoki.mp3
AudioLeadIn: 0
PreviewTime: 14606
Countdown: 0
SampleSet: None
StackLeniency: 0.5
Mode: 0
LetterboxInBreaks: 0
WidescreenStoryboard: 1

[Editor]
Bookmarks: 2970,14606,26242,27333,27697,32060,32788,37879,49515,61151,72788,84424,85879,97515,107697,119333,130970,142606,154242,154606,157151,157515,160060,160424,166606,166970,177515,178606,181151
DistanceSpacing: 1
BeatDivisor: 4
GridSize: 32
TimelineZoom: 1

[Metadata]
Title:Doki Doki Forever (ft. rachie, Chi-chi, Kathy-chan*)
TitleUnicode:Doki Doki Forever (ft. rachie, Chi-chi, Kathy-chan*)
Artist:OR3O
ArtistUnicode:OR3O
Creator:Project Railgun
Version:Challenging
Source:Doki Doki Literature Club!
Tags:project_railgun ddlc team salvato sayori yuri natsuki just monika Ohwow Akitoshi -laura- Laura Corinn trap dance edm
BeatmapID:1921334
BeatmapSetID:919988

[Difficulty]
HPDrainRate:0.2
CircleSize:2.8
OverallDifficulty:8.2
ApproachRate:1.5
SliderMultiplier:0.4
SliderTickRate:1

[Events]
//Background and Video events
0,0,"dokidoki.jpg",0,0
//Break Periods
//Storyboard Layer 0 (Background)
//Storyboard Layer 1 (Fail)
//Storyboard Layer 2 (Pass)
//Storyboard Layer 3 (Foreground)
//Storyboard Sound Samples

[TimingPoints]
2970,363.636363636364,4,2,1,70,1,0
2970,-1000,4,2,1,70,0,0
49515,-1000,4,2,1,70,0,1
61106,-1000,4,2,1,70,0,0
61151,-1000,4,2,1,70,0,1
72788,-1000,4,2,1,70,0,0
119333,-1000,4,2,1,70,0,1
130924,-1000,4,2,1,70,0,0
130970,-1000,4,2,1,70,0,1
142606,-1000,4,2,1,70,0,0
154606,-1000,4,2,1,70,0,1
157151,-1000,4,2,1,70,0,0
157515,-1000,4,2,1,70,0,1
160060,-1000,4,2,1,70,0,0
160424,-1000,4,2,1,70,0,1
166606,-1000,4,2,1,70,0,0
166970,-1000,4,2,1,70,0,1
178606,-1000,4,2,1,70,0,0

[Colours]
Combo1 : 147,217,70
Combo2 : 210,96,139
Combo3 : 238,164,64
Combo4 : 228,232,83

[HitObjects]
0,0,49515,5,4,0:0:0:0:
512,0,49879,1,2,0:0:0:0:
0,384,50242,1,0,0:0:0:0:
512,384,50424,1,2,0:0:0:0:
256,192,50788,1,2,0:0:0:0:
0,384,51697,5,2,0:0:0:0:
512,0,51879,1,0,0:0:0:0:
0,384,52060,1,2,0:0:0:0:
512,0,52243,1,0,0:0:0:0:
0,384,52425,1,4,0:0:0:0:
512,384,52788,5,2,0:0:0:0:
512,384,52970,1,0,0:0:0:0:
512,384,53151,1,2,0:0:0:0:
256,192,53333,1,2,0:0:0:0:
0,384,53697,1,2,0:0:0:0:
0,0,54424,5,0,0:0:0:0:
512,384,54606,1,2,0:0:0:0:
0,384,54787,1,0,0:0:0:0:
512,0,54970,1,2,0:0:0:0:
0,0,55151,1,0,0:0:0:0:
256,192,55333,5,4,0:0:0:0:
256,192,55697,1,2,0:0:0:0:
512,384,56060,1,0,0:0:0:0:
0,384,56242,1,2,0:0:0:0:
512,0,56606,1,2,0:0:0:0:
0,0,57333,5,0,0:0:0:0:
0,384,57515,1,2,0:0:0:0:
512,384,57697,1,0,0:0:0:0:
512,0,57879,1,2,0:0:0:0:
256,192,58060,5,4,0:0:0:0:
0,0,58424,1,2,0:0:0:0:
256,192,58606,5,0,0:0:0:0:
512,0,58788,1,4,0:0:0:0:
0,384,59151,1,0,0:0:0:0:
256,192,59333,5,2,0:0:0:0:
512,384,59515,1,4,0:0:0:0:
0,0,59879,1,0,0:0:0:0:
256,192,60060,5,2,0:0:0:0:
0,384,60242,1,0,0:0:0:0:
512,384,60424,1,2,0:0:0:0:
0,0,60606,1,0,0:0:0:0:
512,0,60788,2,0,L|509:0,1,3,2|0,0:0|0:0,0:0:0:0:
0,384,61151,5,4,0:0:0:0:
256,0,61515,1,2,0:0:0:0:
512,384,61879,1,0,0:0:0:0:
0,384,62060,1,2,0:0:0:0:
256,0,62424,1,2,0:0:0:0:
256,0,63151,5,0,0:0:0:0:
512,384,63333,1,2,0:0:0:0:
0,128,63515,1,0,0:0:0:0:
512,128,63697,1,2,0:0:0:0:
0,384,63879,1,0,0:0:0:0:
512,384,64060,1,4,0:0:0:0:
0,128,64424,5,2,0:0:0:0:
0,128,64606,1,0,0:0:0:0:
0,128,64788,1,2,0:0:0:0:
256,384,64970,1,2,0:0:0:0:
512,128,65333,1,2,0:0:0:0:
0,0,66060,5,0,0:0:0:0:
512,384,66242,1,2,0:0:0:0:
512,0,66424,1,0,0:0:0:0:
0,384,66606,1,2,0:0:0:0:
0,0,66788,1,0,0:0:0:0:
512,384,66970,5,4,0:0:0:0:
256,0,67333,1,2,0:0:0:0:
0,384,67697,1,0,0:0:0:0:
256,0,67879,1,2,0:0:0:0:
512,384,68242,1,2,0:0:0:0:
0,0,69151,5,2,0:0:0:0:
512,0,69332,1,0,0:0:0:0:
256,384,69514,1,2,0:0:0:0:
256,192,69697,5,4,0:0:0:0:
0,384,70060,1,2,0:0:0:0:
256,192,70242,5,0,0:0:0:0:
512,384,70424,1,4,0:0:0:0:
0,0,70788,1,2,0:0:0:0:
256,192,70970,5,0,0:0:0:0:
512,0,71151,1,4,0:0:0:0:
0,384,71515,1,0,0:0:0:0:
256,192,71697,5,2,0:0:0:0:
0,0,71879,1,0,0:0:0:0:
512,0,72060,1,2,0:0:0:0:
0,384,72242,1,0,0:0:0:0:
512,384,72424,2,0,L|509:384,1,3,2|0,0:0|0:0,0:0:0:0:
0,0,72788,6,0,L|0:4,1,4,2|0,0:0|0:0,0:0:0:0:
256,0,73515,2,0,L|256:4,1,4,2|0,0:0|0:0,0:0:0:0:
512,0,74242,2,0,L|512:4,1,4,2|0,0:0|0:0,0:0:0:0:
512,384,74970,2,0,L|509:384,1,2,2|0,0:0|0:0,0:0:0:0:
256,192,75333,2,0,L|253:192,1,2,8|0,0:0|0:0,0:0:0:0:
0,0,75697,6,0,L|4:0,1,4,2|0,0:0|0:0,0:0:0:0:
0,192,76424,2,0,L|4:192,1,4,2|0,0:0|0:0,0:0:0:0:
0,384,77151,2,0,L|4:384,1,4,2|0,0:0|0:0,0:0:0:0:
512,384,77879,2,0,L|512:381,1,2,2|0,0:0|0:0,0:0:0:0:
256,192,78242,2,0,L|256:190,1,2,8|0,0:0|0:0,0:0:0:0:
0,384,78606,6,0,L|0:380,1,4,2|0,0:0|0:0,0:0:0:0:
256,0,79333,2,0,L|256:-4,1,4,2|0,0:0|0:0,0:0:0:0:
512,384,80060,2,0,L|512:380,1,4,2|0,0:0|0:0,0:0:0:0:
0,128,80788,2,0,L|3:128,1,2,2|0,0:0|0:0,0:0:0:0:
512,128,81151,2,0,L|509:128,1,2,8|0,0:0|0:0,0:0:0:0:
0,384,81515,6,0,L|0:380,1,4,2|0,0:0|0:0,0:0:0:0:
256,0,82242,2,0,L|256:3,1,2,2|0,0:0|0:0,0:0:0:0:
512,384,82605,2,0,L|512:381,1,2,8|0,0:0|0:0,0:0:0:0:
512,128,82970,6,0,L|512:132,1,4,2|0,0:0|0:0,0:0:0:0:
0,128,83697,2,0,L|0:124,1,4,2|8,0:0|0:0,0:0:0:0:
256,384,84242,1,2,0:0:0:0:
256,384,84333,1,0,0:0:0:0:
256,384,84424,5,2,0:2:0:0:
512,0,84788,1,2,0:0:0:0:
0,128,85151,1,2,0:0:0:0:
512,384,85333,1,0,0:0:0:0:
512,384,85424,1,0,0:0:0:0:
512,384,85515,5,4,0:0:0:0:
256,192,85697,1,0,0:0:0:0:
0,384,85879,1,2,0:0:0:0:
0,384,86242,1,2,0:0:0:0:
256,192,86424,1,0,0:0:0:0:
512,0,86606,1,2,0:0:0:0:
256,0,86788,1,2,0:0:0:0:
256,0,86970,1,2,0:0:0:0:
256,0,87151,1,2,0:0:0:0:
0,0,87333,5,2,0:0:0:0:
0,192,87515,1,0,0:0:0:0:
0,384,87697,1,2,0:0:0:0:
512,0,88060,1,8,0:1:0:0:
512,256,88424,1,2,0:0:0:0:
256,384,88788,1,0,0:0:0:0:
0,192,89151,1,2,0:0:0:0:
256,0,89515,5,2,0:0:0:0:
0,192,89697,1,2,0:0:0:0:
256,384,89879,1,2,0:0:0:0:
512,192,90060,1,2,0:0:0:0:
0,0,90606,1,2,0:0:0:0:
0,0,90970,1,8,0:1:0:0:
