osu file format v14

[General]
AudioFilename: audio.mp3
AudioLeadIn: 0
PreviewTime: 49515
Countdown: 0
SampleSet: Soft
StackLeniency: 0.5
Mode: 0
LetterboxInBreaks: 0
WidescreenStoryboard: 1

[Editor]
DistanceSpacing: 1.1
BeatDivisor: 4
GridSize: 4
TimelineZoom: 1.459999

[Metadata]
Title:Doki Doki Forever (ft. rachie, Chi-chi, Kathy-chan*)
TitleUnicode:Doki Doki Forever (ft. rachie, Chi-chi, Kathy-chan★)
Artist:OR3O
ArtistUnicode:OR3O
Creator:DTM9 Nowa
Version:Tragic Love Story
Source:Doki Doki Literature Club!
Tags:ddlc team salvato sayori yuri natsuki just monika Ohwow Akitoshi -laura- Laura Corinn trap dance edm
BeatmapID:1644943
BeatmapSetID:783394

[Difficulty]
HPDrainRate:6
CircleSize:4
OverallDifficulty:8.5
ApproachRate:9
SliderMultiplier:1.7
SliderTickRate:1

[Events]
//Background and Video events
0,0,"Doki Doki Forever.jpg",0,0
Video,-190,"dokidoki.avi"
//Break Periods
2,73351,78006
//Storyboard Layer 0 (Background)
//Storyboard Layer 1 (Fail)
//Storyboard Layer 2 (Pass)
//Storyboard Layer 3 (Foreground)
//Storyboard Sound Samples

[TimingPoints]
2970,363.636363636364,4,2,1,60,1,0
13879,-200,4,2,1,60,0,0
14606,-133.333333333333,4,2,1,60,0,0
27333,-111.111111111111,4,2,1,60,0,0
36424,-133.333333333333,4,2,1,60,0,0
37879,-111.111111111111,4,2,1,50,0,0
43697,-100,4,2,1,55,0,0
48788,-100,4,2,1,40,0,0
49151,-100,4,2,1,30,0,0
49515,-90.9090909090909,4,2,1,70,0,1
60788,-100,4,2,1,60,0,0
61060,-100,4,2,1,5,0,0
61151,-90.9090909090909,4,2,1,70,0,1
72424,-100,4,2,1,70,0,0
72788,-153.846153846154,4,2,1,60,0,0
73151,-153.846153846154,4,2,1,30,0,0
83697,-153.846153846154,4,2,1,45,0,0
84424,-200,4,2,1,45,0,0
84788,-200,4,2,1,45,0,0
85151,-200,4,2,1,60,0,0
85515,-133.333333333333,4,2,1,60,0,0
95879,-50,4,2,1,80,0,0
96424,-200,4,2,1,60,0,0
97151,-133.333333333333,4,2,1,60,0,0
106970,-100,4,2,1,60,0,0
107697,-200,4,2,1,50,0,0
112788,-153.846153846154,4,2,1,50,0,0
113151,-125,4,2,1,50,0,0
113515,-100,4,2,1,55,0,0
118970,-83.3333333333333,4,2,1,60,0,0
119333,-90.9090909090909,4,2,1,70,0,1
130606,-100,4,2,1,60,0,0
130879,-100,4,2,1,5,0,0
130970,-90.9090909090909,4,2,1,70,0,1
138788,-58.8235294117647,4,2,1,70,0,1
138970,-90.9090909090909,4,2,1,70,0,1
142606,-125,4,2,1,50,0,0
148424,-100,4,2,1,55,0,0
153879,-100,4,2,1,60,0,0
154242,-142.857142857143,4,2,1,60,0,0
154606,-62.5,4,2,1,60,0,1
154970,-76.9230769230769,4,2,1,60,0,1
157151,-133.333333333333,4,2,1,60,0,0
157515,-76.9230769230769,4,2,1,60,0,1
160060,-133.333333333333,4,2,1,60,0,0
160424,-76.9230769230769,4,2,1,60,0,1
161879,-50,4,2,1,60,0,0
162242,-58.8235294117647,4,2,1,60,0,1
162970,-90.9090909090909,4,2,1,60,0,1
165151,-66.6666666666667,4,2,1,60,0,1
165515,-50,4,2,1,60,0,0
165879,-142.857142857143,4,2,1,60,0,0
166151,-76.9230769230769,4,2,1,5,0,0
166242,-76.9230769230769,4,2,1,60,0,0
166606,-90.9090909090909,4,2,1,60,0,0
166970,-76.9230769230769,4,2,1,60,0,1
168060,-50,4,2,1,60,0,1
168424,-76.9230769230769,4,2,1,60,0,1
172242,-50,4,2,1,60,0,1
172424,-76.9230769230769,4,2,1,60,0,1
173879,-66.6666666666667,4,2,1,60,0,1
174242,-90.9090909090909,4,2,1,60,0,1
175333,-66.6666666666667,4,2,1,60,0,1
175697,-90.9090909090909,4,2,1,60,0,1
176788,-50,4,2,1,60,0,1
176970,-90.9090909090909,4,2,1,60,0,1
177515,-90.9090909090909,4,2,1,60,0,0
179697,-90.9090909090909,4,2,1,50,0,0
180060,-90.9090909090909,4,2,1,40,0,0
180424,-90.9090909090909,4,2,1,30,0,0
180788,-90.9090909090909,4,2,1,20,0,0
181060,-90.9090909090909,4,2,1,5,0,0

[Colours]
Combo1 : 225,137,100
Combo2 : 187,69,83
Combo3 : 94,54,116
Combo4 : 207,103,153

[HitObjects]
151,128,13879,6,0,L|147:79,1,42.5,0|0,0:0|0:0,0:0:0:0:
155,60,14242,2,0,L|158:102,1,42.5
208,300,14606,5,0,3:0:0:0:
208,300,14970,2,0,L|215:229,1,63.7500024318696,0|0,0:0|0:0,0:0:0:0:
253,70,15333,2,0,L|246:133,1,63.7500024318696,8|0,0:0|0:0,0:0:0:0:
232,230,15697,1,0,3:0:0:0:
153,172,15879,5,0,0:0:0:0:
328,195,16060,2,0,L|402:204,1,63.7500024318696,0|0,0:0|0:0,0:0:0:0:
181,301,16424,1,0,3:0:0:0:
197,114,16606,1,0,0:0:0:0:
320,274,16788,5,8,0:0:0:0:
121,255,16970,1,0,3:0:0:0:
330,288,17151,1,0,0:0:0:0:
116,244,17333,1,0,3:0:0:0:
328,195,17515,5,0,3:0:0:0:
213,351,17697,1,0,0:0:0:0:
134,158,17879,2,0,P|135:89|158:21,1,127.500004863739,0|8,0:0|0:0,0:0:0:0:
382,267,18606,6,0,L|298:274,1,63.7500024318696,0|0,3:0|0:0,0:0:0:0:
211,287,18970,1,0,0:0:0:0:
282,143,19151,1,8,0:0:0:0:
282,143,19242,1,0,3:0:0:0:
282,143,19333,2,0,L|271:225,1,63.7500024318696,0|0,3:0|0:0,0:0:0:0:
260,355,19697,1,8,0:0:0:0:
201,272,19879,5,0,3:0:0:0:
313,290,20060,1,0,3:0:0:0:
95,316,20242,2,0,P|87:273|92:233,1,63.7500024318696,0|0,3:0|3:0,0:0:0:0:
88,253,20788,6,0,L|94:189,1,63.7500024318696,0|0,0:0|0:0,0:0:0:0:
129,42,21151,2,0,L|123:106,1,63.7500024318696,8|0,0:0|0:0,0:0:0:0:
80,268,21515,5,0,3:0:0:0:
27,107,21697,1,0,0:0:0:0:
194,146,21879,1,0,0:0:0:0:
0,207,22060,1,8,0:0:0:0:
131,88,22242,5,0,3:0:0:0:
193,273,22423,1,0,0:0:0:0:
0,207,22606,2,0,L|76:211,1,63.7500024318696,8|0,0:0|0:0,0:0:0:0:
254,221,22970,1,0,0:0:0:0:
98,329,23151,1,0,3:0:0:0:
98,329,23242,1,0,0:0:0:0:
98,329,23333,6,0,P|68:273|65:202,1,127.500004863739,0|0,3:0|0:0,0:0:0:0:
283,40,24060,1,8,0:0:0:0:
218,351,24424,1,0,3:0:0:0:
142,247,24606,1,0,0:0:0:0:
142,247,24788,6,0,B|177:253|177:253|228:237|228:237|283:258|283:258|334:232|334:232|386:249,1,255.000009727478,0|0,0:0|0:0,0:0:0:0:
401,236,25697,5,0,0:0:0:0:
339,324,25879,1,0,0:0:0:0:
324,150,26060,2,0,L|317:71,1,63.7500024318696,0|2,0:0|0:0,0:0:0:0:
313,22,26606,6,0,L|318:85,1,63.7500024318696,2|0,0:0|0:0,0:0:0:0:
339,324,26970,1,8,0:0:0:0:
452,176,27151,2,0,L|413:178,1,31.8750012159348,0|0,3:0|3:0,0:0:0:0:
164,268,27333,6,0,L|242:272,1,76.4999976654053,6|0,0:0|0:0,0:0:0:0:
98,122,27697,2,0,P|83:157|85:195,1,76.4999976654053,2|0,0:0|0:0,0:0:0:0:
228,344,28060,2,0,P|242:308|240:270,1,76.4999976654053,2|0,3:2|0:0,0:0:0:0:
111,131,28424,5,10,0:0:0:0:
165,295,28606,1,0,3:2:0:0:
225,97,28788,1,2,0:0:0:0:
41,177,28970,1,0,3:2:0:0:
257,255,29151,5,2,3:2:0:0:
145,38,29333,1,0,0:0:0:0:
41,177,29515,2,0,P|107:226|202:219,1,152.999995330811,2|10,0:0|0:0,0:0:0:0:
416,63,30242,6,0,L|410:154,1,76.4999976654053,2|0,3:2|0:0,0:0:0:0:
401,279,30606,1,2,0:0:0:0:
260,169,30788,1,8,0:0:0:0:
260,169,30879,1,0,3:0:0:0:
260,169,30970,2,0,P|302:159|339:158,1,76.4999976654053,2|0,3:2|0:0,0:0:0:0:
492,177,31333,5,10,0:0:0:0:
406,209,31515,1,0,3:0:0:0:
473,93,31697,1,2,3:2:0:0:
428,296,31879,1,0,3:0:0:0:
428,296,32060,2,0,L|412:377,1,76.4999976654053,2|0,3:2|0:0,0:0:0:0:
310,88,32424,6,0,L|324:12,1,76.4999976654053,2|0,0:2|0:0,0:0:0:0:
459,216,32788,2,0,L|429:367,1,152.999995330811,10|2,0:0|3:2,0:0:0:0:
273,209,33333,5,0,0:0:0:0:
473,140,33515,2,0,L|458:215,1,76.4999976654053,2|8,0:0|0:0,0:0:0:0:
296,330,33879,1,2,3:2:0:0:
238,134,34060,1,0,0:0:0:0:
458,215,34242,6,0,L|381:211,1,76.4999976654053,10|0,0:0|0:0,0:0:0:0:
181,203,34606,1,2,0:0:0:0:
329,75,34788,2,0,P|333:107|320:152,1,76.4999976654053,0|2,3:0|3:2,0:0:0:0:
383,375,35333,5,2,0:0:0:0:
383,375,35515,2,0,P|371:338|375:300,1,76.4999976654053,0|10,0:0|0:0,0:0:0:0:
484,170,35879,1,0,0:0:0:0:
454,331,36060,1,2,3:2:0:0:
282,79,36424,6,0,B|247:75|223:86|223:86|194:100|170:85|170:85|142:80|140:33|166:28|166:28|192:31|196:75|170:85|170:85|138:103|108:94|108:94|83:85|53:95,1,382.500014591218,0|0,0:0|0:0,0:0:0:0:
17,252,37879,6,0,P|58:256|103:283,1,76.4999976654053,6|0,0:0|0:0,0:0:0:0:
133,336,38242,1,2,0:0:0:0:
132,162,38424,1,0,0:0:0:0:
132,162,38515,1,0,0:0:0:0:
132,162,38606,2,0,P|180:206|211:292,1,152.999995330811,2|2,0:0|0:0,0:0:0:0:
318,380,39151,1,0,0:0:0:0:
318,380,39242,1,0,0:0:0:0:
318,380,39333,2,0,P|324:338|344:302,1,76.4999976654053,2|0,0:0|0:0,0:0:0:0:
449,226,39697,5,2,0:0:0:0:
509,354,39879,1,0,0:0:0:0:
509,354,39970,1,0,0:0:0:0:
509,354,40060,2,0,P|469:369|428:370,1,76.4999976654053,2|0,0:0|0:0,0:0:0:0:
340,232,40424,2,0,P|379:216|420:215,1,76.4999976654053,2|0,0:0|0:0,0:0:0:0:
432,218,40697,1,0,0:0:0:0:
449,226,40788,6,0,L|433:70,1,152.999995330811,2|2,0:0|0:0,0:0:0:0:
298,18,41333,1,0,0:0:0:0:
298,18,41424,1,0,0:0:0:0:
298,18,41515,2,0,P|239:56|150:52,1,152.999995330811,2|2,0:0|0:0,0:0:0:0:
18,17,42060,1,0,0:0:0:0:
18,17,42151,1,0,0:0:0:0:
18,17,42242,6,0,P|93:14|157:54,1,152.999995330811,2|0,0:0|0:0,0:0:0:0:
64,204,42788,1,0,0:0:0:0:
64,204,42879,1,0,0:0:0:0:
64,204,42970,2,0,L|58:116,1,76.4999976654053,2|0,0:0|0:0,0:0:0:0:
141,293,43333,2,0,L|147:205,1,76.4999976654053,2|0,0:0|0:0,0:0:0:0:
194,125,43606,1,0,0:0:0:0:
199,137,43697,6,0,P|267:181|352:169,1,170,2|2,3:2|0:0,0:0:0:0:
352,15,44242,1,0,0:0:0:0:
352,15,44333,1,0,0:0:0:0:
352,15,44424,2,0,P|344:59|361:107,1,85,2|0,3:2|0:0,0:0:0:0:
495,201,44788,2,0,P|460:172|410:162,1,85,2|0,0:0|0:0,0:0:0:0:
310,176,45060,1,0,0:0:0:0:
301,195,45151,6,0,L|318:375,1,170,2|2,3:2|0:0,0:0:0:0:
447,312,45697,1,0,0:0:0:0:
447,312,45788,1,0,0:0:0:0:
447,312,45879,2,0,P|415:273|376:257,1,85,2|0,3:2|0:0,0:0:0:0:
187,338,46242,2,0,P|236:329|270:304,1,85,2|0,0:0|0:0,0:0:0:0:
313,145,46606,5,2,3:2:0:0:
197,240,46788,1,0,0:0:0:0:
368,210,46970,1,2,3:2:0:0:
142,175,47151,1,0,0:0:0:0:
321,279,47333,5,2,3:2:0:0:
281,67,47515,1,0,0:0:0:0:
246,315,47697,1,2,3:2:0:0:
359,40,47879,1,0,0:0:0:0:
430,234,48060,5,2,3:2:0:0:
400,246,48150,1,0,0:0:0:0:
369,252,48241,1,0,3:0:0:0:
337,249,48332,1,0,0:0:0:0:
307,240,48424,1,2,3:2:0:0:
277,230,48515,1,0,0:0:0:0:
245,228,48606,1,0,3:0:0:0:
214,234,48697,1,0,0:0:0:0:
184,246,48788,6,0,P|168:264|159:281,3,42.5,2|0|0|0,3:2|3:0|3:0|3:0,0:0:0:0:
150,359,49151,1,2,3:2:0:0:
150,359,49515,6,0,P|143:308|154:255,1,93.5000028533936,4|0,3:2|0:0,0:0:0:0:
221,56,49879,2,0,P|227:106|216:159,1,93.5000028533936,0|0,0:0|0:0,0:0:0:0:
66,258,50242,1,8,0:0:0:0:
311,168,50425,2,0,P|283:208|234:237,1,93.5000028533936,0|0,0:0|3:0,0:0:0:0:
33,140,50788,2,0,L|231:148,1,187.000005706787,0|8,0:0|0:0,0:0:0:0:
411,157,51333,1,0,3:0:0:0:
411,157,51697,5,8,0:0:0:0:
219,147,51879,1,0,3:0:0:0:
463,101,52060,1,0,0:0:0:0:
167,206,52242,1,0,3:0:0:0:
264,18,52424,6,0,P|283:62|289:123,1,93.5000028533936,0|0,3:0|0:0,0:0:0:0:
235,288,52788,2,0,P|263:249|313:213,1,93.5000028533936,0|0,0:0|0:0,0:0:0:0:
482,193,53151,1,8,0:0:0:0:
342,383,53333,2,0,P|334:335|345:275,1,93.5000028533936,0|0,0:0|3:0,0:0:0:0:
399,146,53697,2,0,P|291:173|208:146,1,187.000005706787,0|8,0:0|0:0,0:0:0:0:
200,130,54151,1,0,3:0:0:0:
200,130,54242,1,0,3:0:0:0:
168,217,54424,5,0,0:0:0:0:
138,64,54606,1,8,0:0:0:0:
220,281,54788,1,0,3:0:0:0:
65,28,54970,1,0,3:0:0:0:
283,88,55151,1,0,3:0:0:0:
61,272,55333,6,0,P|58:220|68:174,1,93.5000028533936,0|0,3:0|0:0,0:0:0:0:
204,1,55697,2,0,P|212:46|209:93,1,93.5000028533936,0|0,0:0|0:0,0:0:0:0:
142,299,56060,1,8,0:0:0:0:
0,123,56242,2,0,P|39:99|88:97,1,93.5000028533936,0|0,0:0|3:0,0:0:0:0:
251,187,56606,2,0,L|65:179,1,187.000005706787,0|8,0:0|0:0,0:0:0:0:
326,138,57151,1,0,3:0:0:0:
326,138,57333,5,0,0:0:0:0:
417,126,57515,1,8,0:0:0:0:
260,233,57697,1,0,3:0:0:0:
193,40,57879,1,0,0:0:0:0:
347,283,58060,1,0,3:0:0:0:
85,225,58242,2,0,P|128:207|174:199,1,93.5000028533936,0|0,3:0|0:0,0:0:0:0:
395,214,58606,5,0,0:0:0:0:
175,366,58788,2,0,P|183:320|205:277,1,93.5000028533936,0|8,0:0|0:0,0:0:0:0:
326,135,59151,1,0,0:0:0:0:
102,322,59333,5,0,3:0:0:0:
212,49,59515,2,0,P|232:90|241:136,1,93.5000028533936
43,268,59879,5,8,0:0:0:0:
38,257,59970,1,0,3:0:0:0:
36,246,60060,1,0,3:0:0:0:
211,61,60242,1,0,0:0:0:0:
136,336,60424,1,8,0:0:0:0:
87,60,60606,1,0,3:0:0:0:
136,336,60788,2,0,L|156:226,1,85,0|0,0:0|0:0,0:0:0:0:
251,23,61151,6,0,L|271:133,1,93.5000028533936,4|0,3:2|0:0,0:0:0:0:
500,232,61515,2,0,L|482:140,1,93.5000028533936,0|0,0:0|0:0,0:0:0:0:
238,263,61879,1,8,0:0:0:0:
495,324,62060,1,0,0:0:0:0:
495,324,62151,1,0,0:0:0:0:
495,324,62242,1,0,3:0:0:0:
303,161,62424,2,0,L|336:344,1,187.000005706787,0|8,0:0|0:0,0:0:0:0:
374,105,62970,1,0,3:0:0:0:
290,71,63151,5,0,0:0:0:0:
400,193,63333,1,8,0:0:0:0:
439,3,63515,1,0,3:0:0:0:
283,196,63697,1,0,0:0:0:0:
507,115,63879,1,0,3:0:0:0:
226,124,64060,6,0,L|114:115,1,93.5000028533936,0|0,3:0|0:0,0:0:0:0:
359,246,64424,2,0,L|471:237,1,93.5000028533936,0|0,0:0|0:0,0:0:0:0:
217,134,64788,1,8,0:0:0:0:
261,343,64970,2,0,P|276:291|278:246,1,93.5000028533936,0|0,0:0|3:0,0:0:0:0:
74,351,65333,2,0,L|271:342,1,187.000005706787,0|8,0:0|0:0,0:0:0:0:
295,355,65788,1,0,3:0:0:0:
295,355,65879,1,0,3:0:0:0:
214,238,66060,5,0,0:0:0:0:
175,363,66242,1,8,0:0:0:0:
284,190,66424,1,0,3:0:0:0:
80,182,66606,1,0,3:0:0:0:
272,320,66788,1,0,3:0:0:0:
307,100,66970,6,0,P|289:147|283:200,1,93.5000028533936,0|0,3:0|0:0,0:0:0:0:
374,352,67333,2,0,P|367:305|350:262,1,93.5000028533936
172,166,67697,1,8,0:0:0:0:
444,225,67879,2,0,P|406:197|363:178,1,93.5000028533936,0|0,0:0|3:0,0:0:0:0:
158,178,68242,2,0,L|140:385,1,187.000005706787,0|8,0:0|0:0,0:0:0:0:
341,217,68788,2,0,L|332:113,1,93.5000028533936,0|0,3:0|0:0,0:0:0:0:
148,167,69151,5,8,0:0:0:0:
351,228,69333,1,0,3:0:0:0:
121,83,69515,1,0,0:0:0:0:
251,302,69696,1,0,3:0:0:0:
318,52,69879,2,0,P|292:95|283:151,1,93.5000028533936,0|0,3:0|0:0,0:0:0:0:
383,313,70242,5,0,0:0:0:0:
442,64,70424,2,0,P|401:87|364:137,1,93.5000028533936,0|8,0:0|0:0,0:0:0:0:
262,318,70788,1,0,0:0:0:0:
470,175,70970,5,0,3:0:0:0:
140,202,71151,2,0,P|181:225|242:238,1,93.5000028533936,0|8,0:0|0:0,0:0:0:0:
445,57,71515,5,8,0:0:0:0:
435,59,71606,1,0,3:0:0:0:
425,63,71697,1,0,3:0:0:0:
223,128,71878,1,0,0:0:0:0:
511,214,72060,1,8,0:0:0:0:
290,36,72242,1,0,3:0:0:0:
359,331,72424,2,0,L|368:237,1,85,0|0,3:0|3:0,0:0:0:0:
135,29,72788,6,0,B|136:70|136:70|155:98|155:98|152:135,1,110.499994941712,4|0,0:0|0:0,0:0:0:0:
256,192,78606,12,0,82970,0:0:0:0:
247,192,83697,5,0,0:0:0:0:
247,192,84060,1,0,0:0:0:0:
186,84,84242,1,0,0:0:0:0:
186,84,84333,1,0,0:0:0:0:
186,84,84424,6,0,L|178:128,1,42.5,0|0,0:0|0:0,0:0:0:0:
253,233,84788,2,0,L|245:188,1,42.5,0|0,0:0|0:0,0:0:0:0:
178,303,85151,1,8,0:0:0:0:
356,252,85333,1,0,3:0:0:0:
356,252,85424,1,0,3:0:0:0:
356,252,85515,1,4,3:2:0:0:
128,211,85697,5,0,0:0:0:0:
272,367,85879,2,0,P|283:332|287:297,1,63.7500024318696,0|0,0:0|0:0,0:0:0:0:
228,133,86242,5,0,3:0:0:0:
151,300,86424,1,0,0:0:0:0:
311,156,86606,1,8,0:0:0:0:
75,266,86788,5,0,3:0:0:0:
256,336,86970,1,0,0:0:0:0:
229,133,87151,1,0,3:0:0:0:
85,345,87333,5,0,3:0:0:0:
264,239,87515,1,0,0:0:0:0:
66,136,87697,2,0,L|75:273,1,127.500004863739,0|8,0:0|0:0,0:0:0:0:
366,374,88424,6,0,L|372:300,1,63.7500024318696,0|0,3:0|0:0,0:0:0:0:
385,186,88788,1,0,0:0:0:0:
219,278,88970,1,8,0:0:0:0:
219,278,89060,1,0,3:0:0:0:
219,278,89151,2,0,P|254:292|292:296,1,63.7500024318696,0|0,3:0|0:0,0:0:0:0:
428,251,89515,5,8,0:0:0:0:
268,213,89697,1,0,0:0:0:0:
450,368,89879,1,0,3:0:0:0:
506,155,90060,2,0,P|513:80|512:23,1,127.500004863739,0|0,3:0|0:0,0:0:0:0:
314,93,90606,6,0,P|353:97|389:99,1,63.7500024318696,0|0,0:0|0:0,0:0:0:0:
225,18,90970,2,0,P|193:19|161:24,1,63.7500024318696,8|0,0:0|0:0,0:0:0:0:
99,183,91333,1,0,3:0:0:0:
194,102,91515,1,0,0:0:0:0:
20,69,91697,6,0,L|31:138,1,63.7500024318696,0|8,0:0|0:0,0:0:0:0:
115,319,92060,2,0,L|125:256,1,63.7500024318696,0|0,3:0|0:0,0:0:0:0:
194,102,92424,1,8,0:0:0:0:
25,212,92606,1,0,3:0:0:0:
205,304,92788,1,0,0:0:0:0:
101,140,92970,2,0,L|108:267,1,127.500004863739,0|0,3:0|0:0,0:0:0:0:
261,192,93515,5,0,0:0:0:0:
261,192,93697,1,0,0:0:0:0:
49,82,93879,1,8,0:0:0:0:
243,39,94060,2,0,P|247:74|236:122,1,63.7500024318696,0|0,0:0|3:0,0:0:0:0:
92,252,94424,5,0,0:0:0:0:
49,82,94606,1,0,0:0:0:0:
225,199,94788,1,8,0:0:0:0:
225,199,94879,1,0,3:0:0:0:
225,199,94970,2,0,P|193:195|163:184,1,63.7500024318696,0|0,3:0|0:0,0:0:0:0:
317,164,95333,5,8,0:0:0:0:
257,335,95515,1,0,3:0:0:0:
210,109,95697,1,0,3:0:0:0:
344,307,95879,6,0,B|358:315|368:301|368:301|394:310,10,42.5,0|0|0|0|0|0|0|0|0|0|0,3:0|0:0|0:0|0:0|0:0|0:0|0:0|0:0|0:0|0:0|0:0,0:0:0:0:
257,335,96424,6,0,P|233:333|201:325,1,42.5,0|0,0:0|0:0,0:0:0:0:
63,222,96788,1,8,0:0:0:0:
91,340,96970,2,0,P|93:327|94:317,1,21.25,0|0,3:0|3:0,0:0:0:0:
34,77,97151,6,0,L|21:167,1,63.7500024318696,6|0,3:2|0:0,0:0:0:0:
178,315,97515,2,0,L|165:224,1,63.7500024318696,2|0,0:0|0:0,0:0:0:0:
153,128,97879,1,2,3:2:0:0:
2,266,98060,1,0,0:0:0:0:
244,182,98242,1,10,0:0:0:0:
244,182,98606,5,2,0:0:0:0:
21,142,98788,1,0,3:0:0:0:
177,263,98970,1,2,3:2:0:0:
107,70,99151,1,0,0:0:0:0:
94,320,99333,1,2,0:0:0:0:
94,320,99697,5,10,0:0:0:0:
480,263,100060,2,0,L|404:259,1,63.7500024318696,2|0,3:2|0:0,0:0:0:0:
209,249,100424,1,2,0:0:0:0:
363,356,100606,1,8,0:0:0:0:
366,348,100697,1,0,3:0:0:0:
368,339,100788,1,2,3:2:0:0:
274,190,100970,1,0,0:0:0:0:
271,321,101151,5,10,0:0:0:0:
359,163,101333,1,0,3:2:0:0:
147,177,101515,1,2,3:2:0:0:
354,286,101697,1,0,3:2:0:0:
354,286,101879,6,0,L|430:276,1,63.7500024318696,2|0,3:2|0:0,0:0:0:0:
251,121,102242,2,0,P|237:150|230:181,1,63.7500024318696,2|0,0:0|0:0,0:0:0:0:
168,381,102606,2,0,L|161:250,1,127.500004863739,10|2,0:0|3:2,0:0:0:0:
145,112,103151,1,0,0:0:0:0:
50,261,103333,5,2,0:0:0:0:
263,170,103515,1,8,0:0:0:0:
56,87,103697,1,2,3:2:0:0:
147,300,103879,1,0,0:0:0:0:
304,101,104060,6,0,P|273:92|222:100,1,63.7500024318696,10|0,0:0|3:0,0:0:0:0:
53,174,104424,1,2,0:0:0:0:
251,297,104606,1,0,3:0:0:0:
251,297,104788,6,0,L|259:152,1,127.500004863739,2|2,3:2|0:0,0:0:0:0:
394,14,105515,2,0,L|390:77,1,63.7500024318696,10|0,0:0|0:0,0:0:0:0:
273,207,105879,2,0,L|276:143,1,63.7500024318696,2|0,3:2|0:0,0:0:0:0:
408,304,106242,6,0,P|389:316|364:324,3,31.8750012159348,2|0|8|0,0:0|0:0|0:0|3:0,0:0:0:0:
301,304,106606,1,2,3:2:0:0:
268,301,106696,1,0,0:0:0:0:
239,288,106787,1,0,0:0:0:0:
217,266,106878,1,0,0:0:0:0:
204,233,106970,6,0,L|210:169,3,42.5,10|0|0|0,0:0|0:0|3:0|0:0,0:0:0:0:
120,256,107333,1,2,3:2:0:0:
118,270,107424,1,2,0:0:0:0:
117,283,107515,1,2,3:2:0:0:
116,297,107606,1,0,3:0:0:0:
115,312,107697,6,0,L|106:223,1,85,6|0,0:0|0:0,0:0:0:0:
24,225,108242,1,0,0:0:0:0:
24,225,108333,1,0,0:0:0:0:
24,225,108424,2,0,P|66:235|116:224,1,85,2|0,0:0|0:0,0:0:0:0:
212,141,108970,1,0,0:0:0:0:
212,141,109060,1,0,0:0:0:0:
212,141,109151,6,0,P|201:168|197:194,1,42.5,2|0,0:0|0:0,0:0:0:0:
213,271,109515,1,2,0:0:0:0:
324,204,109697,1,0,0:0:0:0:
324,204,109788,1,0,0:0:0:0:
324,204,109879,2,0,P|295:207|270:217,1,42.5,2|0,0:0|0:0,0:0:0:0:
205,312,110242,2,0,P|210:291|212:270,1,42.5,2|0,0:0|0:0,0:0:0:0:
83,214,110606,6,0,P|67:252|73:307,1,85,2|0,0:0|0:0,0:0:0:0:
214,321,111151,1,0,0:0:0:0:
214,321,111242,1,0,0:0:0:0:
214,321,111333,2,0,P|189:288|138:265,1,85,2|0,0:0|0:0,0:0:0:0:
55,380,111879,1,0,0:0:0:0:
55,380,111970,1,0,0:0:0:0:
55,380,112060,2,0,P|95:374|140:342,1,85,2|0,0:0|0:0,0:0:0:0:
164,244,112606,1,0,0:0:0:0:
164,244,112697,1,0,0:0:0:0:
164,244,112788,6,0,L|159:184,1,55.2499974708558,2|0,0:0|0:0,0:0:0:0:
74,43,113151,2,0,L|80:125,1,68,2|0,0:0|0:0,0:0:0:0:
159,188,113515,6,0,P|241:211|334:181,1,170,2|2,3:2|3:2,0:0:0:0:
426,77,114060,1,0,0:0:0:0:
426,77,114151,1,0,0:0:0:0:
426,77,114242,2,0,L|411:257,1,170,2|2,3:2|3:2,0:0:0:0:
335,358,114788,1,0,0:0:0:0:
335,358,114879,1,0,0:0:0:0:
335,358,114970,6,0,L|320:178,1,170,2|2,3:2|3:2,0:0:0:0:
357,24,115515,1,0,0:0:0:0:
357,24,115606,1,0,0:0:0:0:
357,24,115697,2,0,P|311:41|253:42,1,85,2|0,3:2|0:0,0:0:0:0:
107,6,116060,2,0,P|144:37|174:87,1,85,2|0,3:2|3:0,0:0:0:0:
138,218,116424,5,2,3:2:0:0:
82,90,116606,1,0,3:0:0:0:
208,248,116788,1,2,3:2:0:0:
78,110,116970,1,0,3:0:0:0:
280,219,117151,5,2,3:2:0:0:
58,184,117333,1,0,3:2:0:0:
325,151,117515,1,2,3:2:0:0:
62,204,117697,1,0,3:2:0:0:
280,349,117879,5,0,0:0:0:0:
286,317,117969,1,0,0:0:0:0:
283,285,118060,1,0,0:0:0:0:
271,255,118151,1,0,0:0:0:0:
253,229,118242,1,0,0:0:0:0:
234,204,118333,1,0,0:0:0:0:
222,174,118424,1,0,0:0:0:0:
219,143,118515,1,0,0:0:0:0:
225,110,118606,6,0,L|238:47,3,42.5
297,21,118970,1,8,0:0:0:0:
448,229,119151,1,0,3:0:0:0:
448,229,119242,1,0,3:0:0:0:
448,229,119333,6,0,P|464:182|452:125,1,93.5000028533936,4|0,3:2|0:0,0:0:0:0:
252,257,119697,2,0,P|236:304|248:361,1,93.5000028533936,0|0,0:0|0:0,0:0:0:0:
446,308,120060,1,8,0:0:0:0:
221,176,120242,2,0,P|186:205|167:247,1,93.5000028533936,0|0,0:0|3:0,0:0:0:0:
360,375,120606,2,0,L|351:179,1,187.000005706787,0|8,0:0|0:0,0:0:0:0:
340,20,121151,1,0,3:0:0:0:
340,20,121515,5,8,0:0:0:0:
383,188,121697,1,0,3:0:0:0:
260,26,121879,1,0,0:0:0:0:
463,188,122060,1,0,3:0:0:0:
232,93,122242,6,0,P|185:86|129:94,1,93.5000028533936,0|0,3:0|0:0,0:0:0:0:
0,230,122606,2,0,P|46:236|102:228,1,93.5000028533936
249,95,122970,1,8,0:0:0:0:
88,310,123151,2,0,P|134:296|171:271,1,93.5000028533936,0|0,0:0|3:0,0:0:0:0:
249,95,123515,2,0,L|267:307,1,187.000005706787,0|8,0:0|0:0,0:0:0:0:
263,313,123970,1,0,3:0:0:0:
263,313,124060,1,0,3:0:0:0:
346,250,124242,5,0,0:0:0:0:
184,270,124424,1,8,0:0:0:0:
397,331,124606,1,0,3:0:0:0:
276,125,124788,1,0,3:0:0:0:
333,374,124970,1,0,3:0:0:0:
482,152,125151,6,0,P|490:103|473:38,1,93.5000028533936,0|0,3:0|0:0,0:0:0:0:
275,193,125515,2,0,P|313:224|378:242,1,93.5000028533936,0|0,0:0|0:0,0:0:0:0:
264,33,125879,1,8,0:0:0:0:
190,211,126060,2,0,P|207:257|254:305,1,93.5000028533936,0|0,0:0|3:0,0:0:0:0:
462,203,126424,2,0,L|275:193,1,187.000005706787,0|8,0:0|0:0,0:0:0:0:
8,174,126970,2,0,L|101:178,1,93.5000028533936,0|0,3:0|0:0,0:0:0:0:
275,193,127333,5,8,0:0:0:0:
65,256,127515,1,0,3:0:0:0:
214,109,127697,1,0,0:0:0:0:
160,352,127879,1,0,3:0:0:0:
209,95,128060,2,0,P|194:142|201:200,1,93.5000028533936,0|0,3:0|0:0,0:0:0:0:
309,351,128424,5,0,0:0:0:0:
492,136,128606,2,0,P|441:143|394:169,1,93.5000028533936,0|8,0:0|0:0,0:0:0:0:
297,361,128970,1,0,0:0:0:0:
362,81,129151,5,0,3:0:0:0:
162,278,129333,2,0,P|212:271|260:245,1,93.5000028533936
491,134,129697,5,8,0:0:0:0:
484,128,129788,1,0,3:0:0:0:
476,123,129878,1,0,3:0:0:0:
187,174,130060,1,0,0:0:0:0:
400,380,130242,1,8,0:0:0:0:
467,106,130424,1,0,3:0:0:0:
400,380,130606,2,0,L|419:295,1,85,0|0,0:0|0:0,0:0:0:0:
361,46,130970,6,0,P|368:106|355:150,1,93.5000028533936,4|0,3:2|0:0,0:0:0:0:
255,319,131333,2,0,P|248:259|261:215,1,93.5000028533936,0|0,0:0|0:0,0:0:0:0:
443,146,131697,1,8,0:0:0:0:
172,248,131879,2,0,P|185:189|213:152,1,93.5000028533936,0|0,0:0|3:0,0:0:0:0:
461,230,132242,2,0,P|370:249|278:236,1,187.000005706787,0|8,0:0|0:0,0:0:0:0:
82,108,132788,1,0,3:0:0:0:
181,137,132970,5,0,0:0:0:0:
16,169,133151,1,8,0:0:0:0:
247,77,133333,1,0,3:0:0:0:
172,321,133515,1,0,0:0:0:0:
82,108,133697,1,0,3:0:0:0:
350,227,133879,6,0,P|303:238|238:240,1,93.5000028533936,0|0,3:0|0:0,0:0:0:0:
31,217,134242,2,0,P|77:206|124:203,1,93.5000028533936,0|0,0:0|0:0,0:0:0:0:
259,326,134606,1,8,0:0:0:0:
92,123,134788,2,0,P|142:123|184:141,1,93.5000028533936,0|0,0:0|3:0,0:0:0:0:
95,373,135151,2,0,P|80:282|124:202,1,187.000005706787,0|8,0:0|0:0,0:0:0:0:
146,205,135606,1,0,3:0:0:0:
146,205,135697,1,0,3:0:0:0:
348,258,135879,5,0,0:0:0:0:
198,300,136060,1,8,0:0:0:0:
366,185,136242,1,0,3:0:0:0:
179,376,136424,1,0,3:0:0:0:
99,140,136606,1,0,3:0:0:0:
287,316,136788,6,0,B|264:319|264:319|239:317|239:317|217:312|217:312|195:297,1,93.5000028533936,0|0,3:0|0:0,0:0:0:0:
7,209,137151,2,0,B|30:205|30:205|55:208|55:208|77:214|77:214|99:228,1,93.5000028533936
179,376,137515,1,8,0:0:0:0:
246,122,137697,2,0,B|243:150|243:150|256:182|256:182|250:216,1,93.5000028533936,0|0,0:0|3:0,0:0:0:0:
89,383,138060,2,0,B|95:353|95:353|77:323|77:323|84:288,1,93.5000028533936
124,122,138424,1,8,0:0:0:0:
168,338,138606,1,0,3:0:0:0:
312,235,138788,6,0,B|324:238|324:238|330:223|331:223|346:238|346:238|361:229|361:229|373:228|377:233|387:233,1,72.2500013780594
445,218,138970,6,0,L|345:207,1,93.5000028533936,8|0,0:0|3:0,0:0:0:0:
113,174,139333,1,0,0:0:0:0:
271,374,139515,1,0,3:0:0:0:
286,96,139697,2,0,P|252:136|236:182,1,93.5000028533936,0|0,3:0|0:0,0:0:0:0:
376,370,140060,5,0,0:0:0:0:
456,112,140242,2,0,P|408:128|369:161,1,93.5000028533936,0|8,0:0|0:0,0:0:0:0:
244,359,140606,1,0,0:0:0:0:
512,248,140788,5,0,3:0:0:0:
156,200,140970,2,0,P|187:234|247:258,1,93.5000028533936,0|8,0:0|0:0,0:0:0:0:
477,138,141333,5,8,0:0:0:0:
468,134,141424,1,0,3:0:0:0:
459,130,141515,1,0,3:0:0:0:
196,132,141697,1,0,0:0:0:0:
372,290,141879,1,8,0:0:0:0:
293,27,142060,1,0,3:0:0:0:
376,283,142242,2,0,P|367:225|347:174,1,93.5000028533936,0|0,3:0|3:0,0:0:0:0:
103,319,142606,6,0,L|244:336,1,136,6|2,0:0|0:0,0:0:0:0:
490,176,143333,2,0,L|354:192,1,136,2|2,0:0|0:0,0:0:0:0:
111,330,144060,6,0,L|181:338,1,68,2|0,0:0|0:0,0:0:0:0:
319,282,144424,2,0,L|248:290,1,68,2|0,0:0|0:0,0:0:0:0:
74,220,144788,2,0,L|144:228,1,68,2|0,0:0|0:0,0:0:0:0:
351,171,145152,2,0,L|280:179,1,68,2|0,0:0|0:0,0:0:0:0:
422,364,145515,6,0,L|433:220,1,136,2|2,0:0|0:0,0:0:0:0:
299,42,146242,2,0,L|309:177,1,136,2|2,0:0|0:0,0:0:0:0:
409,373,146970,2,0,L|420:229,1,136,2|2,0:0|0:0,0:0:0:0:
200,142,147697,6,0,L|205:209,1,68,2|0,0:0|0:0,0:0:0:0:
306,322,148060,2,0,L|311:254,1,68,2|0,0:0|0:0,0:0:0:0:
477,115,148424,6,0,P|429:113|387:130,1,85,2|0,3:2|0:0,0:0:0:0:
299,250,148788,2,0,P|341:227|369:192,1,85,2|0,3:2|0:0,0:0:0:0:
372,26,149151,5,2,3:2:0:0:
196,153,149333,1,0,0:0:0:0:
196,153,149424,1,0,3:0:0:0:
196,153,149515,2,0,P|241:166|286:161,1,85,2|0,3:2|3:0,0:0:0:0:
386,21,149879,6,0,L|372:123,1,85,2|0,3:2|0:0,0:0:0:0:
451,278,150242,2,0,L|437:176,1,85,2|0,3:2|0:0,0:0:0:0:
267,80,150606,6,0,P|267:118|278:164,1,85,2|0,3:2|0:0,0:0:0:0:
323,234,150879,1,0,3:2:0:0:
323,234,150970,1,2,3:2:0:0:
382,105,151151,1,0,3:0:0:0:
192,148,151333,5,2,3:2:0:0:
380,182,151515,1,0,3:2:0:0:
184,164,151697,1,2,3:2:0:0:
382,105,151879,1,0,3:2:0:0:
249,233,152060,6,0,P|268:204|277:162,1,42.5,2|0,3:2|3:2,0:0:0:0:
255,23,152242,2,0,P|253:57|266:98,1,42.5,0|0,3:2|3:2,0:0:0:0:
365,218,152424,2,0,P|349:187|317:158,1,42.5,2|0,3:2|3:2,0:0:0:0:
158,84,152606,2,0,P|187:103|229:112,1,42.5,0|0,3:2|3:2,0:0:0:0:
387,120,152788,5,2,0:0:0:0:
367,110,152878,1,0,0:0:0:0:
347,107,152969,1,0,0:0:0:0:
326,109,153060,1,0,0:0:0:0:
306,117,153151,1,2,0:0:0:0:
289,130,153242,1,0,0:0:0:0:
277,147,153333,1,0,0:0:0:0:
270,167,153424,1,0,0:0:0:0:
269,188,153515,6,0,L|271:235,3,42.5,2|0|0|0,0:0|0:0|0:0|0:0,0:0:0:0:
281,312,153879,1,2,0:0:0:0:
353,106,154060,1,0,0:0:0:0:
353,106,154151,1,0,0:0:0:0:
353,106,154242,6,0,B|372:99|377:99|382:110|382:110|401:98|415:100|425:101|425:101|441:97,1,89.2499972763062,0|0,3:0|0:0,0:0:0:0:
512,55,154606,6,0,B|500:50|500:50|527:125|504:96|508:212,1,136,4|0,0:0|3:0,0:0:0:0:
396,344,154970,1,8,0:0:0:0:
266,224,155151,1,0,0:0:0:0:
496,274,155333,1,0,0:0:0:0:
281,316,155515,6,0,B|269:324|264:303|226:316|226:316|226:330|175:318,1,110.499994941712,0|0,0:0|0:0,0:0:0:0:
17,180,155879,1,8,0:0:0:0:
179,215,156060,1,0,3:0:0:0:
71,334,156242,1,0,0:0:0:0:
108,111,156424,2,0,B|124:109|107:88|107:88|127:65|126:44|126:44|118:41|137:31|136:14,1,110.499994941712,8|0,0:0|3:0,0:0:0:0:
265,193,156788,2,0,B|278:208|257:213|282:214|268:233|268:233|287:247|267:280|273:281|273:281|279:292|276:301,1,110.499994941712,0|0,0:0|3:0,0:0:0:0:
22,250,157151,6,0,B|32:248|39:241|39:241|48:243|59:241|59:241|68:244|77:244|77:244|83:250|92:252|92:252|95:259|102:263|102:263|103:271,1,95.6250036478044,0|0,3:0|0:0,0:0:0:0:
115,349,157515,6,0,B|127:336|124:321|117:315|117:315|112:301|112:276|125:252|125:252|119:243,1,110.499994941712
173,6,157879,1,8,0:0:0:0:
108,168,158060,1,0,0:0:0:0:
0,30,158242,1,0,0:0:0:0:
229,114,158424,6,0,B|245:104|245:104|271:113|271:113|284:105|284:105|293:99|308:106|308:106|320:100|328:95,1,110.499994941712,0|0,0:0|0:0,0:0:0:0:
348,86,158697,1,0,0:0:0:0:
360,94,158788,1,8,0:0:0:0:
450,229,158970,6,0,B|444:232|444:232|438:223|422:245|416:231|416:231|405:234|404:234|383:228|370:241|370:241|354:227|339:231,1,110.499994941712,0|8,3:0|0:0,0:0:0:0:
308,232,159242,1,8,0:0:0:0:
282,220,159333,1,8,0:0:0:0:
473,56,159515,6,0,B|480:64|480:64|470:69|472:82|483:87|483:87|475:97|475:97|483:103|484:117|476:123|476:123|485:130|485:130|474:135|486:148,1,110.499994941712,0|0,3:0|0:0,0:0:0:0:
473,174,159788,1,0,0:0:0:0:
486,194,159879,1,0,3:0:0:0:
478,348,160060,5,0,3:0:0:0:
447,338,160151,1,0,0:0:0:0:
432,347,160242,1,0,0:0:0:0:
400,342,160333,1,0,0:0:0:0:
388,352,160424,6,0,B|361:358|357:347|357:347|322:348|325:358|325:358|306:348|280:350,1,110.499994941712,0|0,0:0|0:0,0:0:0:0:
42,220,160788,2,0,B|67:218|73:225|73:225|87:216|87:216|108:224|128:204|150:222,1,110.499994941712,8|0,0:0|0:0,0:0:0:0:
133,373,161151,2,0,B|118:365|114:351|114:351|112:355|112:355|103:342|104:326|104:326|102:331|102:331|97:309|109:285,1,110.499994941712,0|0,3:0|0:0,0:0:0:0:
154,138,161515,1,0,0:0:0:0:
286,349,161697,1,8,0:0:0:0:
332,191,161879,6,0,B|334:186|344:181|344:181|350:184|350:184|362:183|364:176|364:176|366:169|374:171,6,42.5,0|0|0|0|0|0|0,3:0|3:0|3:0|3:0|3:0|3:0|3:0,0:0:0:0:
411,81,162242,6,0,B|414:71|411:59|411:59|416:64|416:64|411:47|403:40|403:40|410:40|410:40|402:28|389:22|389:22|396:21|396:21|380:15|371:14|371:14|377:9|377:9|364:4|349:11,1,144.500002756119,8|0,3:0|3:2,0:0:0:0:
270,194,162606,2,0,B|276:201|288:205|288:205|281:206|281:206|298:211|308:207|308:207|305:213|305:213|319:212|331:204|331:204|328:211|328:211|341:200|347:193|347:193|348:200|348:200|359:191|361:175,1,144.500002756119,0|0,0:0|3:2,0:0:0:0:
229,12,162970,2,0,B|194:47|197:97|197:97,1,93.5000028533936,0|0,3:0|0:0,0:0:0:0:
244,284,163333,5,0,0:0:0:0:
286,81,163515,1,0,0:0:0:0:
86,154,163697,2,0,B|94:205|147:225|147:225,1,93.5000028533936,0|0,0:0|0:0,0:0:0:0:
370,200,164060,5,0,3:0:0:0:
159,41,164242,2,0,B|163:78|170:77|180:145,1,93.5000028533936,0|0,0:0|0:0,0:0:0:0:
259,305,164606,1,8,0:0:0:0:
261,295,164697,1,0,3:0:0:0:
263,285,164788,5,0,3:0:0:0:
296,90,164970,1,0,0:0:0:0:
77,215,165151,2,0,B|85:222|96:221|96:221|105:228|116:225|116:225|126:232|140:229|140:229|153:233|162:226|162:226|174:230|182:223|182:223|194:226|204:217,1,127.500004863739,8|0,0:0|3:0,0:0:0:0:
380,139,165515,6,0,B|383:145|383:145|377:152|386:158|386:158|379:176|379:176|386:186,6,42.5,0|0|0|0|0|0|0,0:0|0:0|0:0|0:0|0:0|0:0|0:0,0:0:0:0:
418,239,165879,6,0,L|415:275,3,29.7499990921021,0|0|0|0,0:0|0:0|0:0|0:0,0:0:0:0:
411,301,166242,5,0,0:0:0:0:
426,331,166333,1,0,0:0:0:0:
414,360,166424,1,0,3:0:0:0:
291,179,166606,1,8,0:0:0:0:
175,253,166788,1,0,0:0:0:0:
145,261,166879,1,0,0:0:0:0:
131,252,166970,6,0,B|114:248|114:248|110:257|73:256|69:243|58:240|58:240|43:237|7:254,2,110.499994941712,4|0|0,3:2|0:0|0:0,0:0:0:0:
395,324,167515,1,8,0:0:0:0:
395,324,167606,1,0,3:0:0:0:
395,324,167697,1,0,3:0:0:0:
429,206,167879,2,0,B|435:185|435:185|433:166|433:166|425:145,1,55.2499974708558,0|0,3:0|3:0,0:0:0:0:
384,68,168060,2,0,B|370:64|370:64|361:67|361:67|360:60|360:60|342:62,4,42.5,8|0|0|0|0,0:0|0:0|0:0|0:0|3:0,0:0:0:0:
512,142,168424,2,0,B|522:152|522:152|508:164|508:164|518:191|518:191|521:216|521:216|509:240,1,110.499994941712,0|0,0:0|3:0,0:0:0:0:
276,254,168788,6,0,B|287:243|300:239|300:239|307:242|307:242|323:238|337:238|337:238|346:240|343:245|343:245|363:244|384:263,1,110.499994941712,0|0,3:0|0:0,0:0:0:0:
171,349,169151,1,0,0:0:0:0:
159,174,169333,1,0,0:0:0:0:
429,328,169515,2,0,B|418:339|405:343|405:343|398:340|398:340|382:344|368:344|368:344|355:342|362:337|362:337|342:338|321:319,1,110.499994941712,8|0,0:0|0:0,0:0:0:0:
371,148,169879,2,0,B|379:168|379:168|384:192|384:192|384:215|384:215|381:236|381:236|368:266,1,110.499994941712,0|0,3:0|0:0,0:0:0:0:
171,349,170242,5,0,0:0:0:0:
157,345,170333,1,0,0:0:0:0:
140,334,170424,2,0,B|130:345|130:345|114:339|114:339|90:344,2,55.2499974708558,8|0|0,0:0|0:0|0:0,0:0:0:0:
221,277,170697,1,0,3:0:0:0:
221,277,170788,2,0,B|245:286|245:286|245:276|245:276|271:267,1,55.2499974708558,0|0,3:0|0:0,0:0:0:0:
352,198,170970,6,0,B|337:203|337:203|321:204|290:187|290:187|279:195|263:181|247:179,1,110.499994941712,8|0,0:0|3:0,0:0:0:0:
46,116,171333,2,0,B|62:114|78:100|89:108|89:108|120:91|136:92|136:92|151:98,1,110.499994941712,0|0,0:0|3:0,0:0:0:0:
111,279,171697,6,0,B|94:267|94:267|90:270|90:270|80:247|80:247|76:250|76:250|77:222|77:222|72:221|72:221|82:202,1,110.499994941712,0|0,3:0|0:0,0:0:0:0:
173,11,172060,1,0,0:0:0:0:
328,156,172242,2,0,B|335:155|335:155|350:150|362:151|362:151|369:148,4,42.5,0|0|0|0|8,3:0|0:0|0:0|0:0|0:0,0:0:0:0:
106,110,172606,1,0,0:0:0:0:
331,62,172788,6,0,B|326:89|326:89|330:88|330:88|327:105|329:120|333:125|333:125|326:122|326:122|329:128|327:165,1,110.499994941712,0|0,0:0|0:0,0:0:0:0:
173,319,173151,2,0,B|170:291|172:285|172:285|165:289|165:289|169:283|170:268|166:251|166:251|170:252|170:252|164:226,1,110.499994941712,0|0,0:0|3:0,0:0:0:0:
374,317,173515,2,0,B|366:323|353:317|353:317|342:325|329:319|329:319|316:327|304:319|304:319|291:330|281:316|281:316|271:331|259:314,1,110.499994941712,0|0,0:0|0:0,0:0:0:0:
91,277,173879,5,8,0:0:0:0:
337,243,174060,1,0,3:0:0:0:
79,307,174242,1,0,0:0:0:0:
314,247,174424,1,0,0:0:0:0:
64,189,174606,2,0,B|49:179|47:165|47:165|40:158|40:158|42:151|46:133|46:133|42:131|42:131|40:120|53:98,1,93.5000028533936,0|0,3:0|0:0,0:0:0:0:
303,276,174970,5,0,0:0:0:0:
57,315,175151,1,0,0:0:0:0:
248,86,175333,2,0,B|258:95|258:95|243:110|243:110|248:113|246:129|246:129|254:142|228:172|240:183|240:183|230:200,1,127.500004863739,8|0,0:0|0:0,0:0:0:0:
141,22,175697,5,0,3:0:0:0:
339,88,175879,1,0,0:0:0:0:
156,241,176060,1,0,0:0:0:0:
244,1,176242,2,0,B|234:12|234:12|243:26|243:26|248:41|248:41|246:56|246:56|252:74|252:74|244:94,1,93.5000028533936,0|0,0:0|0:0,0:0:0:0:
190,304,176606,5,0,3:0:0:0:
310,204,176788,2,0,B|320:200|320:200|332:202|346:193|362:200,4,42.5,8|0|0|0|0,0:0|0:0|0:0|0:0|3:0,0:0:0:0:
190,304,177151,2,0,B|126:295|148:287|148:287|139:280|104:276|104:276,1,93.5000028533936,0|0,0:0|3:0,0:0:0:0:
45,117,177515,6,0,B|59:107|61:94|61:94|74:98|74:98|78:105|85:99|85:99|91:106|97:97|97:97|109:86|109:86|119:88|125:93|125:93|134:73|147:77|147:77|156:84|156:84|151:96|164:105|164:105|179:93|206:43|196:106|228:71|228:71|247:67|268:71,1,280.500008560181,4|0,0:0|0:0,0:0:0:0:
489,33,178242,5,0,0:0:0:0:
481,61,178333,1,0,0:0:0:0:
488,79,178424,1,0,0:0:0:0:
481,86,178515,1,0,0:0:0:0:
493,110,178606,1,2,0:0:0:0:
256,192,178697,12,0,181060,0:0:0:0:
