osu file format v14

[General]
AudioFilename: audio.mp3
AudioLeadIn: 0
PreviewTime: 49515
Countdown: 0
SampleSet: Soft
StackLeniency: 0.5
Mode: 0
LetterboxInBreaks: 0
WidescreenStoryboard: 1

[Editor]
Bookmarks: 11636,69818,81454,151272
DistanceSpacing: 1.1
BeatDivisor: 4
GridSize: 4
TimelineZoom: 1.3

[Metadata]
Title:Doki Doki Forever (ft. rachie, Chi-chi, Kathy-chan*)
TitleUnicode:Doki Doki Forever (ft. rachie, Chi-chi, Kathy-chan★)
Artist:OR3O
ArtistUnicode:OR3O
Creator:DTM9 Nowa
Version:Easy
Source:Doki Doki Literature Club!
Tags:ddlc team salvato sayori yuri natsuki just monika Ohwow Akitoshi -laura- Laura Corinn trap dance edm
BeatmapID:1722008
BeatmapSetID:783394

[Difficulty]
HPDrainRate:2
CircleSize:2.5
OverallDifficulty:2
ApproachRate:3
SliderMultiplier:0.85
SliderTickRate:1

[Events]
//Background and Video events
Video,-190,"dokidoki.avi"
0,0,"Doki Doki Forever.jpg",0,0
//Break Periods
2,72988,77166
//Storyboard Layer 0 (Background)
//Storyboard Layer 1 (Fail)
//Storyboard Layer 2 (Pass)
//Storyboard Layer 3 (Foreground)
//Storyboard Sound Samples

[TimingPoints]
2970,363.636363636364,4,2,1,70,1,0
49515,-100,4,2,1,70,0,1
72788,-100,4,2,1,70,0,0
78606,-100,4,2,1,45,0,0
85151,-100,4,2,1,60,0,0
119333,-100,4,2,1,70,0,1
142606,-100,4,2,1,70,0,0
154606,-100,4,2,1,60,0,1
157151,-100,4,2,1,60,0,0
157515,-100,4,2,1,60,0,1
160060,-100,4,2,1,60,0,0
160424,-100,4,2,1,60,0,1
161879,-100,4,2,1,60,0,0
162242,-100,4,2,1,60,0,1
162970,-100,4,2,1,60,0,1
165151,-100,4,2,1,60,0,1
165515,-100,4,2,1,60,0,0
165879,-100,4,2,1,60,0,0
166151,-100,4,2,1,5,0,0
166242,-100,4,2,1,60,0,0
166606,-100,4,2,1,60,0,0
166970,-100,4,2,1,60,0,1
168060,-100,4,2,1,60,0,1
168424,-100,4,2,1,60,0,1
172242,-100,4,2,1,60,0,1
172424,-100,4,2,1,60,0,1
173879,-100,4,2,1,60,0,1
174242,-100,4,2,1,60,0,1
175333,-100,4,2,1,60,0,1
175697,-100,4,2,1,60,0,1
176788,-100,4,2,1,60,0,1
176970,-100,4,2,1,60,0,1
177515,-100,4,2,1,60,0,0
179697,-90.9090909090909,4,2,1,50,0,0
180060,-90.9090909090909,4,2,1,40,0,0
180424,-90.9090909090909,4,2,1,30,0,0
180788,-90.9090909090909,4,2,1,20,0,0
181060,-90.9090909090909,4,2,1,5,0,0

[Colours]
Combo1 : 225,137,100
Combo2 : 187,69,83
Combo3 : 94,54,116
Combo4 : 207,103,153

[HitObjects]
303,342,14606,5,0,3:0:0:0:
212,320,14970,2,0,P|167:318|109:329,2,85,0|8|0,0:0|0:0|3:0,0:0:0:0:
303,342,16060,1,0,0:0:0:0:
317,249,16424,1,0,3:0:0:0:
386,186,16788,2,0,L|400:92,1,85,8|0,0:0|0:0,0:0:0:0:
334,33,17515,6,0,P|279:76|169:85,1,170,0|8,3:0|0:0,0:0:0:0:
94,53,18606,1,0,3:0:0:0:
107,146,18970,2,0,L|94:236,2,85,0|0|8,0:0|3:0|0:0,0:0:0:0:
181,88,20060,2,0,L|271:75,1,85,0|0,3:0|3:0,0:0:0:0:
352,42,20788,6,0,P|357:84|375:131,1,85,0|8,0:0|0:0,0:0:0:0:
437,190,21515,1,0,3:0:0:0:
369,255,21879,2,0,P|355:295|350:338,2,85,0|0|8,0:0|3:0|0:0,0:0:0:0:
438,191,22970,6,0,L|254:203,1,170,0|0,0:0|0:0,0:0:0:0:
182,238,24060,1,8,0:0:0:0:
90,217,24424,1,0,3:0:0:0:
90,217,25697,6,0,P|88:149|49:98,1,127.5,0|2,0:0|0:0,0:0:0:0:
107,25,26606,2,0,P|147:47|198:54,1,85,2|8,0:0|0:0,0:0:0:0:
276,34,27333,1,6,0:0:0:0:
324,114,27697,5,2,0:0:0:0:
415,94,28061,2,0,P|456:102|493:123,1,85,2|10,3:2|0:0,0:0:0:0:
482,216,28788,2,0,P|495:256|495:298,2,85,2|2|2,0:0|3:2|0:0,0:0:0:0:
394,182,29879,1,10,0:0:0:0:
312,226,30242,6,0,B|229:248|226:200|134:228,1,170,2|2,3:2|3:2,0:0:0:0:
80,293,31333,2,0,P|99:224|82:118,1,170,10|2,0:0|3:2,0:0:0:0:
34,49,32424,1,2,0:2:0:0:
128,44,32788,2,0,P|180:33|223:12,1,85,10|2,0:0|3:2,0:0:0:0:
293,60,33515,6,0,P|377:30|475:38,2,170,2|10|2,0:0|0:0|3:2,0:0:0:0:
201,223,35697,2,0,L|210:308,1,85,10|2,0:0|3:2,0:0:0:0:
462,244,37879,6,0,L|484:65,2,170,6|2|2,0:0|0:0|0:0,0:0:0:0:
388,301,39697,2,0,P|308:312|230:269,1,170,2|2,0:0|0:0,0:0:0:0:
173,197,40788,2,0,L|193:377,2,170,2|2|2,0:0|0:0|0:0,0:0:0:0:
96,26,42970,2,0,L|86:111,1,85,2|2,0:0|0:0,0:0:0:0:
150,178,43697,6,0,L|253:165,1,85,2|2,3:2|0:0,0:0:0:0:
300,101,44424,2,0,L|403:88,1,85,2|2,3:2|0:0,0:0:0:0:
462,39,45151,2,0,P|479:83|464:137,1,85,2|2,3:2|0:0,0:0:0:0:
414,192,45879,1,2,3:2:0:0:
449,278,46242,1,2,0:0:0:0:
380,341,46606,6,0,L|287:349,1,85,2|2,3:2|3:2,0:0:0:0:
243,270,47333,2,0,L|327:262,1,85,2|2,3:2|3:2,0:0:0:0:
415,226,48060,2,0,P|428:130|322:188,1,255,2|2,3:2|3:2,0:0:0:0:
309,263,49515,5,4,3:2:0:0:
226,219,49879,1,0,0:0:0:0:
133,206,50242,2,0,L|2:232,2,127.5,8|0|0,0:0|0:0|3:0,0:0:0:0:
226,219,51697,2,0,L|323:199,1,85,8|0,0:0|0:0,0:0:0:0:
398,232,52424,5,0,3:0:0:0:
471,173,52788,2,0,P|487:114|464:38,1,127.5,0|0,0:0|0:0,0:0:0:0:
384,17,53697,2,0,P|351:29|284:31,1,85,0|8,0:0|0:0,0:0:0:0:
221,81,54424,2,0,P|153:54|83:62,1,127.5,0|0,0:0|3:0,0:0:0:0:
28,116,55333,5,0,3:0:0:0:
49,207,55697,1,0,0:0:0:0:
70,298,56060,2,0,P|143:251|251:315,1,212.5,8|8,0:0|0:0,0:0:0:0:
328,347,57333,2,0,P|338:302|330:253,1,85,0|0,0:0|3:0,0:0:0:0:
316,171,58060,5,0,3:0:0:0:
176,189,58606,2,0,L|4:170,2,170,0|0|0,0:0|3:0|3:0,0:0:0:0:
247,249,60424,2,0,L|341:237,1,85,8|0,0:0|0:0,0:0:0:0:
413,283,61151,5,4,3:2:0:0:
489,229,61515,1,0,0:0:0:0:
475,136,61879,2,0,P|430:74|303:95,1,212.5,8|8,0:0|0:0,0:0:0:0:
214,95,63151,2,0,P|174:122|97:120,1,127.5,0|0,0:0|0:0,0:0:0:0:
30,53,64060,5,0,3:0:0:0:
7,143,64424,2,0,L|0:272,1,127.5,0|0,0:0|0:0,0:0:0:0:
82,313,65333,2,0,L|87:214,1,85,0|8,0:0|0:0,0:0:0:0:
171,189,66060,2,0,P|230:171|299:209,1,127.5,0|0,0:0|3:0,0:0:0:0:
310,287,66970,5,0,3:0:0:0:
246,355,67333,1,0,0:0:0:0:
158,321,67697,1,8,0:0:0:0:
154,180,68242,2,0,L|170:51,1,127.5,0|0,0:0|3:0,0:0:0:0:
256,18,69151,1,8,0:0:0:0:
341,56,69515,6,0,P|366:50|390:48,2,42.5,0|0|0,0:0|3:0|3:0,0:0:0:0:
256,18,70242,2,0,P|173:23|68:9,2,170,0|0|0,0:0|3:0|3:0,0:0:0:0:
339,60,72060,2,0,P|346:107|369:148,1,85,8|0,0:0|3:0,0:0:0:0:
422,212,72788,5,4,0:0:0:0:
256,192,78606,12,0,82970,0:0:0:0:
330,135,84788,5,0,0:0:0:0:
243,166,85151,2,0,L|148:157,1,85,8|4,0:0|3:2,0:0:0:0:
98,84,85879,2,0,P|60:157|97:230,1,170,0|8,0:0|0:0,0:0:0:0:
182,270,86970,1,0,0:0:0:0:
259,217,87333,6,0,B|344:189|344:243|430:219,1,170,0|8,3:0|0:0,0:0:0:0:
483,147,88424,2,0,L|493:51,2,85,0|0|0,3:0|0:0|3:0,0:0:0:0:
425,220,89515,2,0,L|435:316,1,85,8|0,0:0|3:0,0:0:0:0:
363,367,90242,5,0,0:0:0:0:
288,310,90606,2,0,P|236:302|192:314,1,85,0|8,0:0|0:0,0:0:0:0:
128,363,91333,1,0,3:0:0:0:
57,302,91697,2,0,L|44:205,1,85,0|0,0:0|3:0,0:0:0:0:
23,125,92424,2,0,P|103:142|139:215,1,170,8|0,0:0|0:0,0:0:0:0:
209,278,93515,5,0,0:0:0:0:
281,219,93879,2,0,L|301:83,2,127.5,8|0|0,0:0|0:0|3:0,0:0:0:0:
208,278,95333,1,8,0:0:0:0:
77,227,95879,6,0,B|54:199|84:180|66:151|66:151|54:126|67:93,1,127.5,0|0,3:0|0:0,0:0:0:0:
234,29,97151,5,6,3:2:0:0:
207,118,97515,1,2,0:0:0:0:
272,185,97879,2,0,P|310:194|369:181,1,85,2|10,3:2|0:0,0:0:0:0:
428,129,98606,1,2,0:0:0:0:
489,199,98970,2,0,L|496:284,2,85,2|2|10,3:2|0:0|0:0,0:0:0:0:
428,129,100060,6,0,P|352:95|270:121,1,170,2|2,3:2|3:2,0:0:0:0:
183,149,101151,2,0,P|197:188|200:231,1,85,10|2,0:0|3:2,0:0:0:0:
184,323,101879,5,2,3:2:0:0:
271,290,102242,1,2,0:0:0:0:
358,322,102606,2,0,P|411:322|450:307,1,85,10|2,0:0|3:2,0:0:0:0:
489,231,103333,2,0,L|508:46,2,170,2|10|2,0:0|0:0|3:2,0:0:0:0:
428,302,105151,5,2,0:0:0:0:
335,316,105515,1,10,0:0:0:0:
251,273,105879,1,2,3:2:0:0:
232,181,106242,2,0,B|168:199|144:257|162:314|162:314|143:258|96:224|15:245,1,340,2|6,0:0|0:0,0:0:0:0:
26,242,109151,6,0,P|38:204|33:143,1,85,2|2,0:0|0:0,0:0:0:0:
109,99,109879,2,0,P|147:111|208:106,1,85,2|2,0:0|0:0,0:0:0:0:
259,45,110606,2,0,L|433:27,2,170,2|2|2,0:0|0:0|0:0,0:0:0:0:
226,229,112788,2,0,L|329:242,1,85,2|2,0:0|0:0,0:0:0:0:
359,319,113515,6,0,L|256:332,1,85,2|2,3:2|3:2,0:0:0:0:
183,310,114242,2,0,L|80:323,1,85,2|2,3:2|3:2,0:0:0:0:
21,373,114969,2,0,P|4:329|19:275,1,85,2|2,3:2|3:2,0:0:0:0:
58,212,115697,1,2,3:2:0:0:
30,122,116060,1,2,3:2:0:0:
99,59,116424,6,0,L|192:51,1,85,2|2,3:2|3:2,0:0:0:0:
266,96,117151,2,0,L|350:104,1,85,2|2,3:2|3:2,0:0:0:0:
437,139,117879,2,0,P|450:235|344:177,1,255,0|8,0:0|0:0,0:0:0:0:
279,127,119333,5,4,3:2:0:0:
185,125,119697,1,0,0:0:0:0:
119,191,120060,2,0,L|109:323,2,127.5,8|0|0,0:0|0:0|3:0,0:0:0:0:
185,125,121515,2,0,L|192:27,1,85,8|0,0:0|0:0,0:0:0:0:
278,6,122242,5,0,3:0:0:0:
353,61,122606,1,0,0:0:0:0:
446,64,122970,2,0,P|347:101|313:208,1,212.5,8|8,0:0|0:0,0:0:0:0:
234,248,124242,2,0,L|216:108,1,127.5,0|0,0:0|3:0,0:0:0:0:
138,71,125151,5,0,3:0:0:0:
49,102,125515,1,0,0:0:0:0:
23,192,125879,2,0,L|39:318,2,127.5,8|0|0,0:0|0:0|3:0,0:0:0:0:
49,102,127333,1,8,0:0:0:0:
138,71,127697,2,0,P|183:72|232:92,1,85,0|0,0:0|3:0,0:0:0:0:
302,130,128424,6,0,P|372:99|474:111,2,170,0|0|0,0:0|3:0|3:0,0:0:0:0:
251,208,130242,2,0,L|242:300,1,85,8|0,0:0|0:0,0:0:0:0:
171,353,130970,5,4,3:2:0:0:
80,332,131333,1,0,0:0:0:0:
25,256,131697,2,0,L|14:116,2,127.5,8|0|0,0:0|0:0|3:0,0:0:0:0:
80,332,133151,2,0,P|131:341|178:332,1,85,8|0,0:0|0:0,0:0:0:0:
250,300,133879,5,0,3:0:0:0:
338,329,134242,1,0,0:0:0:0:
427,301,134606,2,0,L|450:88,1,212.5,8|8,0:0|0:0,0:0:0:0:
380,26,135879,2,0,P|306:25|266:78,1,127.5,0|0,0:0|3:0,0:0:0:0:
212,132,136788,5,0,3:0:0:0:
233,222,137151,1,0,0:0:0:0:
254,312,137515,2,0,B|329:323|329:323|357:312|358:312|393:310,2,127.5,8|0|0,0:0|0:0|3:0,0:0:0:0:
163,337,138970,1,8,0:0:0:0:
80,292,139333,6,0,L|38:299,2,42.5,0|0|0,0:0|3:0|3:0,0:0:0:0:
152,232,140060,2,0,P|174:147|144:53,2,170,0|0|0,0:0|3:0|3:0,0:0:0:0:
85,295,141878,2,0,P|130:292|187:309,1,85,8|0,0:0|3:0,0:0:0:0:
251,344,142606,5,6,0:0:0:0:
180,170,143333,1,2,0:0:0:0:
294,22,144060,1,2,0:0:0:0:
383,51,144424,1,2,0:0:0:0:
383,144,144787,1,2,0:0:0:0:
294,173,145151,1,2,0:0:0:0:
239,98,145515,5,2,0:0:0:0:
56,56,146242,1,2,0:0:0:0:
14,239,146970,1,2,0:0:0:0:
197,281,147697,1,2,0:0:0:0:
287,258,148060,1,2,0:0:0:0:
377,235,148424,6,0,L|459:215,1,85,2|2,3:2|3:2,0:0:0:0:
405,139,149151,2,0,L|322:158,1,85,2|2,3:2|3:2,0:0:0:0:
266,82,149879,2,0,L|348:62,1,85,2|2,3:2|3:2,0:0:0:0:
442,62,150606,1,2,3:2:0:0:
491,141,150970,1,2,3:2:0:0:
453,226,151333,6,0,L|435:345,1,85,2|2,3:2|3:2,0:0:0:0:
356,352,152060,2,0,L|338:233,1,85,2|2,3:2|3:2,0:0:0:0:
279,198,152788,2,0,B|161:145|161:256|21:188,1,255,2|2,0:0|0:0,0:0:0:0:
8,103,154242,6,0,B|19:67|30:49|76:36,1,85,0|4,3:0|0:0,0:0:0:0:
154,47,154970,2,0,B|243:31|247:54|287:19,2,127.5,8|0|0,0:0|0:0|3:0,0:0:0:0:
98,121,156424,2,0,B|93:166|109:181|120:211,1,85,8|0,0:0|0:0,0:0:0:0:
95,293,157151,1,0,3:0:0:0:
188,289,157515,5,0,0:0:0:0:
261,346,157879,2,0,B|311:352|310:361|357:340,1,85,8|0,0:0|0:0,0:0:0:0:
403,273,158606,2,0,B|450:263|463:285|481:275|481:275|528:261,2,127.5,0|8|0,0:0|0:0|0:0,0:0:0:0:
314,241,160060,6,0,B|305:217|294:193|316:146,1,85,0|0,3:0|0:0,0:0:0:0:
361,79,160788,1,8,0:0:0:0:
273,45,161151,2,0,B|243:42|243:42|200:56|172:26|153:20|106:31,1,170,0|0,0:0|3:0,0:0:0:0:
45,102,162242,1,8,3:0:0:0:
64,193,162606,6,0,L|57:249,2,42.5,0|0|0,0:0|3:2|3:0,0:0:0:0:
142,142,163333,2,0,P|222:160|322:132,2,170,0|0|0,0:0|3:0|3:0,0:0:0:0:
64,193,165151,6,0,B|59:231|74:269|74:269|88:294|108:296|124:321|124:321|139:331|153:334|153:334|180:327|180:327|196:335|226:329,1,255,8|0,0:0|0:0,0:0:0:0:
311,294,166606,1,8,0:0:0:0:
394,336,166970,6,0,B|407:303|398:296|398:245,1,85,4|0,3:2|0:0,0:0:0:0:
349,172,167697,2,0,B|385:164|398:152|398:152|418:137|415:120,2,85,0|8|0,3:0|0:0|0:0,0:0:0:0:
259,145,168788,5,0,3:0:0:0:
183,200,169151,1,0,0:0:0:0:
89,193,169515,2,0,B|79:181|62:161|62:161|58:146|65:100,1,85,8|0,0:0|3:0,0:0:0:0:
128,51,170242,2,0,B|100:31|100:31|90:33|78:27|78:27|60:30|48:23,2,85,0|0|8,0:0|0:0|0:0,0:0:0:0:
212,91,171333,2,0,B|221:85|239:88|239:88|251:82|261:84|261:84|289:64,1,85,0|0,0:0|3:0,0:0:0:0:
382,72,172060,6,0,B|420:67|420:67|424:72|424:72|444:62|475:71,2,85,0|8|0,0:0|0:0|0:0,0:0:0:0:
322,144,173151,1,0,0:0:0:0:
325,237,173515,1,0,0:0:0:0:
399,293,173879,2,0,B|443:299|456:289|456:289|498:280,2,85,8|0|0,0:0|0:0|3:0,0:0:0:0:
313,331,174970,5,0,0:0:0:0:
236,277,175333,2,0,B|205:256|181:262|181:262|156:273|132:272|132:272|111:281,2,127.5,8|0|0,0:0|0:0|0:0,0:0:0:0:
313,331,176788,2,0,B|324:299|324:299|333:267|326:244,1,85,8|0,0:0|0:0,0:0:0:0:
257,186,177515,6,0,B|227:163|227:163|219:149|219:149|208:130|208:130|208:114|208:114|204:82|204:82|213:52|213:52|222:35|222:35|243:39|243:39|264:27|264:27|281:39|281:39|300:37,1,255,4|2,0:0|0:0,0:0:0:0:
256,192,178697,12,0,181060,0:0:0:0:
