osu file format v14

[General]
AudioFilename: audio.mp3
AudioLeadIn: 0
PreviewTime: -1
Countdown: 1
SampleSet: None
StackLeniency: 1
Mode: 0
LetterboxInBreaks: 0
WidescreenStoryboard: 0

[Editor]
DistanceSpacing: 0.8
BeatDivisor: 8
GridSize: 12
TimelineZoom: 1

[Metadata]
Title:(Bongo Cat and Friends) Meow
TitleUnicode:【Bongo Cat and Friends】Meow
Artist:OR3O
ArtistUnicode:OR3O
Creator:Wixdom
Version:Mrowww
Source:
Tags:
BeatmapID:1789670
BeatmapSetID:856662

[Difficulty]
HPDrainRate:5
CircleSize:3
OverallDifficulty:6
ApproachRate:7
SliderMultiplier:1.4
SliderTickRate:1

[Events]
//Background and Video events
0,0,"bg.PNG",0,0
//Break Periods
//Storyboard Layer 0 (Background)
//Storyboard Layer 1 (Fail)
//Storyboard Layer 2 (Pass)
//Storyboard Layer 3 (Foreground)
//Storyboard Sound Samples

[TimingPoints]
2890,444.444444444444,4,3,1,100,1,0
66889,-90.9090909090909,4,3,1,100,0,1
86445,-100,4,3,1,100,0,0
88223,-100,4,3,1,100,0,1
109556,-100,4,3,1,100,0,0

[HitObjects]
264,192,1112,5,0,0:0:0:0:
372,96,1556,1,0,0:0:0:0:
360,264,2001,1,0,0:0:0:0:
276,312,2223,1,0,0:0:0:0:
288,192,2445,1,0,0:0:0:0:
204,240,2667,1,0,0:0:0:0:
144,120,2890,6,0,P|204:84|276:96,1,140
264,96,3778,2,0,P|360:144|396:192,1,140
288,216,4667,5,0,0:0:0:0:
384,168,4889,1,0,0:0:0:0:
300,108,5112,1,0,0:0:0:0:
204,156,5334,1,0,0:0:0:0:
336,180,6001,6,0,P|288:144|192:156,1,140
156,240,6889,2,0,P|204:216|240:228,1,70
300,276,7334,2,0,P|336:240|336:192,1,70
264,192,8001,2,0,P|132:168|144:120,1,210
336,96,8889,1,0,0:0:0:0:
360,168,9112,1,0,0:0:0:0:
108,252,10001,2,0,P|144:180|216:168,1,140
180,312,10889,2,0,P|264:276|264:204,1,140
348,324,11556,5,0,0:0:0:0:
336,240,11778,1,0,0:0:0:0:
216,312,12001,2,0,P|180:264|204:192,1,140
360,120,13112,2,0,P|312:96|228:132,1,140
312,180,14001,1,0,0:0:0:0:
228,216,14223,1,0,0:0:0:0:
144,168,14445,1,0,0:0:0:0:
204,96,14667,2,0,P|264:72|348:96,1,140
204,204,16001,1,0,0:0:0:0:
204,204,16223,6,0,P|288:252|444:168,1,280,0|2,0:0|0:0,0:0:0:0:
252,108,17556,1,8,0:0:0:0:
144,240,18001,1,2,0:0:0:0:
348,264,18445,1,8,0:0:0:0:
132,132,18889,5,2,0:0:0:0:
408,108,19334,1,8,0:0:0:0:
192,240,19778,1,2,0:0:0:0:
264,96,20223,1,8,0:0:0:0:
336,240,20667,5,2,0:0:0:0:
96,180,21112,1,8,0:0:0:0:
252,96,21556,1,2,0:0:0:0:
408,312,22001,1,8,0:0:0:0:
384,144,22445,5,2,0:0:0:0:
180,228,22889,1,8,0:0:0:0:
144,108,23334,1,2,0:0:0:0:
300,240,23778,1,8,0:0:0:0:
288,120,24223,5,2,0:0:0:0:
396,180,24667,1,8,0:0:0:0:
120,228,25112,1,2,0:0:0:0:
252,120,25556,1,8,0:0:0:0:
288,264,26001,5,2,0:0:0:0:
348,144,26445,1,8,0:0:0:0:
120,264,26889,1,2,0:0:0:0:
420,324,27334,1,8,0:0:0:0:
252,120,27778,5,2,0:0:0:0:
132,240,28223,1,8,0:0:0:0:
72,96,28667,1,2,0:0:0:0:
264,240,29112,1,8,0:0:0:0:
384,84,29556,5,2,0:0:0:0:
144,216,30001,1,8,0:0:0:0:
216,108,30445,1,2,0:0:0:0:
384,300,30889,1,8,0:0:0:0:
192,264,31334,5,8,0:0:0:0:
276,120,31778,1,8,0:0:0:0:
192,240,32445,1,8,0:0:0:0:
276,180,32667,1,8,0:0:0:0:
396,288,33112,5,8,0:0:0:0:
384,132,33334,1,8,0:0:0:0:
264,276,33556,1,8,0:0:0:0:
168,192,33778,1,8,0:0:0:0:
276,132,34223,1,8,0:0:0:0:
348,72,34445,1,8,0:0:0:0:
120,216,34889,5,8,0:0:0:0:
312,252,35334,1,8,0:0:0:0:
192,108,36001,5,0,0:0:0:0:
300,168,36223,1,0,0:0:0:0:
264,192,36667,1,0,0:0:0:0:
264,192,36889,1,0,0:0:0:0:
264,192,37112,1,0,0:0:0:0:
264,192,37334,1,0,0:0:0:0:
384,108,37778,5,0,0:0:0:0:
384,216,38001,1,0,0:0:0:0:
312,120,38667,2,0,P|276:96|240:132,1,70,0|8,0:0|0:0,0:0:0:0:
192,216,39112,1,0,0:0:0:0:
348,252,39334,1,0,0:0:0:0:
264,144,39556,2,0,P|240:144|216:156,1,35
229,147,39778,1,8,0:0:0:0:
108,144,40001,1,0,0:0:0:0:
372,156,40445,5,0,0:0:0:0:
216,240,40667,1,8,0:0:0:0:
252,96,40889,1,0,0:0:0:0:
156,180,41112,1,0,0:0:0:0:
312,240,41334,2,0,P|336:240|360:228,1,35
346,236,41556,1,8,0:0:0:0:
336,84,41778,1,0,0:0:0:0:
228,156,42223,5,0,0:0:0:0:
348,180,42445,1,8,0:0:0:0:
216,264,42667,1,0,0:0:0:0:
312,84,42889,1,0,0:0:0:0:
336,288,43112,1,0,0:0:0:0:
228,156,43334,1,8,0:0:0:0:
348,192,43556,1,0,0:0:0:0:
240,264,43778,5,0,0:0:0:0:
312,120,44001,1,0,0:0:0:0:
156,192,44223,1,8,0:0:0:0:
336,216,44445,1,0,0:0:0:0:
396,96,44667,2,0,L|276:108,2,105
312,132,45556,5,6,0:0:0:0:
396,192,45778,1,0,0:0:0:0:
336,264,46001,1,8,0:0:0:0:
204,276,46223,1,0,0:0:0:0:
264,204,46445,2,4,P|240:132|228:132,1,105,2|0,0:0|0:0,0:0:0:0:
228,131,46889,1,8,0:0:0:0:
192,156,47112,5,0,0:0:0:0:
108,228,47334,1,6,0:0:0:0:
120,132,47556,1,0,0:0:0:0:
264,120,47778,1,8,0:0:0:0:
228,240,48001,1,0,0:0:0:0:
300,192,48223,2,0,P|324:132|300:108,1,105,2|0,0:0|0:0,0:0:0:0:
301,108,48667,1,8,0:0:0:0:
360,132,48889,5,0,0:0:0:0:
252,132,49112,1,6,0:0:0:0:
312,252,49334,1,0,0:0:0:0:
192,204,49556,1,8,0:0:0:0:
336,156,49778,1,0,0:0:0:0:
216,312,50001,2,0,P|144:312|108:300,2,105,2|0|0,0:0|0:0|0:0,0:0:0:0:
168,228,50889,5,6,0:0:0:0:
300,228,51112,5,0,0:0:0:0:
240,144,51334,1,8,0:0:0:0:
288,312,51556,1,0,0:0:0:0:
360,156,51778,2,0,P|312:108|276:84,1,105,2|0,0:0|0:0,0:0:0:0:
281,87,52223,1,8,0:0:0:0:
264,192,52667,6,2,P|228:168|192:156,1,70,2|0,0:0|0:0,0:0:0:0:
144,192,53001,1,0,0:0:0:0:
120,132,53112,2,0,L|84:144,2,35,8|0|0,0:0|0:0|0:0,0:0:0:0:
231,267,53556,1,2,0:0:0:0:
264,192,53778,2,0,P|300:168|324:144,1,70,0|8,0:0|0:0,0:0:0:0:
372,204,54223,1,0,0:0:0:0:
264,96,54445,2,0,L|228:84,2,35,2|0|0,0:0|0:0|0:0,0:0:0:0:
276,204,54889,2,0,L|240:216,2,35,8|0|0,0:0|0:0|0:0,0:0:0:0:
210,133,55334,1,2,0:0:0:0:
312,288,55556,6,0,P|264:288|240:264,1,70,0|8,0:0|0:0,0:0:0:0:
168,204,56001,1,0,0:0:0:0:
240,132,56223,1,2,0:0:0:0:
324,228,56445,2,0,P|348:204|360:204,1,35
347,204,56667,1,8,0:0:0:0:
360,120,56889,2,0,P|324:84|300:84,1,70,0|2,0:0|0:0,0:0:0:0:
228,108,57334,2,0,P|204:96|192:108,1,35
199,98,57556,1,8,0:0:0:0:
240,228,57778,5,0,0:0:0:0:
132,192,58001,2,0,P|120:216|120:240,1,35,2|0,0:0|0:0,0:0:0:0:
192,288,58223,2,0,P|216:288|228:276,1,35
240,144,58445,2,0,P|264:144|276:156,1,35,8|0,0:0|0:0,0:0:0:0:
312,216,58667,1,0,0:0:0:0:
384,96,58889,5,8,0:0:0:0:
408,240,59112,1,8,0:0:0:0:
276,180,59334,1,8,0:0:0:0:
240,276,59556,1,8,0:0:0:0:
144,240,59778,1,8,0:0:0:0:
264,192,60223,5,0,0:0:0:0:
156,120,61112,1,0,0:0:0:0:
336,144,62001,1,0,0:0:0:0:
360,228,62223,1,0,0:0:0:0:
144,276,62889,1,0,0:0:0:0:
240,156,63778,1,0,0:0:0:0:
336,252,64667,1,0,0:0:0:0:
204,144,65556,1,0,0:0:0:0:
264,96,65778,1,0,0:0:0:0:
264,240,66223,1,0,0:0:0:0:
264,240,66445,1,0,0:0:0:0:
264,240,66667,1,0,0:0:0:0:
264,240,66889,6,0,P|312:276|396:228,1,154.000004699707,6|8,0:0|0:0,0:0:0:0:
372,156,67778,2,0,P|324:120|228:144,2,154.000004699707,6|8|6,0:0|0:0|0:0,0:0:0:0:
276,204,68889,1,0,0:0:0:0:
132,144,69112,1,8,0:0:0:0:
166,260,69334,2,0,B|227:285|262:332|437:278|358:296,1,231.000007049561,0|8,0:0|0:0,0:0:0:0:
372,204,70445,6,4,P|300:144|240:156,1,154.000004699707,6|8,0:0|0:0,0:0:0:0:
264,264,71112,1,0,0:0:0:0:
180,216,71334,1,6,0:0:0:0:
276,144,71556,1,0,0:0:0:0:
384,120,71778,1,8,0:0:0:0:
348,228,72001,1,0,0:0:0:0:
252,192,72223,1,6,0:0:0:0:
312,108,72667,1,8,0:0:0:0:
312,108,72889,2,4,P|264:108|228:120,1,77.0000023498536,0|6,0:0|0:0,0:0:0:0:
120,216,74001,6,4,P|156:144|228:132,1,154.000004699707,6|8,0:0|0:0,0:0:0:0:
156,300,74889,2,0,P|240:288|276:228,1,154.000004699707,6|8,0:0|0:0,0:0:0:0:
372,276,75556,1,0,0:0:0:0:
264,180,75778,1,6,0:0:0:0:
408,168,76001,2,0,P|336:108|264:96,1,154.000004699707
96,168,76667,1,6,0:0:0:0:
96,168,77112,2,0,P|192:228|240:216,1,154.000004699707,8|6,0:0|0:0,0:0:0:0:
112,82,78001,2,0,L|199:82,1,77.0000023498536,8|0,0:0|0:0,0:0:0:0:
216,168,78445,1,6,0:0:0:0:
348,204,78667,1,0,0:0:0:0:
372,108,78889,5,8,0:0:0:0:
372,108,79112,6,0,P|192:96|156:120,1,231.000007049561,0|8,0:0|0:0,0:0:0:0:
180,276,80001,2,0,L|228:252,2,38.5000011749268,0|0|2,0:0|0:0|0:0,0:0:0:0:
324,252,80445,1,0,0:0:0:0:
240,168,80667,1,8,0:0:0:0:
360,156,80889,1,0,0:0:0:0:
156,240,81112,2,0,P|168:156|228:132,1,154.000004699707,6|8,0:0|0:0,0:0:0:0:
228,288,82001,2,0,P|312:276|336:216,1,154.000004699707,6|8,0:0|0:0,0:0:0:0:
192,228,82889,1,6,0:0:0:0:
372,204,83112,2,0,P|312:180|264:252,1,154.000004699707
156,204,83778,1,6,0:0:0:0:
156,204,84223,6,0,P|192:156|288:132,1,154.000004699707,8|6,0:0|0:0,0:0:0:0:
180,288,85112,2,0,P|288:288|312:252,1,154.000004699707,8|6,0:0|0:0,0:0:0:0:
252,180,85778,1,0,0:0:0:0:
323,257,86001,1,8,0:0:0:0:
396,168,86223,1,0,0:0:0:0:
252,84,86445,1,6,0:0:0:0:
96,144,86889,1,8,0:0:0:0:
96,144,87112,2,0,L|132:144,2,35,0|0|2,0:0|0:0|0:0,0:0:0:0:
228,216,87556,1,8,0:0:0:0:
276,144,87778,1,8,0:0:0:0:
336,252,88001,1,8,0:0:0:0:
384,108,88223,2,0,P|264:72|240:72,1,140,6|8,0:0|0:0,0:0:0:0:
360,204,89112,6,0,P|264:204|228:168,1,140,6|8,0:0|0:0,0:0:0:0:
192,288,89778,1,0,0:0:0:0:
120,204,90001,1,6,0:0:0:0:
264,144,90223,1,0,0:0:0:0:
276,276,90445,1,8,0:0:0:0:
276,276,90667,6,0,P|384:264|468:204,1,210,0|8,0:0|0:0,0:0:0:0:
408,132,91778,2,0,P|300:120|276:132,1,140,6|8,0:0|0:0,0:0:0:0:
216,228,92445,1,0,0:0:0:0:
84,156,92667,1,6,0:0:0:0:
144,300,92889,2,0,P|96:252|132:192,1,140
192,120,93556,1,6,0:0:0:0:
264,192,94001,1,8,0:0:0:0:
264,192,94223,2,0,P|276:180|300:180,2,35,0|0|2,0:0|0:0|0:0,0:0:0:0:
360,84,94667,1,8,0:0:0:0:
168,264,94889,1,8,0:0:0:0:
360,240,95112,1,8,0:0:0:0:
204,120,95334,1,8,0:0:0:0:
252,192,95556,6,0,P|288:144|300:144,1,70,0|8,0:0|0:0,0:0:0:0:
384,144,96001,1,0,0:0:0:0:
204,96,96223,1,2,0:0:0:0:
204,252,96445,2,0,P|228:252|240:240,1,35
240,240,96667,1,8,0:0:0:0:
300,168,96889,1,0,0:0:0:0:
336,288,97112,1,2,0:0:0:0:
168,276,97334,6,0,P|132:240|144:216,1,70,0|8,0:0|0:0,0:0:0:0:
144,132,97778,1,0,0:0:0:0:
252,156,98001,1,2,0:0:0:0:
168,252,98223,2,0,P|192:228|204:228,1,35
191,228,98445,1,8,0:0:0:0:
324,144,98667,1,0,0:0:0:0:
360,264,98889,1,2,0:0:0:0:
288,336,99112,1,0,0:0:0:0:
168,312,99334,5,8,0:0:0:0:
168,156,99556,1,0,0:0:0:0:
324,96,99778,1,2,0:0:0:0:
264,216,100001,2,0,P|252:120|216:96,1,140
265,191,100667,1,2,0:0:0:0:
264,192,101112,1,8,0:0:0:0:
360,240,101334,6,0,L|360:192,2,35,0|0|2,0:0|0:0|0:0,0:0:0:0:
132,264,101778,1,8,0:0:0:0:
204,120,102001,1,8,0:0:0:0:
324,276,102223,1,8,0:0:0:0:
384,84,102445,1,10,0:0:0:0:
84,276,102667,1,0,0:0:0:0:
192,132,102889,1,8,0:0:0:0:
228,276,103112,1,0,0:0:0:0:
96,180,103334,1,2,0:0:0:0:
276,192,103556,6,0,P|288:168|276:156,1,35
285,163,103778,1,8,0:0:0:0:
168,96,104001,1,0,0:0:0:0:
348,84,104223,1,2,0:0:0:0:
192,240,104445,1,0,0:0:0:0:
348,264,104667,1,8,0:0:0:0:
192,120,104889,1,0,0:0:0:0:
396,168,105112,2,0,P|360:132|312:96,2,105,2|0|0,0:0|0:0|0:0,0:0:0:0:
396,168,106001,5,2,0:0:0:0:
228,216,106223,1,0,0:0:0:0:
264,120,106445,1,8,0:0:0:0:
348,276,106667,1,0,0:0:0:0:
180,312,106889,1,2,0:0:0:0:
96,240,107112,2,0,P|108:156|156:120,1,140
240,216,108445,2,0,L|276:192,2,35
396,84,108889,1,8,0:0:0:0:
336,276,109112,1,8,0:0:0:0:
432,168,109334,1,8,0:0:0:0:
228,108,109556,5,8,0:0:0:0:
180,228,110001,1,8,0:0:0:0:
300,192,110667,5,8,0:0:0:0:
336,276,110889,1,8,0:0:0:0:
156,228,111334,1,8,0:0:0:0:
96,108,111556,1,8,0:0:0:0:
228,120,111778,1,8,0:0:0:0:
156,228,112001,1,8,0:0:0:0:
336,192,112445,1,8,0:0:0:0:
276,264,112667,1,8,0:0:0:0:
168,240,113112,5,8,0:0:0:0:
216,144,113556,1,8,0:0:0:0:
348,132,114223,1,8,0:0:0:0:
372,240,114445,1,8,0:0:0:0:
264,192,114889,1,0,0:0:0:0:
264,192,115112,1,0,0:0:0:0:
264,192,115334,1,0,0:0:0:0:
264,192,115556,1,0,0:0:0:0:
264,192,116001,1,0,0:0:0:0:
264,192,116223,1,4,0:0:0:0:
