osu file format v14

[General]
AudioFilename: audio.mp3
AudioLeadIn: 0
PreviewTime: 51717
Countdown: 0
SampleSet: Soft
StackLeniency: 0.2
Mode: 0
LetterboxInBreaks: 0
WidescreenStoryboard: 1

[Editor]
Bookmarks: 71,10491,20901,41771,52220,73089,93959,104393,114828,135633,156502
DistanceSpacing: 1.2
BeatDivisor: 4
GridSize: 32
TimelineZoom: 1

[Metadata]
Title:Black Hole
TitleUnicode:Black Hole
Artist:OPFuture
ArtistUnicode:OPFuture
Creator:hehe
Version:PaRaDogi's Extra
Source:
Tags:german hip-hop anime one piece blackbeard rap jordan beats dennis philipps paradogi
BeatmapID:3687206
BeatmapSetID:1793369

[Difficulty]
HPDrainRate:4
CircleSize:5
OverallDifficulty:9
ApproachRate:9.2
SliderMultiplier:3.4
SliderTickRate:1

[Events]
//Background and Video events
0,0,"blackbeard.jpg",0,0
//Break Periods
2,104593,111649
//Storyboard Layer 0 (Background)
//Storyboard Layer 1 (Fail)
//Storyboard Layer 2 (Pass)
//Storyboard Layer 3 (Foreground)
//Storyboard Layer 4 (Overlay)
//Storyboard Sound Samples

[TimingPoints]
20902,652.173913043478,4,2,1,70,1,0
20902,-100,4,2,1,70,0,0
40467,-133.333333333333,4,2,1,70,0,0
41771,-100,4,2,1,70,0,0
51893,652.173913043478,4,2,1,80,1,0
51893,-285.714285714284,4,2,1,80,0,0
52220,652.173913043478,4,2,1,80,1,0
52220,-76.9230769230769,4,2,1,80,0,1
52872,-83.3333333333333,4,2,1,80,0,1
67872,-83.3333333333333,4,2,1,90,0,0
73089,-100,4,2,1,70,0,0
77654,-100,4,2,1,50,0,0
78633,-100,4,2,1,70,0,0
114502,-285.714285714284,4,2,1,80,0,0
114828,-76.9230769230769,4,2,1,80,0,1
115480,-83.3333333333333,4,2,1,80,0,1
130480,-83.3333333333333,4,2,1,90,0,0
135306,652.173913043478,4,2,1,90,1,0
135306,-285.714285714284,4,2,1,90,0,0
135632,-76.9230769230769,4,2,1,90,0,0
135633,652.173913043478,4,2,1,90,1,0
135633,-76.9230769230769,4,2,1,90,0,1
136285,-83.3333333333333,4,2,1,90,0,1
151285,-83.3333333333333,4,2,1,100,0,0

[Colours]
Combo1 : 255,39,28
Combo2 : 255,156,23

[HitObjects]
256,192,19597,12,0,20575,0:0:0:0:
108,77,20901,6,0,P|160:17|224:45,1,127.5,4|0,3:1|0:0,0:0:0:0:
208,48,21228,1,0,0:0:0:0:
320,136,21391,1,0,0:0:0:0:
395,99,21554,2,0,P|411:50|434:17,1,85,8|0,0:0|0:0,0:0:0:0:
305,144,21880,1,0,0:0:0:0:
368,238,22043,1,0,3:0:0:0:
330,314,22206,6,0,P|295:338|247:325,1,85
140,256,22532,2,0,L|237:226,1,85
112,347,22858,1,8,0:0:0:0:
100,357,23021,1,0,0:0:0:0:
31,275,23184,1,0,0:0:0:0:
17,270,23347,1,0,0:0:0:0:
73,169,23510,6,0,B|86:132|86:132|80:123|80:123|90:78,1,85
44,5,23836,2,0,B|104:5|122:40|110:66|134:105|208:110,1,170,0|8,3:0|0:0,0:0:0:0:
262,14,24325,1,0,0:0:0:0:
336,50,24488,1,0,0:0:0:0:
263,136,24651,6,0,B|275:172|274:194|243:192|226:223|244:265,1,127.5,0|0,3:0|0:0,0:0:0:0:
241,269,24978,1,0,0:0:0:0:
353,195,25141,2,0,P|390:223|436:210,1,85,0|0,3:0|0:0,0:0:0:0:
446,43,25467,2,0,P|414:107|400:139,1,85,8|0,0:0|0:0,0:0:0:0:
508,240,25793,1,0,3:0:0:0:
501,262,25874,1,0,3:0:0:0:
496,283,25956,1,0,3:0:0:0:
493,304,26037,1,0,3:0:0:0:
493,325,26119,6,0,B|435:354|435:354|393:336|393:336|320:376,1,170,4|0,3:2|0:0,0:0:0:0:
195,369,26608,1,0,0:0:0:0:
128,320,26771,2,0,P|112:271|140:253,1,85,8|0,0:0|0:0,0:0:0:0:
283,235,27097,1,0,0:0:0:0:
221,281,27260,6,0,P|154:236|59:186,1,170,0|0,3:0|0:0,0:0:0:0:
195,160,27749,2,0,P|249:148|279:133,1,85
199,66,28075,2,0,P|153:45|108:37,1,85,8|0,0:0|0:0,0:0:0:0:
11,11,28401,1,0,0:0:0:0:
21,34,28565,1,0,0:0:0:0:
0,180,28728,6,0,B|44:186|69:172|55:139|72:124|120:118,1,127.5
138,120,29054,2,0,P|158:164|123:194,1,85,0|0,3:0|0:0,0:0:0:0:
10,286,29380,2,0,B|34:333|34:333|116:346,1,127.5,8|0,0:0|0:0,0:0:0:0:
126,365,29706,1,0,0:0:0:0:
240,259,29869,6,0,P|197:267|151:277,1,85,0|0,3:0|0:0,0:0:0:0:
254,362,30195,1,0,0:0:0:0:
338,379,30358,2,0,P|378:353|421:343,1,85,0|0,3:0|0:0,0:0:0:0:
503,235,30684,2,0,B|463:248|433:233|442:200|419:182|362:187,1,127.5,8|0,0:0|0:0,0:0:0:0:
378,200,31010,1,0,0:0:0:0:
467,121,31173,1,0,0:0:0:0:
385,8,31336,6,0,B|339:9|315:30|332:74|307:118|228:98,1,170,4|0,3:2|0:0,0:0:0:0:
145,22,31825,1,0,0:0:0:0:
40,131,31988,2,0,P|27:85|8:46,1,85,8|0,0:0|0:0,0:0:0:0:
159,112,32315,1,0,0:0:0:0:
152,143,32478,1,0,3:0:0:0:
9,205,32641,6,0,P|7:273|53:262,1,127.5
70,264,32967,1,0,0:0:0:0:
15,360,33130,1,0,0:0:0:0:
176,299,33293,2,0,P|127:331|99:358,1,85,8|0,0:0|0:0,0:0:0:0:
237,229,33619,1,0,0:0:0:0:
260,240,33782,1,0,0:0:0:0:
295,348,33945,6,0,B|333:356|360:337|347:315|365:286|419:297,1,127.5
428,306,34271,2,0,P|477:286|474:248,1,85,0|0,3:0|0:0,0:0:0:0:
383,91,34597,2,0,B|367:121|367:156|415:145|427:172|413:222,1,127.5,8|0,0:0|0:0,0:0:0:0:
400,214,34923,1,0,0:0:0:0:
473,102,35086,1,0,3:0:0:0:
438,23,35249,6,0,P|387:-2|342:19,1,85
191,65,35575,2,0,B|230:57|247:76|245:101|255:118|318:109,1,127.5,0|0,3:0|0:0,0:0:0:0:
306,123,35901,2,0,B|278:121|272:138|271:153|259:164|216:158,1,85,8|0,0:0|0:0,0:0:0:0:
121,210,36228,1,0,3:0:0:0:
102,200,36309,1,0,3:0:0:0:
90,181,36391,1,0,3:0:0:0:
88,162,36472,1,0,3:0:0:0:
101,144,36554,6,0,B|111:190|99:216|56:226|42:262|76:317,1,170,4|0,3:2|0:0,0:0:0:0:
171,376,37043,1,0,0:0:0:0:
257,262,37206,2,0,P|212:278|162:287,1,85,8|0,0:0|0:0,0:0:0:0:
306,331,37532,1,0,0:0:0:0:
410,258,37695,1,0,3:0:0:0:
355,120,37858,6,0,L|333:236,2,113.333333333333
254,191,38510,2,0,B|238:160|238:160|242:142|242:142|224:105,1,85,8|0,0:0|0:0,0:0:0:0:
143,1,38836,2,0,P|215:30|239:34,1,85
370,10,39162,5,0,0:0:0:0:
387,4,39325,1,0,0:0:0:0:
483,61,39488,2,0,B|501:101|485:134|429:132|414:172|440:238,1,170,0|0,3:0|0:0,0:0:0:0:
406,327,39978,2,0,P|438:365|476:362,2,85
321,243,40467,6,0,P|281:250|267:300,1,95.6250036478044,2|0,0:0|0:0,0:0:0:0:
258,327,40793,2,0,P|234:360|191:359,1,63.7500024318696
102,297,41119,2,0,P|112:348|114:376,1,63.7500024318696
183,252,41445,1,0,0:0:0:0:
190,237,41609,1,0,0:0:0:0:
43,136,41771,6,0,B|77:166|139:132|113:95|138:51|215:61,1,170,4|0,3:1|0:0,0:0:0:0:
283,14,42260,1,0,0:0:0:0:
373,114,42423,2,0,P|322:130|267:155,1,85,8|0,0:0|0:0,0:0:0:0:
421,45,42749,1,0,0:0:0:0:
497,165,42912,6,0,B|499:200|489:235|445:226|418:277|457:345,1,170,0|0,3:0|0:0,0:0:0:0:
330,376,43401,2,0,P|298:349|317:303,1,85
362,191,43728,1,8,0:0:0:0:
352,210,43891,1,0,0:0:0:0:
262,232,44054,1,0,0:0:0:0:
252,209,44217,1,0,0:0:0:0:
130,159,44380,6,0,P|95:189|107:225,1,85
190,384,44706,2,0,P|180:313|166:251,1,127.5,0|0,3:0|0:0,0:0:0:0:
178,248,45032,2,0,P|161:299|149:347,1,85,8|0,0:0|0:0,0:0:0:0:
24,377,45358,1,0,0:0:0:0:
9,296,45521,6,0,B|-17:258|-11:218|38:208|56:181|35:109,1,170,0|0,3:0|0:0,0:0:0:0:
10,10,46010,2,0,P|69:10|88:46,1,85,0|0,3:0|0:0,0:0:0:0:
182,98,46336,1,8,0:0:0:0:
257,70,46499,1,0,0:0:0:0:
378,111,46662,1,0,3:0:0:0:
354,117,46744,1,0,3:0:0:0:
338,133,46825,1,0,3:0:0:0:
336,156,46907,1,0,3:0:0:0:
345,178,46988,6,0,B|396:151|396:151|437:163|437:163|510:131,1,170,4|0,3:2|0:0,0:0:0:0:
448,61,47478,1,0,0:0:0:0:
406,242,47641,2,0,P|391:293|389:345,1,85,8|0,0:0|0:0,0:0:0:0:
243,371,47967,1,0,0:0:0:0:
264,294,48130,6,0,P|247:246|222:207,1,85,0|0,3:0|0:0,0:0:0:0:
106,168,48456,1,0,0:0:0:0:
95,148,48619,2,0,B|136:152|159:131|151:109|159:90|234:81,1,127.5
227,95,48945,2,0,B|205:101|193:90|196:78|183:66|133:67,1,85,8|0,0:0|0:0,0:0:0:0:
8,13,49271,1,0,0:0:0:0:
23,0,49434,6,0,P|0:57|-5:102,1,85
21,197,49760,1,0,0:0:0:0:
78,302,49923,2,0,B|119:292|141:315|133:347|150:368|217:360,1,127.5,0|0,3:0|0:0,0:0:0:0:
204,371,50249,2,0,P|250:363|252:312,1,85
362,237,50575,1,0,0:0:0:0:
356,257,50738,1,0,0:0:0:0:
275,219,50901,6,0,B|253:203|242:166|297:141|281:115|251:88,1,127.5
263,67,51228,2,0,P|294:29|328:47,1,85
438,155,51554,2,0,P|386:138|341:124,1,85
174,69,51893,6,0,L|181:120,1,44.6249986381531,4|0,0:0|0:0,0:0:0:0:
237,0,52220,6,0,B|272:100|236:163|100:156|98:280|158:345,1,386.749982295991,4|0,3:1|0:0,0:0:0:0:
215,269,52872,2,0,B|224:210|204:146|150:196|128:149|137:57,1,203.999993774414,8|0,0:0|0:0,0:0:0:0:
23,9,53361,6,0,P|15:63|-5:117,1,101.999996887207,0|0,3:0|0:0,0:0:0:0:
57,193,53687,1,0,0:0:0:0:
106,18,53850,2,0,P|177:5|219:-4,1,101.999996887207,0|0,3:0|0:0,0:0:0:0:
282,114,54176,2,0,B|327:110|348:132|340:161|358:194|452:179,1,152.999995330811,8|0,0:0|0:0,0:0:0:0:
440,182,54502,2,0,P|473:130|434:98,1,101.999996887207,0|0,3:0|0:0,0:0:0:0:
350,8,54828,6,0,P|374:90|409:335,1,305.999990661621,0|0,3:0|0:0,0:0:0:0:
229,374,55480,2,0,P|191:332|209:293,1,101.999996887207,8|0,0:0|0:0,0:0:0:0:
277,206,55806,1,0,0:0:0:0:
214,161,55970,6,0,B|185:166|170:186|176:201|161:217|94:232,1,101.999996887207,0|0,3:0|0:0,0:0:0:0:
17,158,56296,1,0,0:0:0:0:
47,77,56459,1,0,3:0:0:0:
154,103,56622,1,0,0:0:0:0:
186,32,56785,2,0,P|233:51|295:60,1,101.999996887207,8|0,0:0|0:0,0:0:0:0:
450,138,57111,2,0,P|394:152|342:170,1,101.999996887207,0|0,3:0|0:0,0:0:0:0:
277,327,57437,6,0,P|342:353|424:379,1,152.999995330811,0|0,3:0|0:0,0:0:0:0:
450,373,57763,1,0,0:0:0:0:
506,280,57926,1,0,0:0:0:0:
323,258,58089,2,0,P|308:183|280:98,1,152.999995330811,8|0,0:0|0:0,0:0:0:0:
303,87,58415,1,0,0:0:0:0:
454,16,58578,6,0,B|495:55|495:55|403:98,1,152.999995330811
389,95,58904,1,0,0:0:0:0:
250,17,59067,2,0,P|186:13|166:55,1,101.999996887207,0|0,3:0|0:0,0:0:0:0:
91,168,59393,2,0,B|97:130|90:100|43:93|24:72|44:18,1,152.999995330811,8|0,0:0|0:0,0:0:0:0:
55,23,59720,2,0,B|36:49|35:65|58:73|54:103|22:128,1,101.999996887207,0|0,3:0|0:0,0:0:0:0:
175,122,60046,5,0,3:0:0:0:
114,259,60209,2,0,P|170:269|193:232,1,101.999996887207
344,355,60535,1,0,0:0:0:0:
325,199,60698,2,0,P|289:266|272:308,1,101.999996887207,8|0,0:0|0:0,0:0:0:0:
453,277,61024,1,0,0:0:0:0:
492,162,61187,1,0,3:0:0:0:
298,123,61350,6,0,P|270:62|299:32,1,101.999996887207
482,37,61676,2,0,P|398:66|366:86,1,101.999996887207,0|0,3:0|0:0,0:0:0:0:
233,199,62002,2,0,B|177:219|151:202|158:168|134:143|76:158,1,152.999995330811,8|0,0:0|0:0,0:0:0:0:
74,165,62328,2,0,P|32:223|57:242,1,101.999996887207,0|0,3:0|0:0,0:0:0:0:
139,369,62654,5,4,3:2:0:0:
224,300,62817,1,0,0:0:0:0:
352,374,62980,2,0,P|400:338|391:299,1,101.999996887207
283,147,63306,2,0,B|318:236|282:208|312:310,1,152.999995330811,8|0,0:0|0:0,0:0:0:0:
304,308,63633,1,0,0:0:0:0:
395,203,63796,6,0,P|457:179|489:161,1,101.999996887207,0|0,3:0|0:0,0:0:0:0:
393,66,64122,1,0,0:0:0:0:
337,10,64285,2,0,P|275:-2|209:-2,1,101.999996887207,0|0,3:0|0:0,0:0:0:0:
80,73,64611,2,0,B|62:113|69:140|120:144|136:178|117:230,1,152.999995330811,8|0,0:0|0:0,0:0:0:0:
109,236,64937,2,0,P|61:254|29:208,1,101.999996887207,0|0,3:0|0:0,0:0:0:0:
193,153,65263,5,4,3:1:0:0:
271,189,65426,1,0,0:0:0:0:
176,292,65589,1,0,0:0:0:0:
146,370,65752,1,0,0:0:0:0:
272,285,65915,2,0,P|336:275|358:327,1,101.999996887207,8|0,0:0|0:0,0:0:0:0:
482,228,66241,1,0,0:0:0:0:
490,214,66323,1,0,0:0:0:0:
496,202,66404,1,0,3:0:0:0:
393,66,66567,6,0,P|412:122|420:168,1,101.999996887207
286,3,66893,2,0,B|294:37|289:66|239:66|225:111|258:158,1,152.999995330811,0|0,3:0|0:0,0:0:0:0:
236,165,67220,2,0,P|181:190|146:157,1,101.999996887207,8|0,0:0|0:0,0:0:0:0:
61,30,67546,2,0,P|120:48|168:72,1,101.999996887207,0|0,3:0|0:0,0:0:0:0:
36,139,67872,5,4,3:2:0:0:
74,218,68035,1,0,0:0:0:0:
3,341,68198,2,0,P|54:371|88:344,1,101.999996887207,0|2,0:0|0:2,0:0:0:0:
204,281,68524,2,0,B|248:279|272:306|261:339|281:370|361:353,1,152.999995330811,10|0,0:2|0:0,0:0:0:0:
342,368,68850,1,2,0:2:0:0:
364,232,69013,6,0,P|378:179|398:136,1,101.999996887207,2|2,3:2|0:2,0:0:0:0:
241,29,69339,1,2,0:2:0:0:
197,99,69502,2,0,P|218:158|228:210,1,101.999996887207,2|2,3:2|0:2,0:0:0:0:
327,70,69828,2,0,B|412:57|379:32|486:22,1,152.999995330811,10|0,0:2|0:0,0:0:0:0:
498,27,70154,2,0,P|502:87|466:95,1,101.999996887207,2|2,3:2|0:2,0:0:0:0:
305,150,70480,5,2,3:2:0:0:
305,150,70806,6,0,B|286:191|292:260|336:233|385:279|348:361,2,203.999993774414
273,319,71785,5,0,0:0:0:0:
374,188,72111,5,0,0:0:0:0:
255,94,72437,5,0,0:0:0:0:
298,28,72763,5,0,0:0:0:0:
36,224,73089,5,4,3:1:0:0:
41,246,73252,1,0,0:0:0:0:
96,284,73415,1,0,0:0:0:0:
105,267,73578,1,0,0:0:0:0:
155,329,73741,2,0,P|188:303|237:294,1,85
337,250,74067,2,0,P|295:240|262:214,1,85
179,222,74393,5,0,0:0:0:0:
175,202,74556,1,0,0:0:0:0:
234,142,74720,1,0,0:0:0:0:
348,190,75372,1,0,0:0:0:0:
342,168,75535,1,0,0:0:0:0:
394,109,75698,6,0,P|441:134|466:156,1,85
327,44,76024,2,0,P|376:34|417:14,1,85
261,102,76350,1,0,0:0:0:0:
237,92,76513,1,0,0:0:0:0:
219,15,76676,1,0,0:0:0:0:
195,20,76839,1,0,0:0:0:0:
153,81,77002,6,0,P|126:117|145:150,1,85
99,25,77328,1,0,0:0:0:0:
99,25,77654,5,0,0:0:0:0:
99,25,77980,5,0,0:0:0:0:
14,27,78633,5,0,0:0:0:0:
16,43,78796,1,0,0:0:0:0:
81,115,78959,2,0,B|88:152|77:180|26:197|16:235|41:286,1,170,8|0,0:0|0:0,0:0:0:0:
138,369,79448,6,0,P|177:338|163:303,1,85,0|0,3:0|0:0,0:0:0:0:
50,344,79774,2,0,P|244:273|253:267,1,212.5
279,260,80263,2,0,P|321:277|318:322,1,85,8|0,0:0|0:0,0:0:0:0:
421,377,80589,1,0,0:0:0:0:
432,349,80752,1,0,0:0:0:0:
406,238,80915,6,0,P|390:192|355:179,1,85
490,46,81241,2,0,B|456:37|434:57|439:85|417:120|349:105,1,127.5,0|0,3:0|0:0,0:0:0:0:
359,98,81567,2,0,P|324:54|345:24,1,85,8|0,0:0|0:0,0:0:0:0:
255,143,81893,1,0,0:0:0:0:
197,199,82056,6,0,P|190:244|230:261,2,85,0|0|0,3:0|0:0|0:0,0:0:0:0:
138,91,82546,2,0,P|95:76|56:67,1,85,0|0,3:0|0:0,0:0:0:0:
210,3,82872,2,0,B|204:63|213:114|298:130|321:177|291:253,1,255,8|0,0:0|0:0,0:0:0:0:
258,333,83524,6,0,B|231:318|196:323|200:376|175:386|111:363,1,127.5,4|0,3:2|0:0,0:0:0:0:
120,365,83850,2,0,P|81:330|96:303,1,85
17,184,84176,2,0,B|53:173|80:197|72:225|84:237|160:234,1,127.5,8|0,0:0|0:0,0:0:0:0:
155,227,84502,1,0,0:0:0:0:
240,130,84665,6,0,P|225:73|192:71,1,85,0|0,3:0|0:0,0:0:0:0:
88,6,84991,1,0,0:0:0:0:
65,17,85154,2,0,P|60:66|94:87,1,85
275,12,85480,2,0,B|327:9|327:9|341:0|341:0|408:1,1,127.5,8|0,0:0|0:0,0:0:0:0:
420,12,85806,1,0,0:0:0:0:
501,113,85969,1,0,0:0:0:0:
405,191,86133,5,0,0:0:0:0:
397,167,86296,1,0,0:0:0:0:
491,252,86459,2,0,P|467:296|460:339,1,85,0|0,3:0|0:0,0:0:0:0:
335,253,86785,2,0,B|282:269|252:251|261:214|231:184|170:204,1,170,8|0,0:0|0:0,0:0:0:0:
71,322,87274,1,0,3:0:0:0:
137,370,87437,5,0,0:0:0:0:
164,359,87600,1,0,0:0:0:0:
111,242,87763,2,0,P|97:182|82:149,1,85,0|0,3:0|0:0,0:0:0:0:
242,24,88089,2,0,P|223:68|208:114,1,85,8|0,0:0|0:0,0:0:0:0:
304,216,88415,1,0,3:2:0:0:
330,224,88497,1,0,3:2:0:0:
362,216,88578,1,0,3:2:0:0:
377,196,88660,1,0,3:2:0:0:
378,168,88741,6,0,B|406:125|394:75|352:74|337:43|362:-14,1,170,4|0,3:2|0:0,0:0:0:0:
435,21,89230,1,0,0:0:0:0:
292,125,89393,2,0,P|242:114|200:98,1,85,8|0,0:0|0:0,0:0:0:0:
52,195,89719,1,0,0:0:0:0:
103,269,89883,6,0,P|153:243|185:235,1,85,0|0,3:0|0:0,0:0:0:0:
277,349,90209,1,0,0:0:0:0:
294,360,90372,2,0,B|282:322|292:297|321:300|329:281|325:231,1,127.5
342,219,90698,2,0,P|380:197|421:221,1,85,8|0,0:0|0:0,0:0:0:0:
506,305,91024,1,0,0:0:0:0:
499,330,91187,1,0,0:0:0:0:
498,216,91350,6,0,P|511:168|528:131,1,85
478,7,91676,2,0,B|438:8|419:28|431:52|410:85|344:75,1,127.5,0|0,3:0|0:0,0:0:0:0:
358,71,92002,2,0,P|317:46|282:67,1,85
181,131,92328,1,0,0:0:0:0:
168,104,92491,1,0,0:0:0:0:
264,136,92654,5,2,0:0:0:0:
264,136,93143,1,0,0:0:0:0:
233,207,93306,1,0,0:0:0:0:
233,207,93633,5,0,0:0:0:0:
269,276,93796,1,0,0:0:0:0:
229,343,93959,6,0,B|197:329|164:337|167:370|139:388|89:369,1,127.5,4|0,3:2|0:0,0:0:0:0:
89,366,94285,2,0,P|71:323|99:292,1,85
119,153,94611,2,0,P|144:219|150:245,1,85,8|0,0:0|0:0,0:0:0:0:
13,158,94937,1,0,0:0:0:0:
4,142,95100,6,0,B|81:187|134:129|130:95|160:43|263:78,1,255,0|0,3:0|0:0,0:0:0:0:
341,16,95752,1,0,0:0:0:0:
341,159,95915,2,0,P|314:103|295:72,1,85,8|0,0:0|0:0,0:0:0:0:
423,6,96241,1,0,0:0:0:0:
419,21,96404,1,0,0:0:0:0:
492,52,96567,6,0,P|464:97|445:152,1,85
414,209,96893,2,0,B|400:236|405:262|428:273|456:288|446:363,1,127.5,0|0,3:0|0:0,0:0:0:0:
440,344,97219,2,0,P|397:361|370:329,1,85,8|0,0:0|0:0,0:0:0:0:
289,249,97546,1,0,0:0:0:0:
149,267,97709,6,0,B|203:257|226:276|215:329|248:341|311:327,1,170,0|0,3:0|0:0,0:0:0:0:
155,347,98198,2,0,P|102:362|71:376,1,85,0|0,3:0|0:0,0:0:0:0:
0,187,98524,2,0,P|57:216|92:224,1,85,8|0,0:0|0:0,0:0:0:0:
189,165,98850,1,0,0:0:0:0:
216,145,98931,1,0,0:0:0:0:
210,113,99013,1,0,0:0:0:0:
179,102,99094,1,0,0:0:0:0:
159,120,99176,6,0,B|205:96|205:96|312:210|312:210|385:164,1,255,4|0,3:1|0:0,0:0:0:0:
346,21,99828,2,0,P|338:76|317:125,1,85,8|0,0:0|0:0,0:0:0:0:
409,232,100154,1,0,0:0:0:0:
469,173,100317,6,0,P|451:111|453:75,1,85,0|0,3:0|0:0,0:0:0:0:
266,25,100643,1,0,0:0:0:0:
262,38,100806,1,0,0:0:0:0:
186,77,100969,1,0,0:0:0:0:
201,152,101133,2,0,P|245:165|285:184,1,85,8|0,0:0|0:0,0:0:0:0:
410,232,101459,2,0,P|355:257|316:289,1,85
324,270,101703,1,0,0:0:0:0:
313,268,101785,5,0,0:0:0:0:
193,278,101948,2,0,P|245:255|256:253,1,42.5
180,363,102111,2,0,P|112:333|82:328,1,85,0|0,3:0|0:0,0:0:0:0:
18,264,102437,1,0,0:0:0:0:
12,244,102600,1,0,0:0:0:0:
89,185,102763,1,0,0:0:0:0:
96,163,102926,1,0,0:0:0:0:
20,40,103089,5,2,0:0:0:0:
87,78,103252,1,0,0:0:0:0:
211,11,103415,2,0,P|253:28|301:40,1,85,0|2,0:0|0:0,0:0:0:0:
470,23,103741,1,0,0:0:0:0:
356,83,103904,1,0,0:0:0:0:
399,152,104067,2,0,P|381:207|377:248,1,85,2|0,0:0|0:0,0:0:0:0:
470,107,104393,5,4,3:1:0:0:
256,192,112219,12,0,114176,0:0:0:0:
399,100,114502,6,0,P|414:144|417:154,1,44.6249986381531,4|0,0:0|0:0,0:0:0:0:
462,13,114828,6,0,B|502:100|441:158|397:169|329:217|335:313|386:383,1,386.749982295991,4|0,3:1|0:0,0:0:0:0:
445,261,115480,2,0,B|452:202|426:161|395:174|363:136|389:55,1,203.999993774414,8|0,0:0|0:0,0:0:0:0:
265,6,115969,1,0,3:0:0:0:
171,48,116133,6,0,P|182:104|224:110,1,101.999996887207
65,25,116459,2,0,B|109:96|61:79|117:185,1,152.999995330811,0|0,3:0|0:0,0:0:0:0:
100,188,116785,2,0,B|75:246|102:228|77:303,1,101.999996887207,8|0,0:0|0:0,0:0:0:0:
237,382,117111,2,0,P|269:338|233:295,1,101.999996887207,0|0,3:0|0:0,0:0:0:0:
137,337,117437,6,0,P|238:289|402:240,1,254.999992218018,0|0,3:0|0:0,0:0:0:0:
396,254,117926,1,0,0:0:0:0:
511,152,118089,2,0,P|457:124|425:83,1,101.999996887207,8|0,0:0|0:0,0:0:0:0:
286,13,118415,1,0,0:0:0:0:
176,94,118578,6,0,B|220:81|250:105|245:135|265:149|327:139,1,152.999995330811,0|0,3:0|0:0,0:0:0:0:
328,136,118904,1,0,0:0:0:0:
192,187,119067,2,0,P|135:210|100:241,1,101.999996887207,0|0,3:0|0:0,0:0:0:0:
12,91,119393,1,8,0:0:0:0:
94,52,119556,1,0,0:0:0:0:
30,294,119719,2,0,P|14:233|-8:199,1,101.999996887207,0|0,3:0|0:0,0:0:0:0:
149,373,120046,6,0,B|124:319|143:279|190:274|208:235|188:172,1,203.999993774414,0|0,3:0|0:0,0:0:0:0:
219,333,120535,1,0,0:0:0:0:
118,209,120698,2,0,B|98:184|97:162|120:154|116:128|91:77,1,101.999996887207,8|0,0:0|0:0,0:0:0:0:
188,12,121024,1,0,0:0:0:0:
275,112,121187,2,0,P|331:98|337:47,1,101.999996887207,0|0,0:0|3:0,0:0:0:0:
453,19,121513,1,0,0:0:0:0:
466,172,121676,2,0,P|491:117|522:77,1,101.999996887207,0|0,3:0|0:0,0:0:0:0:
312,191,122002,2,0,P|328:250|343:318,1,101.999996887207,8|0,0:0|0:0,0:0:0:0:
490,371,122328,6,0,P|467:315|393:340,1,152.999995330811,0|0,3:0|0:0,0:0:0:0:
380,363,122654,2,0,B|339:392|283:374|297:312|245:282|171:321,1,203.999993774414,0|0,3:0|0:0,0:0:0:0:
27,262,123143,1,0,0:0:0:0:
106,134,123306,2,0,B|147:98|147:98|130:200,1,152.999995330811,8|0,0:0|0:0,0:0:0:0:
128,211,123633,1,0,0:0:0:0:
29,108,123796,6,0,P|14:45|-5:4,1,101.999996887207,0|0,3:0|0:0,0:0:0:0:
196,39,124122,1,0,0:0:0:0:
268,188,124285,2,0,P|281:136|305:89,1,101.999996887207,0|0,3:0|0:0,0:0:0:0:
433,9,124611,1,8,0:0:0:0:
502,52,124774,1,0,0:0:0:0:
423,196,124937,2,0,P|416:141|385:85,1,101.999996887207,0|0,3:0|0:0,0:0:0:0:
267,0,125263,6,0,B|253:67|274:112|323:100|372:137|345:267,1,254.999992218018,4|0,3:2|0:0,0:0:0:0:
349,240,125752,1,0,0:0:0:0:
247,365,125915,2,0,P|188:334|196:283,1,101.999996887207,8|0,0:0|0:0,0:0:0:0:
337,323,126241,1,0,0:0:0:0:
203,229,126404,6,0,B|166:245|154:266|163:296|149:338|89:339,1,152.999995330811,0|0,3:0|0:0,0:0:0:0:
90,337,126730,1,0,0:0:0:0:
34,139,126893,2,0,P|64:196|74:242,1,101.999996887207,0|0,3:0|0:0,0:0:0:0:
244,158,127219,2,0,P|254:92|272:53,1,101.999996887207,8|0,0:0|0:0,0:0:0:0:
113,14,127546,1,0,3:0:0:0:
138,85,127709,1,0,0:0:0:0:
327,15,127872,6,0,B|381:13|381:13|442:175,1,203.999993774414,4|0,3:1|0:0,0:0:0:0:
374,309,128361,1,0,0:0:0:0:
512,214,128524,2,0,P|436:229|393:252,1,101.999996887207,8|0,0:0|0:0,0:0:0:0:
324,370,128850,1,0,0:0:0:0:
253,344,129013,1,0,3:0:0:0:
157,228,129176,6,0,P|163:162|211:145,1,101.999996887207
163,315,129502,1,0,3:0:0:0:
64,200,129665,1,0,0:0:0:0:
213,75,129828,2,0,P|183:26|133:31,1,101.999996887207,8|0,0:0|0:0,0:0:0:0:
15,3,130154,2,0,P|37:57|48:112,1,101.999996887207,0|0,3:0|0:0,0:0:0:0:
0,266,130480,6,0,B|41:268|64:288|54:323|80:358|151:338,1,152.999995330811,4|0,3:2|0:0,0:0:0:0:
163,315,130806,1,0,0:0:0:0:
0,346,130969,1,2,0:2:0:0:
195,244,131133,2,0,P|260:255|265:306,1,101.999996887207,10|2,0:2|0:2,0:0:0:0:
407,373,131459,1,2,0:2:0:0:
458,311,131622,6,0,P|444:248|447:206,1,101.999996887207,2|2,3:2|0:2,0:0:0:0:
345,77,131948,1,2,0:2:0:0:
300,192,132111,1,2,3:2:0:0:
377,172,132274,1,2,0:2:0:0:
289,18,132437,2,0,P|238:3|177:-14,1,101.999996887207,10|2,0:2|0:2,0:0:0:0:
74,164,132763,2,0,P|122:139|189:121,1,101.999996887207,2|2,3:2|0:2,0:0:0:0:
445,0,133089,6,0,B|450:47|426:96|391:94|371:133|397:204,2,203.999993774414,2|0|0,3:2|0:0|0:0,0:0:0:0:
465,152,134067,5,0,0:0:0:0:
368,20,134393,5,0,0:0:0:0:
274,94,134719,5,0,0:0:0:0:
208,41,135046,5,0,0:0:0:0:
39,98,135306,6,0,P|53:109|69:145,1,44.6249986381531,4|0,0:0|0:0,0:0:0:0:
0,163,135633,6,0,B|113:118|172:206|158:251|208:364|325:297,1,386.749982295991,4|0,3:1|0:0,0:0:0:0:
249,195,136285,2,0,B|185:189|154:228|167:259|145:318|56:280,1,203.999993774414,8|0,0:0|0:0,0:0:0:0:
313,303,136774,6,0,P|367:313|478:376,1,152.999995330811,0|0,3:0|0:0,0:0:0:0:
469,367,137099,1,0,0:0:0:0:
505,226,137262,2,0,P|483:171|442:173,1,101.999996887207,0|0,3:0|0:0,0:0:0:0:
293,86,137588,2,0,P|349:73|406:51,1,101.999996887207,8|0,0:0|0:0,0:0:0:0:
275,223,137914,2,0,P|215:194|148:178,1,101.999996887207,0|0,3:0|0:0,0:0:0:0:
33,40,138240,6,0,B|22:88|20:145|100:113|113:168|81:267,1,203.999993774414,0|0,3:0|0:0,0:0:0:0:
106,68,138729,1,0,0:0:0:0:
16,191,138892,2,0,B|22:212|13:237|-10:237|-14:257|-1:297,1,101.999996887207,8|0,0:0|0:0,0:0:0:0:
91,376,139218,1,0,0:0:0:0:
227,260,139382,6,0,P|163:283|113:289,1,101.999996887207,0|0,3:0|0:0,0:0:0:0:
274,369,139708,1,0,0:0:0:0:
375,189,139871,2,0,P|355:232|336:325,1,101.999996887207,0|0,3:0|0:0,0:0:0:0:
164,203,140197,2,0,B|147:140|147:140|154:122|154:122|132:34,1,152.999995330811,8|0,0:0|0:0,0:0:0:0:
150,32,140523,2,0,P|202:6|225:36,1,101.999996887207,0|0,3:0|0:0,0:0:0:0:
390,32,140849,6,0,B|347:35|332:62|341:93|321:135|264:122,1,152.999995330811,0|0,3:0|0:0,0:0:0:0:
264,119,141175,1,0,0:0:0:0:
246,222,141338,1,0,0:0:0:0:
332,363,141501,2,0,P|388:376|412:344,1,101.999996887207,8|0,0:0|0:0,0:0:0:0:
429,248,141827,1,0,0:0:0:0:
251,310,141990,6,0,B|220:301|194:327|203:367|160:406|105:368,1,152.999995330811
119,364,142316,1,0,0:0:0:0:
31,282,142479,2,0,P|49:234|100:228,1,101.999996887207,0|0,3:0|0:0,0:0:0:0:
187,89,142805,2,0,P|170:163|163:202,1,101.999996887207,8|0,0:0|0:0,0:0:0:0:
45,93,143132,2,0,P|26:30|7:-13,1,101.999996887207,0|0,3:0|0:0,0:0:0:0:
187,8,143458,6,0,P|237:22|259:126,1,152.999995330811,0|0,3:0|0:0,0:0:0:0:
271,121,143784,1,0,0:0:0:0:
352,32,143947,1,0,0:0:0:0:
464,157,144110,2,0,B|447:113|465:79|501:77|520:46|502:0,1,152.999995330811,8|0,0:0|0:0,0:0:0:0:
494,8,144436,1,0,0:0:0:0:
353,145,144599,6,0,B|347:175|354:196|365:195|381:213|370:250,1,101.999996887207,0|0,3:0|0:0,0:0:0:0:
467,318,144925,1,0,0:0:0:0:
328,382,145088,2,0,P|282:340|296:302,1,101.999996887207,0|0,3:0|0:0,0:0:0:0:
202,192,145414,2,0,P|185:261|171:308,1,101.999996887207,8|0,0:0|0:0,0:0:0:0:
23,384,145740,2,0,P|69:342|55:304,1,101.999996887207,0|0,3:0|0:0,0:0:0:0:
1,185,146066,6,0,B|9:147|9:147|134:123|134:123|150:64,1,203.999993774414,4|0,3:2|0:0,0:0:0:0:
50,57,146555,1,0,0:0:0:0:
204,8,146718,2,0,P|243:49|222:92,1,101.999996887207,8|0,0:0|0:0,0:0:0:0:
202,192,147045,1,0,0:0:0:0:
306,319,147208,6,0,B|353:339|380:302|379:272|393:246|473:262,1,152.999995330811,0|0,3:0|0:0,0:0:0:0:
451,268,147534,1,0,0:0:0:0:
495,139,147697,2,0,P|454:102|410:122,1,101.999996887207,0|0,3:0|0:0,0:0:0:0:
202,192,148023,2,0,P|262:210|319:234,1,101.999996887207,8|0,0:0|0:0,0:0:0:0:
159,82,148349,2,0,B|213:97|240:72|233:39|260:14|321:36,1,152.999995330811,0|0,3:0|0:0,0:0:0:0:
315,35,148675,5,4,3:1:0:0:
174,4,148838,1,0,0:0:0:0:
72,65,149001,1,0,0:0:0:0:
95,147,149164,1,0,0:0:0:0:
37,300,149327,2,0,P|-3:266|10:218,1,101.999996887207,8|0,0:0|0:0,0:0:0:0:
165,200,149653,1,0,0:0:0:0:
115,359,149816,1,0,3:0:0:0:
277,266,149979,6,0,B|223:267|240:286|169:289,1,101.999996887207
327,384,150305,2,0,B|313:346|328:312|365:315|378:285|368:200,1,152.999995330811,0|0,3:0|0:0,0:0:0:0:
367,226,150632,1,8,0:0:0:0:
445,303,150795,1,0,0:0:0:0:
495,148,150958,2,0,P|463:104|421:110,1,101.999996887207,0|0,3:0|0:0,0:0:0:0:
268,8,151284,5,4,3:2:0:0:
344,146,151447,1,0,0:0:0:0:
279,226,151610,1,0,0:0:0:0:
202,175,151773,1,2,0:2:0:0:
311,66,151936,2,0,P|414:45|430:39,1,101.999996887207,10|2,0:2|0:2,0:0:0:0:
366,225,152262,1,2,0:2:0:0:
211,92,152425,6,0,P|137:72|94:53,1,101.999996887207,2|2,3:2|0:2,0:0:0:0:
12,116,152751,1,2,0:2:0:0:
85,251,152914,1,2,3:2:0:0:
148,203,153077,1,2,0:2:0:0:
27,365,153240,2,0,P|21:308|-7:246,1,101.999996887207,10|2,0:2|0:2,0:0:0:0:
235,211,153566,2,0,P|204:280|197:333,1,101.999996887207,2|2,3:2|0:2,0:0:0:0:
380,360,153892,6,0,B|390:303|373:265|320:263|312:221|340:139,2,203.999993774414,2|2|10,3:2|0:2|0:2,0:0:0:0:
293,328,154708,1,0,0:0:0:0:
404,204,154871,1,2,0:2:0:0:
311,53,155034,6,0,P|275:14|221:29,1,101.999996887207,0|2,0:0|0:2,0:0:0:0:
109,91,155360,1,0,0:0:0:0:
222,197,155523,2,0,P|211:134|192:88,1,101.999996887207,2|0,3:2|0:0,0:0:0:0:
426,41,155849,2,0,P|384:105|371:138,1,101.999996887207,10|0,0:2|0:0,0:0:0:0:
507,225,156175,2,0,B|478:238|458:268|491:302|474:365|386:344,1,152.999995330811,2|0,3:2|0:0,0:0:0:0:
416,343,156501,5,0,0:0:0:0:
