osu file format v14

[General]
AudioFilename: audio.mp3
AudioLeadIn: 0
PreviewTime: 51717
Countdown: 0
SampleSet: Soft
StackLeniency: 0.4
Mode: 0
LetterboxInBreaks: 0
WidescreenStoryboard: 1

[Editor]
Bookmarks: 71,10491,20901,41771,52220,73089,93959,104393,114828,135633,156502
DistanceSpacing: 1.2
BeatDivisor: 4
GridSize: 32
TimelineZoom: 1

[Metadata]
Title:Black Hole
TitleUnicode:Black Hole
Artist:OPFuture
ArtistUnicode:OPFuture
Creator:hehe
Version:Insane
Source:
Tags:german hip-hop anime one piece blackbeard rap jordan beats dennis philipps paradogi
BeatmapID:3689083
BeatmapSetID:1793369

[Difficulty]
HPDrainRate:4
CircleSize:4
OverallDifficulty:8
ApproachRate:8.8
SliderMultiplier:3.4
SliderTickRate:1

[Events]
//Background and Video events
0,0,"blackbeard.jpg",0,0
//Break Periods
2,104593,113873
//Storyboard Layer 0 (Background)
//Storyboard Layer 1 (Fail)
//Storyboard Layer 2 (Pass)
//Storyboard Layer 3 (Foreground)
//Storyboard Layer 4 (Overlay)
//Storyboard Sound Samples

[TimingPoints]
20902,652.173913043478,4,2,1,70,1,0
20902,-100,4,2,1,70,0,0
39488,-166.666666666667,4,2,1,70,0,0
41771,-100,4,2,1,70,0,0
49923,-166.666666666667,4,2,1,70,0,0
51893,652.173913043478,4,2,1,80,1,0
52220,652.173913043478,4,2,1,80,1,0
52220,-83.3333333333333,4,2,1,80,0,1
67872,-83.3333333333333,4,2,1,90,0,0
73089,-100,4,2,1,70,0,0
77654,-100,4,2,1,50,0,0
78633,-100,4,2,1,70,0,0
91676,-166.666666666667,4,2,1,70,0,0
93959,-100,4,2,1,70,0,0
102111,-166.666666666667,4,2,1,70,0,0
114502,-166.666666666667,4,2,1,80,0,0
114828,-83.3333333333333,4,2,1,80,0,1
130480,-83.3333333333333,4,2,1,90,0,0
135306,652.173913043478,4,2,1,90,1,0
135633,652.173913043478,4,2,1,90,1,0
135633,-83.3333333333333,4,2,1,90,0,1
151285,-83.3333333333333,4,2,1,100,0,0
154219,-100,4,2,1,100,0,0

[Colours]
Combo1 : 255,39,28
Combo2 : 255,156,23

[HitObjects]
256,192,19597,12,0,20575,0:0:0:0:
99,63,20901,6,0,P|112:103|120:144,1,85,4|0,3:1|0:0,0:0:0:0:
207,120,21228,2,0,P|193:79|185:38,1,85
59,203,21554,1,8,0:0:0:0:
217,237,21717,1,0,0:0:0:0:
147,382,21880,2,0,P|140:336|122:286,1,85,0|0,0:0|3:0,0:0:0:0:
281,299,22206,6,0,L|381:311,1,85
225,231,22532,2,0,L|125:243,1,85
283,163,22858,1,8,0:0:0:0:
260,80,23021,1,0,0:0:0:0:
343,56,23184,1,0,0:0:0:0:
366,139,23347,1,0,0:0:0:0:
466,68,23510,6,0,P|426:124|398:234,1,170,0|0,0:0|3:0,0:0:0:0:
506,300,23999,1,0,0:0:0:0:
414,380,24162,2,0,L|429:287,1,85,8|0,0:0|0:0,0:0:0:0:
254,309,24488,2,0,L|239:216,1,85,0|0,0:0|3:0,0:0:0:0:
290,152,24815,6,0,P|358:152|401:242,1,170,0|0,0:0|3:0,0:0:0:0:
338,288,25304,1,0,0:0:0:0:
225,203,25467,1,8,0:0:0:0:
159,323,25630,1,0,0:0:0:0:
88,270,25793,2,0,L|98:207,3,42.5,0|0|0|0,3:0|3:0|3:0|3:0,0:0:0:0:
80,222,26119,6,0,L|68:116,1,85,4|0,3:2|0:0,0:0:0:0:
162,122,26445,2,0,L|174:228,1,85
4,84,26771,1,8,0:0:0:0:
122,6,26934,1,0,0:0:0:0:
239,90,27097,2,0,P|302:82|336:119,1,85,0|0,0:0|3:0,0:0:0:0:
417,24,27423,6,0,P|446:73|447:189,1,170
361,177,27912,1,0,0:0:0:0:
299,314,28075,2,0,L|201:339,1,85,8|0,0:0|0:0,0:0:0:0:
456,280,28401,2,0,L|358:255,1,85
283,141,28728,6,0,P|218:143|189:257,1,170,0|0,0:0|3:0,0:0:0:0:
95,158,29217,1,0,0:0:0:0:
55,301,29380,2,0,P|44:241|33:203,1,85,8|0,0:0|0:0,0:0:0:0:
136,298,29706,2,0,P|147:358|158:396,1,85,0|0,0:0|3:0,0:0:0:0:
6,370,30032,6,0,B|9:269|58:313|58:211,1,170,0|0,0:0|3:0,0:0:0:0:
11,119,30521,1,0,0:0:0:0:
109,81,30684,1,8,0:0:0:0:
140,185,30847,1,0,0:0:0:0:
211,137,31010,1,0,0:0:0:0:
273,195,31173,1,0,0:0:0:0:
326,40,31336,6,0,P|408:43|475:112,1,170,4|0,3:2|0:0,0:0:0:0:
284,109,31825,1,0,0:0:0:0:
349,197,31988,2,0,L|361:302,1,85,8|0,0:0|0:0,0:0:0:0:
483,103,32315,2,0,L|471:208,1,85,0|0,0:0|3:0,0:0:0:0:
446,364,32641,5,0,0:0:0:0:
446,364,32967,2,0,P|451:305|437:267,1,85
284,291,33293,2,0,P|279:350|293:388,1,85,8|0,0:0|0:0,0:0:0:0:
383,233,33619,1,0,0:0:0:0:
254,163,33782,1,0,0:0:0:0:
371,77,33945,6,0,P|442:83|479:176,1,170,0|0,0:0|3:0,0:0:0:0:
336,152,34434,1,0,0:0:0:0:
212,84,34597,2,0,P|221:36|220:-18,1,85,8|0,0:0|0:0,0:0:0:0:
25,181,34923,2,0,P|26:223|34:265,1,85,0|0,0:0|3:0,0:0:0:0:
0,40,35249,6,0,P|65:20|133:77,1,127.5
114,45,35575,1,0,3:0:0:0:
92,134,35738,1,0,0:0:0:0:
165,187,35901,2,0,L|258:159,1,85,8|0,0:0|0:0,0:0:0:0:
434,113,36228,1,0,3:0:0:0:
434,113,36309,1,0,3:0:0:0:
434,113,36391,1,0,3:0:0:0:
434,113,36472,1,0,3:0:0:0:
433,113,36554,6,0,B|425:188|425:188|410:205|410:205|398:292,1,170,4|0,3:2|0:0,0:0:0:0:
337,160,37043,1,0,0:0:0:0:
228,258,37206,2,0,L|332:233,1,85,8|0,0:0|0:0,0:0:0:0:
234,56,37532,2,0,L|130:31,1,85,0|0,0:0|3:0,0:0:0:0:
65,150,37858,6,0,P|40:98|65:31,2,113.333333333333
26,236,38510,1,8,0:0:0:0:
163,212,38673,1,0,0:0:0:0:
191,350,38836,1,0,0:0:0:0:
269,300,38999,1,0,0:0:0:0:
328,364,39162,6,0,L|423:348,1,85
508,337,39488,2,0,B|488:264|536:281|497:184|497:184|509:256|457:235|504:337,1,305.999990661621,0|0,3:0|0:0,0:0:0:0:
360,35,41771,6,0,P|300:44|265:57,1,85,4|0,3:1|0:0,0:0:0:0:
379,114,42097,2,0,P|319:123|284:136,1,85
198,16,42423,1,8,0:0:0:0:
218,187,42586,1,0,0:0:0:0:
51,198,42749,1,0,0:0:0:0:
108,129,42912,6,0,P|154:165|188:276,1,170,0|0,3:0|0:0,0:0:0:0:
188,267,43320,2,0,P|112:263|68:318,1,127.5
104,384,43728,1,8,0:0:0:0:
121,221,43891,1,0,0:0:0:0:
306,273,44054,1,0,0:0:0:0:
266,197,44217,1,0,0:0:0:0:
389,266,44380,6,0,B|368:174|439:205|417:96,1,170,0|0,0:0|3:0,0:0:0:0:
467,304,44869,1,0,0:0:0:0:
331,375,45032,2,0,L|235:366,1,85,8|0,0:0|0:0,0:0:0:0:
188,196,45358,1,0,0:0:0:0:
188,196,45440,1,0,0:0:0:0:
188,196,45521,6,0,P|105:201|69:296,1,170,0|0,3:0|0:0,0:0:0:0:
131,384,46010,2,0,L|145:287,1,85,0|0,3:0|0:0,0:0:0:0:
260,242,46336,1,8,0:0:0:0:
206,105,46499,1,0,0:0:0:0:
333,160,46662,2,0,L|325:211,3,42.5,0|0|0|0,3:0|3:0|3:0|3:0,0:0:0:0:
323,147,46988,6,0,P|366:117|429:126,1,85,4|0,3:2|0:0,0:0:0:0:
445,240,47315,2,0,P|412:266|370:272,1,85
476,106,47641,1,8,0:0:0:0:
316,26,47804,1,0,0:0:0:0:
257,194,47967,1,0,0:0:0:0:
257,194,48130,1,0,3:0:0:0:
183,46,48293,6,0,L|192:138,2,85
116,162,48782,1,0,0:0:0:0:
91,22,48945,1,8,0:0:0:0:
26,172,49108,1,0,0:0:0:0:
180,224,49271,2,0,P|230:212|261:182,1,85
241,95,49597,5,0,0:0:0:0:
241,95,49760,1,0,0:0:0:0:
330,75,49923,2,0,P|458:81|454:238,1,305.999990661621,0|0,3:0|0:0,0:0:0:0:
321,243,51893,5,4,0:0:0:0:
321,243,52220,2,0,B|191:241|254:309|122:310,1,203.999993774414,4|0,3:1|0:0,0:0:0:0:
4,230,52709,1,0,0:0:0:0:
4,230,52872,2,0,P|39:280|52:335,1,101.999996887207,8|0,0:0|0:0,0:0:0:0:
221,334,53198,5,0,0:0:0:0:
261,174,53361,1,0,3:0:0:0:
102,135,53524,2,0,P|100:213|219:228,1,203.999993774414,0|0,0:0|3:0,0:0:0:0:
331,330,54013,1,0,0:0:0:0:
331,330,54176,2,0,P|326:271|336:205,1,101.999996887207,8|0,0:0|0:0,0:0:0:0:
510,354,54502,6,0,P|517:284|498:167,1,152.999995330811,0|0,3:0|0:0,0:0:0:0:
512,126,54828,2,0,P|436:124|435:251,1,203.999993774414,0|0,3:0|0:0,0:0:0:0:
487,280,55317,1,0,0:0:0:0:
374,352,55480,2,0,P|286:344|207:368,1,152.999995330811,8|0,0:0|0:0,0:0:0:0:
224,359,55806,6,0,P|193:308|215:264,1,101.999996887207,0|0,0:0|3:0,0:0:0:0:
348,153,56133,2,0,L|358:268,1,101.999996887207
405,85,56459,1,0,3:0:0:0:
216,47,56622,2,0,L|208:176,1,101.999996887207,0|8,0:0|0:0,0:0:0:0:
209,148,56948,1,0,0:0:0:0:
31,234,57111,6,0,P|9:173|31:81,1,152.999995330811,0|0,3:0|0:0,0:0:0:0:
14,11,57437,2,0,P|106:3|137:128,1,203.999993774414,0|0,3:0|0:0,0:0:0:0:
308,51,57926,1,0,0:0:0:0:
308,51,58089,2,0,P|293:110|297:169,1,101.999996887207,8|0,0:0|0:0,0:0:0:0:
382,21,58415,5,0,0:0:0:0:
469,186,58578,1,0,0:0:0:0:
301,266,58741,2,0,P|284:204|193:85,1,203.999993774414,0|0,3:0|3:0,0:0:0:0:
225,311,59230,1,0,0:0:0:0:
225,311,59393,2,0,P|190:262|136:227,1,101.999996887207,8|0,0:0|0:0,0:0:0:0:
11,103,59720,6,0,P|16:169|122:167,1,152.999995330811,0|0,3:0|0:0,0:0:0:0:
140,131,60046,2,0,P|204:124|335:187,1,203.999993774414,0|0,3:0|0:0,0:0:0:0:
424,154,60535,1,0,0:0:0:0:
489,32,60698,2,0,P|419:16|319:52,1,152.999995330811,8|0,0:0|0:0,0:0:0:0:
341,36,61024,6,0,P|322:96|363:152,1,101.999996887207,0|0,0:0|3:0,0:0:0:0:
488,295,61350,2,0,L|500:184,1,101.999996887207
378,242,61676,1,0,3:0:0:0:
211,363,61839,2,0,L|196:236,1,101.999996887207,0|8,0:0|0:0,0:0:0:0:
199,261,62165,1,0,0:0:0:0:
344,141,62328,6,0,P|356:215|335:307,1,152.999995330811,0|0,3:0|0:0,0:0:0:0:
371,366,62654,2,0,P|450:370|459:252,1,203.999993774414,4|0,3:2|0:0,0:0:0:0:
512,181,63143,1,0,0:0:0:0:
512,181,63306,2,0,P|443:169|393:175,1,101.999996887207,8|0,0:0|0:0,0:0:0:0:
281,15,63633,5,0,0:0:0:0:
415,93,63796,1,0,3:0:0:0:
304,200,63959,2,0,P|297:127|307:76,1,101.999996887207
198,41,64285,5,0,3:0:0:0:
50,161,64448,1,0,0:0:0:0:
207,270,64611,2,0,P|218:200|207:137,1,101.999996887207,8|0,0:0|0:0,0:0:0:0:
34,263,64937,6,0,P|9:333|42:362,1,101.999996887207,0|0,3:0|0:0,0:0:0:0:
276,311,65263,2,0,B|373:300|351:382|492:353,1,203.999993774414,4|0,3:1|0:0,0:0:0:0:
468,356,65752,1,0,0:0:0:0:
198,384,65915,2,0,P|188:303|170:248,1,101.999996887207,8|0,0:0|0:0,0:0:0:0:
371,129,66241,5,0,0:0:0:0:
256,258,66404,1,0,3:0:0:0:
208,52,66567,2,0,P|292:34|325:71,1,101.999996887207
338,275,66893,5,0,3:0:0:0:
205,132,67056,2,0,L|101:153,1,101.999996887207,0|8,0:0|0:0,0:0:0:0:
331,287,67383,2,0,L|435:308,1,101.999996887207,0|0,0:0|3:0,0:0:0:0:
233,369,67709,1,0,0:0:0:0:
281,174,67872,5,4,3:2:0:0:
281,174,68198,2,0,P|272:112|278:57,1,101.999996887207,0|2,0:0|0:2,0:0:0:0:
357,23,68524,5,10,0:2:0:0:
435,33,68687,1,2,0:2:0:0:
483,97,68850,1,2,0:2:0:0:
471,175,69013,2,0,P|394:187|347:223,1,101.999996887207,2|2,3:2|0:2,0:0:0:0:
181,259,69339,5,2,0:2:0:0:
308,367,69502,2,0,P|308:306|278:214,1,152.999995330811,2|0,3:2|0:0,0:0:0:0:
280,218,69828,2,0,P|236:189|251:132,1,101.999996887207,10|2,0:2|0:2,0:0:0:0:
363,65,70154,6,0,L|348:174,1,101.999996887207,2|2,3:2|0:2,0:0:0:0:
89,21,70480,2,0,L|74:130,1,101.999996887207,2|0,3:2|0:0,0:0:0:0:
256,192,71785,12,0,72763,0:0:0:0:
77,28,73089,6,0,P|63:92|59:139,1,85,4|0,3:1|0:0,0:0:0:0:
161,42,73415,2,0,P|147:106|143:153,1,85
246,191,73741,2,0,P|232:127|228:80,1,85
330,177,74067,2,0,P|316:113|312:66,1,85
503,37,74393,5,0,0:0:0:0:
413,24,74556,1,0,0:0:0:0:
404,111,74720,1,0,0:0:0:0:
353,343,75372,5,0,0:0:0:0:
353,343,75535,1,0,0:0:0:0:
278,289,75698,2,0,P|252:342|237:387,1,85
197,255,76024,2,0,P|171:308|156:353,1,85
306,165,76350,2,0,P|332:218|347:263,1,85
387,131,76676,2,0,P|413:184|428:229,1,85
223,130,77002,5,0,0:0:0:0:
166,62,77165,1,0,0:0:0:0:
245,18,77328,1,0,0:0:0:0:
294,173,77654,6,0,B|289:269|234:218|232:331,2,170
91,227,78633,5,0,0:0:0:0:
91,227,78796,1,0,0:0:0:0:
152,164,78959,2,0,P|138:111|132:63,1,85,8|0,0:0|0:0,0:0:0:0:
229,213,79285,5,0,0:0:0:0:
229,213,79448,1,0,3:0:0:0:
282,153,79611,2,0,P|341:139|443:169,1,170
472,257,80100,1,0,0:0:0:0:
342,297,80263,2,0,L|351:409,1,85,8|0,0:0|0:0,0:0:0:0:
162,185,80589,2,0,L|153:297,1,85
379,222,80915,6,0,P|361:160|236:156,1,170,0|0,0:0|3:0,0:0:0:0:
250,227,81404,1,0,0:0:0:0:
121,70,81567,2,0,P|177:72|227:81,1,85,8|0,0:0|0:0,0:0:0:0:
364,14,81893,2,0,P|321:19|279:20,1,85,0|0,0:0|3:0,0:0:0:0:
57,15,82219,5,0,0:0:0:0:
1,157,82383,1,0,0:0:0:0:
151,196,82546,1,0,3:0:0:0:
185,115,82709,5,0,0:0:0:0:
211,260,82872,2,0,P|193:313|183:369,1,85,8|0,0:0|0:0,0:0:0:0:
47,306,83198,2,0,P|65:253|75:197,1,85
273,209,83524,5,4,3:2:0:0:
141,149,83687,1,0,0:0:0:0:
251,56,83850,2,0,P|314:68|338:84,1,85
488,29,84176,2,0,L|506:126,1,85,8|0,0:0|0:0,0:0:0:0:
373,149,84502,2,0,L|355:246,1,85,0|0,0:0|3:0,0:0:0:0:
510,277,84828,5,0,0:0:0:0:
298,302,84991,1,0,0:0:0:0:
509,268,85154,2,0,P|452:270|373:365,1,170,0|8,0:0|0:0,0:0:0:0:
266,223,85643,1,0,0:0:0:0:
204,380,85806,2,0,L|216:278,1,85
8,261,86133,5,0,0:0:0:0:
23,373,86296,1,0,0:0:0:0:
130,343,86459,1,0,3:0:0:0:
65,190,86622,5,0,0:0:0:0:
236,204,86785,2,0,P|248:250|251:307,1,85,8|0,0:0|0:0,0:0:0:0:
327,186,87111,2,0,P|339:232|342:289,1,85,0|0,0:0|3:0,0:0:0:0:
393,78,87437,5,0,0:0:0:0:
242,0,87600,1,0,0:0:0:0:
165,151,87763,2,0,P|128:94|164:2,1,170,0|8,3:0|0:0,0:0:0:0:
246,121,88252,1,0,0:0:0:0:
336,246,88415,1,0,3:2:0:0:
336,246,88497,1,0,3:2:0:0:
336,246,88578,1,0,3:2:0:0:
336,246,88660,1,0,3:2:0:0:
336,246,88741,6,0,P|380:229|427:219,1,85,4|0,3:2|0:0,0:0:0:0:
310,168,89067,2,0,P|354:151|401:141,1,85
491,268,89393,1,8,0:0:0:0:
360,380,89556,1,0,0:0:0:0:
251,242,89719,1,0,0:0:0:0:
185,309,89883,1,0,3:0:0:0:
107,263,90046,6,0,P|92:219|69:170,1,85
283,117,90372,2,0,P|298:161|321:210,1,85
97,90,90698,1,8,0:0:0:0:
202,161,90861,1,0,0:0:0:0:
240,44,91024,1,0,0:0:0:0:
240,44,91187,1,0,0:0:0:0:
430,101,91350,6,0,L|412:200,1,85
324,360,91676,2,0,B|361:308|434:319|434:319|399:269|399:269|356:274|317:311|318:365,1,305.999990661621,0|2,3:0|0:0,0:0:0:0:
319,347,92817,1,2,0:0:0:0:
123,101,93959,6,0,P|119:147|110:199,1,85,4|0,3:2|0:0,0:0:0:0:
195,198,94285,2,0,P|199:152|208:100,1,85
351,231,94611,1,8,0:0:0:0:
291,107,94774,1,0,0:0:0:0:
426,68,94937,2,0,L|415:177,1,85,0|0,0:0|3:0,0:0:0:0:
395,361,95263,5,0,0:0:0:0:
395,361,95752,1,0,0:0:0:0:
316,329,95915,2,0,P|249:322|237:282,1,85,8|0,0:0|0:0,0:0:0:0:
189,245,96241,1,0,0:0:0:0:
259,194,96404,1,0,0:0:0:0:
160,136,96567,6,0,P|174:184|183:232,1,85
239,112,96893,2,0,P|253:160|262:208,1,85,0|0,3:0|0:0,0:0:0:0:
428,211,97219,2,0,P|414:259|405:307,1,85,8|0,0:0|0:0,0:0:0:0:
349,187,97545,2,0,P|335:235|326:283,1,85,0|0,0:0|3:0,0:0:0:0:
509,156,97872,6,0,P|487:95|368:109,1,170,0|0,0:0|3:0,0:0:0:0:
205,24,98361,1,0,0:0:0:0:
307,151,98524,2,0,L|313:38,1,85,8|0,0:0|0:0,0:0:0:0:
86,138,98850,2,0,L|17:122,3,42.5
34,139,99176,6,0,P|120:117|170:262,1,255,4|0,3:1|0:0,0:0:0:0:
19,300,99828,2,0,L|7:203,1,85,8|0,0:0|0:0,0:0:0:0:
93,342,100154,1,0,0:0:0:0:
228,180,100317,1,0,3:0:0:0:
317,273,100480,6,0,P|348:231|331:199,1,85
223,261,100806,1,0,0:0:0:0:
239,349,100969,1,0,0:0:0:0:
445,296,101133,5,8,0:0:0:0:
474,143,101296,1,0,0:0:0:0:
321,110,101459,2,0,P|308:175|315:293,1,170
385,366,101948,1,0,0:0:0:0:
387,181,102111,6,0,P|310:153|227:283,1,254.999992218018,0|0,3:0|0:0,0:0:0:0:
296,334,103089,5,2,0:0:0:0:
296,334,103252,2,0,L|363:344,1,50.9999984436036
221,370,103578,5,2,0:0:0:0:
221,370,103741,2,0,L|154:380,1,50.9999984436036
261,225,104067,5,2,0:0:0:0:
238,145,104230,1,0,0:0:0:0:
282,72,104393,1,4,3:1:0:0:
191,141,114502,5,4,0:0:0:0:
191,141,114829,2,0,B|321:143|258:75|390:74,1,203.999993774414,4|0,3:1|0:0,0:0:0:0:
508,154,115318,1,0,0:0:0:0:
508,154,115481,2,0,P|473:104|460:49,1,101.999996887207,8|0,0:0|0:0,0:0:0:0:
291,50,115807,5,0,0:0:0:0:
251,210,115970,1,0,3:0:0:0:
410,249,116133,2,0,P|412:171|293:156,1,203.999993774414,0|0,0:0|3:0,0:0:0:0:
181,54,116622,1,0,0:0:0:0:
181,54,116785,2,0,P|186:113|176:179,1,101.999996887207,8|0,0:0|0:0,0:0:0:0:
2,30,117111,6,0,P|-5:100|14:217,1,152.999995330811,0|0,3:0|0:0,0:0:0:0:
0,258,117437,2,0,P|76:260|77:133,1,203.999993774414,0|0,3:0|0:0,0:0:0:0:
25,104,117926,1,0,0:0:0:0:
138,32,118089,2,0,P|226:40|305:16,1,152.999995330811,8|0,0:0|0:0,0:0:0:0:
288,25,118415,6,0,P|319:76|297:120,1,101.999996887207,0|0,0:0|3:0,0:0:0:0:
164,231,118742,2,0,L|154:116,1,101.999996887207
107,299,119068,1,0,3:0:0:0:
296,337,119231,2,0,L|304:208,1,101.999996887207,0|8,0:0|0:0,0:0:0:0:
303,236,119557,1,0,0:0:0:0:
487,140,119720,6,0,P|509:201|487:293,1,152.999995330811,0|0,3:0|0:0,0:0:0:0:
504,363,120046,2,0,P|412:371|381:246,1,203.999993774414,0|0,3:0|0:0,0:0:0:0:
204,333,120535,1,0,0:0:0:0:
204,333,120698,2,0,P|219:274|215:215,1,101.999996887207,8|0,0:0|0:0,0:0:0:0:
130,363,121024,5,0,0:0:0:0:
43,198,121187,1,0,0:0:0:0:
211,118,121350,2,0,P|228:180|319:299,1,203.999993774414,0|0,3:0|3:0,0:0:0:0:
287,73,121839,1,0,0:0:0:0:
287,73,122002,2,0,P|322:122|376:157,1,101.999996887207,8|0,0:0|0:0,0:0:0:0:
501,281,122329,6,0,P|496:215|390:217,1,152.999995330811,0|0,3:0|0:0,0:0:0:0:
372,253,122655,2,0,P|308:260|177:197,1,203.999993774414,0|0,3:0|0:0,0:0:0:0:
88,230,123144,1,0,0:0:0:0:
23,352,123307,2,0,P|93:368|193:332,1,152.999995330811,8|0,0:0|0:0,0:0:0:0:
171,348,123633,6,0,P|190:288|149:232,1,101.999996887207,0|0,0:0|3:0,0:0:0:0:
24,89,123959,2,0,L|12:200,1,101.999996887207
134,142,124285,1,0,3:0:0:0:
301,21,124448,2,0,L|316:148,1,101.999996887207,0|8,0:0|0:0,0:0:0:0:
313,123,124774,1,0,0:0:0:0:
168,243,124937,6,0,P|156:169|177:77,1,152.999995330811,0|0,3:0|0:0,0:0:0:0:
141,18,125263,2,0,P|62:14|53:132,1,203.999993774414,4|0,3:2|0:0,0:0:0:0:
0,203,125752,1,0,0:0:0:0:
0,203,125915,2,0,P|69:215|119:209,1,101.999996887207,8|0,0:0|0:0,0:0:0:0:
231,369,126242,5,0,0:0:0:0:
97,291,126405,1,0,3:0:0:0:
208,184,126568,2,0,P|215:257|205:308,1,101.999996887207
314,343,126894,5,0,3:0:0:0:
462,223,127057,1,0,0:0:0:0:
305,114,127220,2,0,P|294:184|305:247,1,101.999996887207,8|0,0:0|0:0,0:0:0:0:
478,121,127546,6,0,P|503:51|470:22,1,101.999996887207,0|0,3:0|0:0,0:0:0:0:
236,73,127872,2,0,B|139:84|161:2|20:31,1,203.999993774414,4|0,3:1|0:0,0:0:0:0:
44,28,128361,1,0,0:0:0:0:
314,0,128524,2,0,P|324:81|342:136,1,101.999996887207,8|0,0:0|0:0,0:0:0:0:
141,255,128850,5,0,0:0:0:0:
256,126,129013,1,0,3:0:0:0:
304,332,129176,2,0,P|220:350|187:313,1,101.999996887207
174,109,129502,5,0,3:0:0:0:
307,252,129665,2,0,L|411:231,1,101.999996887207,0|8,0:0|0:0,0:0:0:0:
181,97,129992,2,0,L|77:76,1,101.999996887207,0|0,0:0|3:0,0:0:0:0:
279,15,130318,1,0,0:0:0:0:
231,210,130481,5,4,3:2:0:0:
231,210,130807,2,0,P|240:272|234:327,1,101.999996887207,0|2,0:0|0:2,0:0:0:0:
155,361,131133,5,10,0:2:0:0:
77,351,131296,1,2,0:2:0:0:
29,287,131459,1,2,0:2:0:0:
41,209,131622,2,0,P|118:197|165:161,1,101.999996887207,2|2,3:2|0:2,0:0:0:0:
331,125,131948,5,2,0:2:0:0:
204,17,132111,2,0,P|204:78|234:170,1,152.999995330811,2|0,3:2|0:0,0:0:0:0:
232,166,132437,2,0,P|276:195|261:252,1,101.999996887207,10|2,0:2|0:2,0:0:0:0:
149,319,132763,6,0,L|164:210,1,101.999996887207,2|2,3:2|0:2,0:0:0:0:
423,363,133089,2,0,L|438:254,1,101.999996887207,2|0,3:2|0:0,0:0:0:0:
312,57,135306,5,4,0:0:0:0:
312,57,135632,2,0,P|230:55|226:160,1,170,4|0,3:1|0:0,0:0:0:0:
354,125,136122,1,0,0:0:0:0:
273,261,136285,2,0,L|280:149,1,101.999996887207,8|0,0:0|0:0,0:0:0:0:
512,176,136611,5,0,0:0:0:0:
344,312,136774,1,0,3:0:0:0:
201,142,136937,2,0,P|226:90|278:79,1,101.999996887207
420,130,137263,5,0,3:0:0:0:
330,7,137426,2,0,L|347:128,1,101.999996887207,0|8,0:0|0:0,0:0:0:0:
506,82,137752,2,0,L|489:203,1,101.999996887207,0|0,0:0|3:0,0:0:0:0:
491,183,138078,1,0,0:0:0:0:
347,316,138241,6,0,P|366:246|312:110,1,203.999993774414,0|0,3:0|0:0,0:0:0:0:
267,277,138730,1,0,0:0:0:0:
104,360,138893,2,0,P|64:313|67:252,1,101.999996887207,8|0,0:0|0:0,0:0:0:0:
178,322,139219,6,0,L|192:202,1,101.999996887207,0|0,0:0|3:0,0:0:0:0:
9,108,139546,2,0,P|43:178|139:163,1,152.999995330811
111,183,139872,1,0,3:0:0:0:
184,117,140035,2,0,P|236:116|286:155,1,101.999996887207,0|8,0:0|0:0,0:0:0:0:
289,287,140361,5,0,0:0:0:0:
348,104,140524,2,0,P|392:162|359:270,1,152.999995330811,0|0,3:0|0:0,0:0:0:0:
384,238,140850,6,0,B|272:228|317:303|189:289,1,203.999993774414,0|0,3:0|0:0,0:0:0:0:
42,330,141339,1,0,0:0:0:0:
59,180,141502,2,0,P|96:239|112:292,1,101.999996887207,8|0,0:0|0:0,0:0:0:0:
208,181,141828,5,0,0:0:0:0:
44,98,141991,1,0,0:0:0:0:
203,0,142154,2,0,P|187:60|184:119,1,101.999996887207,0|0,3:0|0:0,0:0:0:0:
321,154,142480,5,0,3:0:0:0:
129,243,142643,2,0,L|114:125,1,101.999996887207,0|8,0:0|0:0,0:0:0:0:
270,324,142969,2,0,L|285:206,1,101.999996887207,0|0,0:0|3:0,0:0:0:0:
282,222,143296,1,0,0:0:0:0:
287,58,143459,6,0,P|365:54|426:172,1,203.999993774414,0|0,3:0|0:0,0:0:0:0:
361,307,143948,1,0,0:0:0:0:
246,133,144111,2,0,P|194:153|186:220,1,101.999996887207,8|0,0:0|0:0,0:0:0:0:
332,136,144437,6,0,L|308:260,1,101.999996887207,0|0,0:0|3:0,0:0:0:0:
449,373,144763,2,0,P|504:361|500:266,1,152.999995330811
511,276,145089,1,0,3:0:0:0:
467,191,145252,2,0,P|421:235|360:260,1,101.999996887207,0|8,0:0|0:0,0:0:0:0:
245,345,145578,5,0,0:0:0:0:
316,197,145741,2,0,P|245:197|174:115,1,152.999995330811,0|0,3:0|0:0,0:0:0:0:
184,145,146067,6,0,P|180:70|53:45,1,203.999993774414,4|0,3:2|0:0,0:0:0:0:
7,213,146556,1,0,0:0:0:0:
66,113,146719,2,0,P|83:177|86:222,1,101.999996887207,8|0,0:0|0:0,0:0:0:0:
249,208,147046,5,0,0:0:0:0:
112,298,147209,1,0,3:0:0:0:
256,378,147372,2,0,P|294:341|280:284,1,101.999996887207
155,367,147698,5,0,3:0:0:0:
242,198,147861,2,0,L|355:222,1,101.999996887207,0|8,0:0|0:0,0:0:0:0:
147,81,148187,2,0,L|260:57,1,101.999996887207,0|0,0:0|3:0,0:0:0:0:
246,59,148513,1,0,0:0:0:0:
166,195,148676,6,0,B|153:84|94:148|77:13,1,203.999993774414,4|0,3:1|0:0,0:0:0:0:
127,273,149165,1,0,0:0:0:0:
319,314,149328,2,0,B|325:258|355:290|363:223,1,101.999996887207,8|0,0:0|0:0,0:0:0:0:
268,372,149654,5,0,0:0:0:0:
237,198,149817,1,0,3:0:0:0:
415,161,149980,2,0,P|452:197|441:243,1,101.999996887207
306,239,150306,5,0,3:0:0:0:
323,25,150469,2,0,L|340:136,1,101.999996887207,0|8,0:0|0:0,0:0:0:0:
137,175,150796,2,0,L|154:64,1,101.999996887207,0|0,0:0|3:0,0:0:0:0:
85,28,151122,1,0,0:0:0:0:
0,228,151285,5,4,3:2:0:0:
0,228,151611,2,0,P|70:237|123:261,1,101.999996887207,0|2,0:0|0:2,0:0:0:0:
221,357,151937,5,10,0:2:0:0:
304,350,152100,1,2,0:2:0:0:
352,281,152263,1,2,0:2:0:0:
328,200,152426,2,0,P|259:212|220:232,1,101.999996887207,2|2,3:2|0:2,0:0:0:0:
411,45,152752,5,2,0:2:0:0:
452,166,152915,2,0,P|373:131|314:53,1,152.999995330811,2|0,3:2|0:0,0:0:0:0:
328,82,153241,2,0,P|315:30|252:17,1,101.999996887207,10|2,0:2|0:2,0:0:0:0:
136,109,153567,6,0,L|249:87,1,101.999996887207,2|2,3:2|0:2,0:0:0:0:
180,362,153893,2,0,L|293:340,1,101.999996887207,2|0,3:2|0:0,0:0:0:0:
100,319,154219,6,0,P|43:326|28:219,2,170,2|10|2,0:2|0:2|0:2,0:0:0:0:
144,242,155035,1,0,0:0:0:0:
144,242,155198,2,0,L|242:255,1,85,2|0,0:2|0:0,0:0:0:0:
403,225,155524,6,0,P|395:165|354:140,1,85,2|0,3:2|0:0,0:0:0:0:
239,170,155850,2,0,P|247:108|344:80,2,170,10|2|0,0:2|3:2|0:0,0:0:0:0:
