osu file format v14

[General]
AudioFilename: audio.mp3
AudioLeadIn: 0
PreviewTime: 115146
Countdown: 0
SampleSet: Normal
StackLeniency: 0.7
Mode: 1
LetterboxInBreaks: 0
WidescreenStoryboard: 0

[Editor]
DistanceSpacing: 0.1
BeatDivisor: 4
GridSize: 32
TimelineZoom: 2.899999

[Metadata]
Title:Himegoto*Crisisters (nenpulse bootleg remix)
TitleUnicode:ひめごと*クライシスターズ (nenpulse bootleg remix)
Artist:ONIMAI SISTERS
ArtistUnicode:ONIMAI SISTERS
Creator:ler1211
Version:Identity Crisis
Source:お兄ちゃんはおしまい!
Tags:rinze おにまい Oniichan ha wa Oshimai! 高野麻里佳 Kouno Marika 石原夏織 Ishihara Kaori 金元寿子 Kanemoto Hisako 津田美波 Tsuda Minami Jpop J-pop pop jcore j-core hardcore Japanese Anime Electronic ed ending theme thema full ver. version
BeatmapID:4102957
BeatmapSetID:1976611

[Difficulty]
HPDrainRate:5
CircleSize:5
OverallDifficulty:6.5
ApproachRate:5
SliderMultiplier:1.4
SliderTickRate:1

[Events]
//Background and Video events
0,0,"onimai.jpg",0,75
//Break Periods
//Storyboard Layer 0 (Background)
//Storyboard Layer 1 (Fail)
//Storyboard Layer 2 (Pass)
//Storyboard Layer 3 (Foreground)
//Storyboard Layer 4 (Overlay)
//Storyboard Sound Samples

[TimingPoints]
480,333.333333333333,4,1,0,60,1,0
480,-125,4,1,0,60,0,0
11063,-111.111111111111,4,1,0,70,0,0
16396,-105.263157894737,4,1,0,75,0,0
17729,-100,4,1,0,80,0,0
20313,-111.111111111111,4,1,0,80,0,0
21729,-100,4,1,0,85,0,0
43146,-117.647058823529,4,1,0,85,0,0
43313,-119.047619047619,4,1,0,60,0,0
47396,-113.636363636364,4,1,0,60,0,0
47729,-108.695652173913,4,1,0,60,0,0
47896,-106.382978723404,4,1,0,60,0,0
48063,-104.166666666667,4,1,0,85,0,0
48396,-100,4,1,0,85,0,0
55063,-111.111111111111,4,1,0,80,0,0
56063,-83.3333333333333,4,1,0,100,0,0
56479,333.333333333333,4,1,0,100,1,1
56479,-100,4,1,0,100,0,1
77812,-100,4,1,0,100,0,0
77978,-117.647058823529,4,1,0,70,0,0
82478,-117.647058823529,4,1,0,80,0,0
82978,-111.111111111111,4,1,0,80,0,0
88478,-100,4,1,0,90,0,0
97895,-84.7457627118644,4,1,0,90,0,0
98062,-87.719298245614,4,1,0,90,0,0
98228,-90.9090909090909,4,1,0,90,0,0
98395,-94.3396226415094,4,1,0,90,0,0
98728,-102.040816326531,4,1,0,90,0,0
99145,-111.111111111111,4,1,0,90,0,0
99312,-111.111111111111,4,1,0,80,0,0
105645,-117.647058823529,4,1,0,70,0,0
106728,-117.647058823529,4,1,0,80,0,0
106978,-111.111111111111,4,1,0,80,0,0
108395,-105.263157894737,4,1,0,80,0,0
109728,-100,4,1,0,90,0,0
113978,-80,4,1,0,100,0,0
114145,-80,4,1,0,100,0,1
114478,-100,4,1,0,100,0,1
114645,-100,4,1,0,100,0,0
115145,-100,4,1,0,100,0,1
125812,-100,4,1,0,100,0,0
126145,-100,4,1,0,100,0,1
136395,-66.6666666666667,4,1,0,70,0,1
137812,-111.111111111111,4,1,0,70,0,0
138728,-86.9565217391304,4,1,0,90,0,0
139145,333.333333333333,4,1,0,90,1,8
139146,333.333333333333,4,1,0,90,1,0
139146,-100,4,1,0,90,0,0
157728,-83.3333333333333,4,1,0,90,0,0
160312,-100,4,1,0,85,0,0
181728,-111.111111111111,4,1,0,80,0,0
191895,-100,4,1,0,80,0,0
192395,-100,4,1,0,90,0,0
201895,-84.7457627118644,4,1,0,90,0,0
202062,-87.719298245614,4,1,0,90,0,0
202228,-90.9090909090909,4,1,0,90,0,0
202395,-94.3396226415094,4,1,0,90,0,0
202728,-102.040816326531,4,1,0,90,0,0
203145,-111.111111111111,4,1,0,90,0,0
203312,-111.111111111111,4,1,0,80,0,0
208645,-125,4,1,0,60,0,0
212312,-125,4,1,0,70,0,0
212479,-125,4,1,0,70,0,1
212645,-117.647058823529,4,1,0,70,0,1
212978,-111.111111111111,4,1,0,70,0,1
213312,-105.263157894737,4,1,0,80,0,1
213479,-105.263157894737,4,1,0,80,0,0
213645,-100,4,1,0,90,0,0
217978,-80,4,1,0,100,0,0
218145,-80,4,1,0,100,0,1
218312,-100,4,1,0,90,0,1
218479,-100,4,1,0,90,0,0
219145,-100,4,1,0,100,0,1
229812,-100,4,1,0,100,0,0
230145,-100,4,1,0,100,0,1
240395,-66.6666666666667,4,1,0,70,0,1
241812,-111.111111111111,4,1,0,70,0,0
242728,-86.9565217391304,4,1,0,90,0,0
243145,333.333333333333,4,1,0,90,1,8
243146,333.333333333333,4,1,0,90,1,0
243146,-100,4,1,0,90,0,0
263229,-84.7457627118644,4,1,0,90,0,0
263396,-87.719298245614,4,1,0,90,0,0
263562,-90.9090909090909,4,1,0,90,0,0
263729,-94.3396226415094,4,1,0,90,0,0
264062,-102.040816326531,4,1,0,90,0,0
264479,-111.111111111111,4,1,0,90,0,0
270979,-117.647058823529,4,1,0,70,0,0
272062,-117.647058823529,4,1,0,80,0,0
272312,-111.111111111111,4,1,0,80,0,0
273729,-105.263157894737,4,1,0,80,0,0
275062,-100,4,1,0,90,0,0
279396,-74.0740740740741,4,1,0,100,0,0
279479,-74.0740740740741,4,1,0,100,0,1
279563,-111.111111111111,4,1,0,90,0,1
280479,-111.111111111111,4,1,0,90,0,0
281812,333.333333333333,4,1,0,90,1,8
281813,333.333333333333,4,1,0,90,1,1
281813,-111.111111111111,4,1,0,90,0,1
281979,-111.111111111111,4,1,0,90,0,0
282979,-111.111111111111,4,1,0,90,0,1
283146,-111.111111111111,4,1,0,90,0,0
284479,-111.111111111111,4,1,0,90,0,1
284646,-111.111111111111,4,1,0,90,0,0
286646,-83.3333333333333,4,1,0,100,0,0
287146,-100,4,1,0,100,0,1
292479,-100,4,1,0,100,0,0
292813,-100,4,1,0,100,0,1
303146,-100,4,1,0,90,0,0
321729,-83.3333333333333,4,1,0,90,0,0
325646,-100,4,1,0,85,0,0
325812,333.333333333333,4,1,0,85,1,8
325813,333.333333333333,4,1,0,85,1,0
346979,-111.111111111111,4,1,0,70,0,0
357979,-125,4,1,0,60,0,0
363063,-117.647058823529,4,1,0,70,0,0
364396,-111.111111111111,4,1,0,75,0,0
365729,-100,4,1,0,80,0,0

[HitObjects]
256,192,480,5,4,0:0:0:0:
256,192,813,1,8,0:0:0:0:
256,192,1146,1,8,0:0:0:0:
256,192,1479,1,8,0:0:0:0:
256,192,1813,1,8,0:0:0:0:
256,192,2146,1,8,0:0:0:0:
256,192,2479,1,8,0:0:0:0:
256,192,2813,1,8,0:0:0:0:
256,192,2979,1,8,0:0:0:0:
256,192,3146,1,8,0:0:0:0:
256,192,3479,1,8,0:0:0:0:
256,192,3813,1,8,0:0:0:0:
256,192,4146,1,8,0:0:0:0:
256,192,4479,1,8,0:0:0:0:
256,192,4813,1,8,0:0:0:0:
256,192,5146,1,8,0:0:0:0:
256,192,5479,1,8,0:0:0:0:
256,192,5646,1,8,0:0:0:0:
256,192,5813,1,8,0:0:0:0:
256,192,6146,1,8,0:0:0:0:
256,192,6479,1,8,0:0:0:0:
256,192,6813,1,8,0:0:0:0:
256,192,7146,1,8,0:0:0:0:
256,192,7479,1,8,0:0:0:0:
256,192,7813,1,8,0:0:0:0:
256,192,8146,1,8,0:0:0:0:
256,192,8313,1,8,0:0:0:0:
256,192,8479,1,8,0:0:0:0:
256,192,8813,1,8,0:0:0:0:
256,192,9146,1,8,0:0:0:0:
256,192,9479,1,8,0:0:0:0:
256,192,9813,1,8,0:0:0:0:
256,192,10146,1,8,0:0:0:0:
256,192,10313,1,8,0:0:0:0:
256,192,10479,1,8,0:0:0:0:
256,192,10563,1,8,0:0:0:0:
256,192,10646,1,8,0:0:0:0:
256,192,10813,1,8,0:0:0:0:
256,192,10979,1,8,0:0:0:0:
256,192,11146,1,4,0:0:0:0:
256,192,11479,1,8,0:0:0:0:
256,192,11813,1,0,0:0:0:0:
256,192,11979,1,0,0:0:0:0:
256,192,12146,1,8,0:0:0:0:
256,192,12479,1,8,0:0:0:0:
256,192,12646,1,8,0:0:0:0:
256,192,12813,1,0,0:0:0:0:
256,192,12979,1,0,0:0:0:0:
256,192,13146,1,8,0:0:0:0:
256,192,13479,1,8,0:0:0:0:
256,192,13646,1,8,0:0:0:0:
256,192,13813,1,0,0:0:0:0:
256,192,14146,1,8,0:0:0:0:
256,192,14479,1,0,0:0:0:0:
256,192,14646,1,0,0:0:0:0:
256,192,14813,1,8,0:0:0:0:
256,192,15146,1,8,0:0:0:0:
256,192,15313,1,8,0:0:0:0:
256,192,15479,1,0,0:0:0:0:
256,192,15646,1,0,0:0:0:0:
256,192,15813,1,8,0:0:0:0:
256,192,15896,1,8,0:0:0:0:
256,192,15979,1,8,0:0:0:0:
256,192,16146,1,8,0:0:0:0:
256,192,16313,1,8,0:0:0:0:
256,192,16479,1,4,0:0:0:0:
256,192,16646,1,0,0:0:0:0:
256,192,16813,1,8,0:0:0:0:
256,192,16896,1,8,0:0:0:0:
256,192,16979,1,0,0:0:0:0:
256,192,17146,1,8,0:0:0:0:
256,192,17313,1,0,0:0:0:0:
256,192,17396,1,0,0:0:0:0:
256,192,17479,1,8,0:0:0:0:
256,192,17646,1,8,0:0:0:0:
256,192,17813,1,4,0:0:0:0:
256,192,17979,1,8,0:0:0:0:
256,192,18063,1,0,0:0:0:0:
256,192,18146,1,8,0:0:0:0:
256,192,18313,1,0,0:0:0:0:
256,192,18479,1,8,0:0:0:0:
256,192,18563,1,8,0:0:0:0:
256,192,18646,1,0,0:0:0:0:
256,192,18729,1,0,0:0:0:0:
256,192,18813,1,8,0:0:0:0:
256,192,18868,1,8,0:0:0:0:
256,192,18924,1,8,0:0:0:0:
256,192,18979,1,0,0:0:0:0:
256,192,19063,1,8,0:0:0:0:
256,192,19146,1,0,0:0:0:0:
256,192,20479,1,0,0:0:0:0:
256,192,20813,1,8,0:0:0:0:
256,192,20979,1,0,0:0:0:0:
256,192,21063,1,0,0:0:0:0:
256,192,21146,1,8,0:0:0:0:
256,192,21229,1,8,0:0:0:0:
256,192,21313,1,0,0:0:0:0:
256,192,21396,1,0,0:0:0:0:
256,192,21479,1,8,0:0:0:0:
256,192,21646,1,8,0:0:0:0:
256,192,21813,1,4,0:0:0:0:
256,192,22063,1,0,0:0:0:0:
256,192,22146,1,8,0:0:0:0:
256,192,22313,1,8,0:0:0:0:
256,192,22479,1,0,0:0:0:0:
256,192,22646,1,0,0:0:0:0:
256,192,22729,1,0,0:0:0:0:
256,192,22813,1,8,0:0:0:0:
256,192,22979,1,8,0:0:0:0:
256,192,23146,1,0,0:0:0:0:
256,192,23229,1,0,0:0:0:0:
256,192,23313,1,0,0:0:0:0:
256,192,23479,1,8,0:0:0:0:
256,192,23646,1,8,0:0:0:0:
256,192,23813,1,0,0:0:0:0:
256,192,23896,1,8,0:0:0:0:
256,192,23979,1,0,0:0:0:0:
256,192,24063,1,0,0:0:0:0:
256,192,24146,1,8,0:0:0:0:
256,192,24313,1,8,0:0:0:0:
256,192,24479,1,0,0:0:0:0:
256,192,24729,1,0,0:0:0:0:
256,192,24813,1,8,0:0:0:0:
256,192,24979,1,0,0:0:0:0:
256,192,25146,1,8,0:0:0:0:
256,192,25313,1,0,0:0:0:0:
256,192,25396,1,0,0:0:0:0:
256,192,25479,1,8,0:0:0:0:
256,192,25563,1,8,0:0:0:0:
256,192,25646,1,0,0:0:0:0:
256,192,25813,1,8,0:0:0:0:
256,192,25979,1,0,0:0:0:0:
256,192,26063,1,0,0:0:0:0:
256,192,26146,1,8,0:0:0:0:
256,192,26313,1,0,0:0:0:0:
256,192,26479,1,8,0:0:0:0:
256,192,26563,1,8,0:0:0:0:
256,192,26646,1,0,0:0:0:0:
256,192,26729,1,0,0:0:0:0:
256,192,26813,1,8,0:0:0:0:
256,192,26979,1,8,0:0:0:0:
256,192,27146,1,0,0:0:0:0:
256,192,27396,1,0,0:0:0:0:
256,192,27479,1,8,0:0:0:0:
256,192,27646,1,8,0:0:0:0:
256,192,27729,1,8,0:0:0:0:
256,192,27813,1,0,0:0:0:0:
256,192,27979,1,0,0:0:0:0:
256,192,28146,1,8,0:0:0:0:
256,192,28313,1,0,0:0:0:0:
256,192,28396,1,8,0:0:0:0:
256,192,28479,1,0,0:0:0:0:
256,192,28646,1,0,0:0:0:0:
256,192,28813,1,8,0:0:0:0:
256,192,28979,1,0,0:0:0:0:
256,192,29146,1,8,0:0:0:0:
256,192,29229,1,0,0:0:0:0:
256,192,29313,1,0,0:0:0:0:
256,192,29396,1,0,0:0:0:0:
256,192,29479,1,8,0:0:0:0:
256,192,29646,1,8,0:0:0:0:
256,192,29813,1,0,0:0:0:0:
256,192,30063,1,0,0:0:0:0:
256,192,30146,1,8,0:0:0:0:
256,192,30313,1,8,0:0:0:0:
256,192,30479,1,0,0:0:0:0:
256,192,30646,1,8,0:0:0:0:
256,192,30729,1,0,0:0:0:0:
256,192,30813,1,8,0:0:0:0:
256,192,30979,1,8,0:0:0:0:
256,192,31146,1,4,0:0:0:0:
256,192,31479,1,8,0:0:0:0:
256,192,31646,1,8,0:0:0:0:
256,192,31813,1,0,0:0:0:0:
256,192,31896,1,0,0:0:0:0:
256,192,31979,1,0,0:0:0:0:
256,192,32146,1,12,0:0:0:0:
256,192,32313,1,0,0:0:0:0:
256,192,32368,1,0,0:0:0:0:
256,192,32424,1,0,0:0:0:0:
256,192,32479,1,8,0:0:0:0:
256,192,32729,1,0,0:0:0:0:
256,192,32813,1,8,0:0:0:0:
256,192,32979,1,8,0:0:0:0:
256,192,33146,1,0,0:0:0:0:
256,192,33313,1,0,0:0:0:0:
256,192,33396,1,0,0:0:0:0:
256,192,33479,1,8,0:0:0:0:
256,192,33646,1,8,0:0:0:0:
256,192,33813,1,0,0:0:0:0:
256,192,33896,1,8,0:0:0:0:
256,192,33979,1,0,0:0:0:0:
256,192,34063,1,0,0:0:0:0:
256,192,34146,1,8,0:0:0:0:
256,192,34313,1,8,0:0:0:0:
256,192,34396,1,8,0:0:0:0:
256,192,34479,1,0,0:0:0:0:
256,192,34646,1,0,0:0:0:0:
256,192,34813,1,8,0:0:0:0:
256,192,34979,1,0,0:0:0:0:
256,192,35035,1,0,0:0:0:0:
256,192,35091,1,0,0:0:0:0:
256,192,35146,1,8,0:0:0:0:
256,192,35396,1,0,0:0:0:0:
256,192,35479,1,8,0:0:0:0:
256,192,35646,1,0,0:0:0:0:
256,192,35813,1,8,0:0:0:0:
256,192,35979,1,0,0:0:0:0:
256,192,36063,1,0,0:0:0:0:
256,192,36146,1,8,0:0:0:0:
256,192,36313,1,0,0:0:0:0:
256,192,36479,1,8,0:0:0:0:
256,192,36563,1,8,0:0:0:0:
256,192,36646,1,0,0:0:0:0:
256,192,36729,1,0,0:0:0:0:
256,192,36813,1,8,0:0:0:0:
256,192,36979,1,0,0:0:0:0:
256,192,37146,1,8,0:0:0:0:
256,192,37229,1,8,0:0:0:0:
256,192,37313,1,0,0:0:0:0:
256,192,37479,1,8,0:0:0:0:
256,192,37646,1,0,0:0:0:0:
256,192,37702,1,0,0:0:0:0:
256,192,37757,1,0,0:0:0:0:
256,192,37813,1,8,0:0:0:0:
256,192,37979,1,0,0:0:0:0:
256,192,38146,1,8,0:0:0:0:
256,192,38313,1,0,0:0:0:0:
256,192,38396,1,8,0:0:0:0:
256,192,38479,1,0,0:0:0:0:
256,192,38646,1,0,0:0:0:0:
256,192,38813,1,8,0:0:0:0:
256,192,38979,1,0,0:0:0:0:
256,192,39035,1,0,0:0:0:0:
256,192,39091,1,0,0:0:0:0:
256,192,39146,1,8,0:0:0:0:
256,192,39313,1,0,0:0:0:0:
256,192,39479,1,8,0:0:0:0:
256,192,39563,1,8,0:0:0:0:
256,192,39646,1,0,0:0:0:0:
256,192,39729,1,8,0:0:0:0:
256,192,39813,1,0,0:0:0:0:
256,192,39979,1,0,0:0:0:0:
256,192,40146,1,8,0:0:0:0:
256,192,40313,1,0,0:0:0:0:
256,192,40368,1,0,0:0:0:0:
256,192,40424,1,0,0:0:0:0:
256,192,40479,1,8,0:0:0:0:
256,192,40563,1,8,0:0:0:0:
256,192,40646,1,0,0:0:0:0:
256,192,40729,1,8,0:0:0:0:
256,192,40813,1,0,0:0:0:0:
256,192,40896,1,0,0:0:0:0:
256,192,40979,1,8,0:0:0:0:
256,192,41063,1,0,0:0:0:0:
256,192,41146,1,8,0:0:0:0:
256,192,41229,1,8,0:0:0:0:
256,192,41313,1,0,0:0:0:0:
256,192,41396,1,0,0:0:0:0:
256,192,41479,1,8,0:0:0:0:
256,192,41535,1,8,0:0:0:0:
256,192,41591,1,8,0:0:0:0:
256,192,41646,1,0,0:0:0:0:
256,192,41729,1,8,0:0:0:0:
256,192,41813,1,0,0:0:0:0:
256,192,42479,1,8,0:0:0:0:
256,192,42646,1,0,0:0:0:0:
256,192,42813,1,12,0:0:0:0:
256,192,43146,1,4,0:0:0:0:
256,192,43479,1,0,0:0:0:0:
256,192,43813,1,0,0:0:0:0:
256,192,44313,1,0,0:0:0:0:
256,192,44813,1,0,0:0:0:0:
256,192,45146,1,0,0:0:0:0:
256,192,45813,1,0,0:0:0:0:
256,192,46146,1,0,0:0:0:0:
256,192,46479,1,0,0:0:0:0:
256,192,46813,1,0,0:0:0:0:
256,192,46979,1,0,0:0:0:0:
256,192,47146,1,8,0:0:0:0:
256,192,47479,1,8,0:0:0:0:
256,192,47813,1,8,0:0:0:0:
256,192,47979,1,0,0:0:0:0:
256,192,48146,1,12,0:0:0:0:
256,192,48479,1,4,0:0:0:0:
256,192,48646,1,0,0:0:0:0:
256,192,48813,1,8,0:0:0:0:
256,192,48979,1,8,0:0:0:0:
256,192,49063,1,8,0:0:0:0:
256,192,49146,1,0,0:0:0:0:
256,192,49313,1,0,0:0:0:0:
256,192,49479,1,8,0:0:0:0:
256,192,49646,1,8,0:0:0:0:
256,192,49813,1,4,0:0:0:0:
256,192,49979,1,0,0:0:0:0:
256,192,50063,1,0,0:0:0:0:
256,192,50146,1,8,0:0:0:0:
256,192,50313,1,8,0:0:0:0:
256,192,50479,1,0,0:0:0:0:
256,192,50563,1,8,0:0:0:0:
256,192,50646,1,0,0:0:0:0:
256,192,50729,1,0,0:0:0:0:
256,192,50813,1,8,0:0:0:0:
256,192,50979,1,8,0:0:0:0:
256,192,51146,1,4,0:0:0:0:
256,192,51313,1,0,0:0:0:0:
256,192,51479,1,8,0:0:0:0:
256,192,51563,1,8,0:0:0:0:
256,192,51646,1,8,0:0:0:0:
256,192,51813,1,4,0:0:0:0:
256,192,51979,1,0,0:0:0:0:
256,192,52146,1,8,0:0:0:0:
256,192,52202,1,8,0:0:0:0:
256,192,52257,1,8,0:0:0:0:
256,192,52313,1,8,0:0:0:0:
256,192,52479,1,4,0:0:0:0:
256,192,53146,1,8,0:0:0:0:
256,192,53479,1,8,0:0:0:0:
256,192,53646,1,8,0:0:0:0:
256,192,53813,1,4,0:0:0:0:
256,192,55146,1,8,0:0:0:0:
256,192,55313,1,0,0:0:0:0:
256,192,55396,1,0,0:0:0:0:
256,192,55479,1,8,0:0:0:0:
256,192,55813,1,0,0:0:0:0:
256,192,55979,1,0,0:0:0:0:
256,192,56146,1,12,0:0:0:0:
256,192,56479,1,4,0:0:0:0:
256,192,56645,1,8,0:0:0:0:
256,192,56729,1,0,0:0:0:0:
256,192,56812,1,8,0:0:0:0:
256,192,56895,1,8,0:0:0:0:
256,192,56979,1,0,0:0:0:0:
256,192,57062,1,0,0:0:0:0:
256,192,57145,1,8,0:0:0:0:
256,192,57229,1,0,0:0:0:0:
256,192,57312,1,0,0:0:0:0:
256,192,57395,1,0,0:0:0:0:
256,192,57479,1,8,0:0:0:0:
256,192,57562,1,8,0:0:0:0:
256,192,57645,1,8,0:0:0:0:
256,192,57729,1,8,0:0:0:0:
256,192,57812,1,0,0:0:0:0:
256,192,57979,1,0,0:0:0:0:
256,192,58062,1,0,0:0:0:0:
256,192,58145,1,8,0:0:0:0:
256,192,58229,1,8,0:0:0:0:
256,192,58312,1,8,0:0:0:0:
256,192,58395,1,8,0:0:0:0:
256,192,58479,1,0,0:0:0:0:
256,192,58562,1,0,0:0:0:0:
256,192,58645,1,8,0:0:0:0:
256,192,58729,1,8,0:0:0:0:
256,192,58812,1,8,0:0:0:0:
256,192,58895,1,0,0:0:0:0:
256,192,58979,1,8,0:0:0:0:
256,192,59062,1,8,0:0:0:0:
256,192,59145,1,0,0:0:0:0:
256,192,59312,1,8,0:0:0:0:
256,192,59395,1,0,0:0:0:0:
256,192,59479,1,8,0:0:0:0:
256,192,59562,1,8,0:0:0:0:
256,192,59645,1,0,0:0:0:0:
256,192,59729,1,0,0:0:0:0:
256,192,59812,1,8,0:0:0:0:
256,192,59895,1,0,0:0:0:0:
256,192,59978,1,0,0:0:0:0:
256,192,60062,1,0,0:0:0:0:
256,192,60145,1,8,0:0:0:0:
256,192,60228,1,8,0:0:0:0:
256,192,60312,1,0,0:0:0:0:
256,192,60395,1,0,0:0:0:0:
256,192,60478,1,8,0:0:0:0:
256,192,60645,1,0,0:0:0:0:
256,192,60728,1,0,0:0:0:0:
256,192,60812,1,8,0:0:0:0:
256,192,60895,1,8,0:0:0:0:
256,192,60978,1,0,0:0:0:0:
256,192,61062,1,8,0:0:0:0:
256,192,61145,1,0,0:0:0:0:
256,192,61228,1,0,0:0:0:0:
256,192,61312,1,8,0:0:0:0:
256,192,61395,1,8,0:0:0:0:
256,192,61478,1,8,0:0:0:0:
256,192,61562,1,0,0:0:0:0:
256,192,61645,1,8,0:0:0:0:
256,192,61728,1,8,0:0:0:0:
256,192,61812,1,0,0:0:0:0:
256,192,61978,1,0,0:0:0:0:
256,192,62062,1,0,0:0:0:0:
256,192,62145,1,8,0:0:0:0:
256,192,62312,1,0,0:0:0:0:
256,192,62395,1,8,0:0:0:0:
256,192,62562,1,8,0:0:0:0:
256,192,62645,1,0,0:0:0:0:
256,192,62728,1,0,0:0:0:0:
256,192,62812,1,8,0:0:0:0:
256,192,62978,1,0,0:0:0:0:
256,192,63062,1,8,0:0:0:0:
256,192,63145,1,8,0:0:0:0:
256,192,63228,1,8,0:0:0:0:
256,192,63312,1,0,0:0:0:0:
256,192,63478,1,8,0:0:0:0:
256,192,63645,1,0,0:0:0:0:
256,192,63728,1,0,0:0:0:0:
256,192,63895,1,8,0:0:0:0:
256,192,63978,1,0,0:0:0:0:
256,192,64062,1,0,0:0:0:0:
256,192,64145,1,8,0:0:0:0:
256,192,64228,1,8,0:0:0:0:
256,192,64312,1,0,0:0:0:0:
256,192,64478,1,8,0:0:0:0:
256,192,64562,1,0,0:0:0:0:
256,192,64645,1,0,0:0:0:0:
256,192,64728,1,0,0:0:0:0:
256,192,64812,1,8,0:0:0:0:
256,192,64895,1,8,0:0:0:0:
256,192,64978,1,0,0:0:0:0:
256,192,65062,1,0,0:0:0:0:
256,192,65145,1,8,0:0:0:0:
256,192,65228,1,0,0:0:0:0:
256,192,65312,1,8,0:0:0:0:
256,192,65395,1,8,0:0:0:0:
256,192,65478,1,0,0:0:0:0:
256,192,65534,1,0,0:0:0:0:
256,192,65590,1,0,0:0:0:0:
256,192,65645,1,8,0:0:0:0:
256,192,65812,1,4,0:0:0:0:
256,192,66145,1,8,0:0:0:0:
256,192,66312,1,4,0:0:0:0:
256,192,66645,1,0,0:0:0:0:
256,192,66812,1,12,0:0:0:0:
256,192,67145,1,4,0:0:0:0:
256,192,67312,1,8,0:0:0:0:
256,192,67395,1,0,0:0:0:0:
256,192,67478,1,8,0:0:0:0:
256,192,67562,1,8,0:0:0:0:
256,192,67645,1,0,0:0:0:0:
256,192,67728,1,0,0:0:0:0:
256,192,67812,1,8,0:0:0:0:
256,192,67895,1,8,0:0:0:0:
256,192,67978,1,0,0:0:0:0:
256,192,68062,1,8,0:0:0:0:
256,192,68145,1,8,0:0:0:0:
256,192,68228,1,8,0:0:0:0:
256,192,68312,1,0,0:0:0:0:
256,192,68395,1,0,0:0:0:0:
256,192,68478,1,8,0:0:0:0:
256,192,68645,1,0,0:0:0:0:
256,192,68728,1,0,0:0:0:0:
256,192,68812,1,8,0:0:0:0:
256,192,68895,1,8,0:0:0:0:
256,192,68978,1,8,0:0:0:0:
256,192,69062,1,8,0:0:0:0:
256,192,69145,1,0,0:0:0:0:
256,192,69228,1,0,0:0:0:0:
256,192,69312,1,8,0:0:0:0:
256,192,69395,1,8,0:0:0:0:
256,192,69478,1,8,0:0:0:0:
256,192,69562,1,0,0:0:0:0:
256,192,69645,1,8,0:0:0:0:
256,192,69728,1,8,0:0:0:0:
256,192,69812,1,0,0:0:0:0:
256,192,69978,1,8,0:0:0:0:
256,192,70062,1,0,0:0:0:0:
256,192,70145,1,8,0:0:0:0:
256,192,70228,1,8,0:0:0:0:
256,192,70312,1,0,0:0:0:0:
256,192,70395,1,8,0:0:0:0:
256,192,70478,1,8,0:0:0:0:
256,192,70562,1,8,0:0:0:0:
256,192,70645,1,0,0:0:0:0:
256,192,70728,1,0,0:0:0:0:
256,192,70812,1,8,0:0:0:0:
256,192,70895,1,0,0:0:0:0:
256,192,70978,1,8,0:0:0:0:
256,192,71062,1,8,0:0:0:0:
256,192,71145,1,0,0:0:0:0:
256,192,71312,1,8,0:0:0:0:
256,192,71395,1,8,0:0:0:0:
256,192,71478,1,8,0:0:0:0:
256,192,71562,1,8,0:0:0:0:
256,192,71645,1,0,0:0:0:0:
256,192,71728,1,0,0:0:0:0:
256,192,71812,1,8,0:0:0:0:
256,192,71895,1,0,0:0:0:0:
256,192,71978,1,8,0:0:0:0:
256,192,72062,1,8,0:0:0:0:
256,192,72145,1,8,0:0:0:0:
256,192,72228,1,0,0:0:0:0:
256,192,72312,1,8,0:0:0:0:
256,192,72395,1,8,0:0:0:0:
256,192,72478,1,0,0:0:0:0:
256,192,72645,1,0,0:0:0:0:
256,192,72728,1,0,0:0:0:0:
256,192,72812,1,8,0:0:0:0:
256,192,72867,1,8,0:0:0:0:
256,192,72923,1,8,0:0:0:0:
256,192,72978,1,0,0:0:0:0:
256,192,73062,1,0,0:0:0:0:
256,192,73145,1,8,0:0:0:0:
256,192,73312,1,8,0:0:0:0:
256,192,73395,1,8,0:0:0:0:
256,192,73478,1,0,0:0:0:0:
256,192,73562,1,8,0:0:0:0:
256,192,73645,1,0,0:0:0:0:
256,192,73728,1,0,0:0:0:0:
256,192,73812,1,8,0:0:0:0:
256,192,73867,1,8,0:0:0:0:
256,192,73923,1,8,0:0:0:0:
256,192,73978,1,0,0:0:0:0:
256,192,74062,1,0,0:0:0:0:
256,192,74145,1,0,0:0:0:0:
256,192,74228,1,0,0:0:0:0:
256,192,74312,1,8,0:0:0:0:
256,192,74395,1,8,0:0:0:0:
256,192,74478,1,0,0:0:0:0:
256,192,74562,1,8,0:0:0:0:
256,192,74645,1,0,0:0:0:0:
256,192,74812,1,12,0:0:0:0:
256,192,75145,1,8,0:0:0:0:
256,192,75228,1,8,0:0:0:0:
256,192,75312,1,0,0:0:0:0:
256,192,75395,1,8,0:0:0:0:
256,192,75478,1,8,0:0:0:0:
256,192,75562,1,0,0:0:0:0:
256,192,75645,1,8,0:0:0:0:
256,192,75728,1,0,0:0:0:0:
256,192,75812,1,0,0:0:0:0:
256,192,75895,1,8,0:0:0:0:
256,192,75978,1,0,0:0:0:0:
256,192,76062,1,0,0:0:0:0:
256,192,76145,1,8,0:0:0:0:
256,192,76228,1,0,0:0:0:0:
256,192,76312,1,8,0:0:0:0:
256,192,76395,1,8,0:0:0:0:
256,192,76478,1,0,0:0:0:0:
256,192,76562,1,0,0:0:0:0:
256,192,76645,1,8,0:0:0:0:
256,192,76728,1,8,0:0:0:0:
256,192,76812,1,8,0:0:0:0:
256,192,76895,1,8,0:0:0:0:
256,192,76978,1,0,0:0:0:0:
256,192,77062,1,0,0:0:0:0:
256,192,77145,1,8,0:0:0:0:
256,192,77201,1,8,0:0:0:0:
256,192,77256,1,8,0:0:0:0:
256,192,77312,1,0,0:0:0:0:
256,192,77395,1,0,0:0:0:0:
256,192,77478,1,8,0:0:0:0:
256,192,77534,1,0,0:0:0:0:
256,192,77590,1,0,0:0:0:0:
256,192,77645,1,8,0:0:0:0:
256,192,77728,1,8,0:0:0:0:
256,192,77812,1,0,0:0:0:0:
256,192,78312,1,0,0:0:0:0:
256,192,78645,1,0,0:0:0:0:
256,192,78812,1,8,0:0:0:0:
256,192,79145,1,0,0:0:0:0:
256,192,79645,1,0,0:0:0:0:
256,192,79978,1,8,0:0:0:0:
256,192,80145,1,8,0:0:0:0:
256,192,80478,1,0,0:0:0:0:
256,192,80978,1,0,0:0:0:0:
256,192,81312,1,0,0:0:0:0:
256,192,81478,1,8,0:0:0:0:
256,192,81812,1,0,0:0:0:0:
256,192,82312,1,0,0:0:0:0:
256,192,82645,1,0,0:0:0:0:
256,192,82812,1,12,0:0:0:0:
256,192,83145,1,4,0:0:0:0:
256,192,83478,1,8,0:0:0:0:
256,192,83645,1,0,0:0:0:0:
256,192,83978,1,0,0:0:0:0:
256,192,84145,1,8,0:0:0:0:
256,192,84478,1,4,0:0:0:0:
256,192,84812,1,8,0:0:0:0:
256,192,84978,1,0,0:0:0:0:
256,192,85312,1,0,0:0:0:0:
256,192,85478,1,8,0:0:0:0:
256,192,85645,1,8,0:0:0:0:
256,192,85812,1,4,0:0:0:0:
256,192,86145,1,8,0:0:0:0:
256,192,86312,1,4,0:0:0:0:
256,192,86645,1,8,0:0:0:0:
256,192,86812,1,4,0:0:0:0:
256,192,86978,1,8,0:0:0:0:
256,192,87145,1,4,0:0:0:0:
256,192,87978,1,0,0:0:0:0:
256,192,88145,1,12,0:0:0:0:
256,192,88478,1,4,0:0:0:0:
256,192,88812,1,8,0:0:0:0:
256,192,88978,1,0,0:0:0:0:
256,192,89062,1,0,0:0:0:0:
256,192,89145,1,8,0:0:0:0:
256,192,89228,1,8,0:0:0:0:
256,192,89312,1,0,0:0:0:0:
256,192,89478,1,8,0:0:0:0:
256,192,89645,1,0,0:0:0:0:
256,192,89728,1,8,0:0:0:0:
256,192,89895,1,8,0:0:0:0:
256,192,89978,1,0,0:0:0:0:
256,192,90062,1,0,0:0:0:0:
256,192,90145,1,8,0:0:0:0:
256,192,90312,1,0,0:0:0:0:
256,192,90395,1,8,0:0:0:0:
256,192,90478,1,0,0:0:0:0:
256,192,90645,1,8,0:0:0:0:
256,192,90812,1,8,0:0:0:0:
256,192,90895,1,8,0:0:0:0:
256,192,90978,1,0,0:0:0:0:
256,192,91145,1,8,0:0:0:0:
256,192,91478,1,8,0:0:0:0:
256,192,91645,1,8,0:0:0:0:
256,192,91812,1,0,0:0:0:0:
256,192,91895,1,0,0:0:0:0:
256,192,91978,1,0,0:0:0:0:
256,192,92145,1,8,0:0:0:0:
256,192,92312,1,0,0:0:0:0:
256,192,92395,1,0,0:0:0:0:
256,192,92478,1,8,0:0:0:0:
256,192,92645,1,0,0:0:0:0:
256,192,92812,1,8,0:0:0:0:
256,192,92895,1,8,0:0:0:0:
256,192,92978,1,0,0:0:0:0:
256,192,93145,1,0,0:0:0:0:
256,192,93228,1,0,0:0:0:0:
256,192,93312,1,8,0:0:0:0:
256,192,93395,1,0,0:0:0:0:
256,192,93478,1,8,0:0:0:0:
256,192,93645,1,8,0:0:0:0:
256,192,93812,1,4,0:0:0:0:
256,192,94145,1,8,0:0:0:0:
256,192,94312,1,0,0:0:0:0:
256,192,94478,1,8,0:0:0:0:
256,192,94562,1,8,0:0:0:0:
256,192,94645,1,0,0:0:0:0:
256,192,94728,1,0,0:0:0:0:
256,192,94812,1,8,0:0:0:0:
256,192,94978,1,8,0:0:0:0:
256,192,95145,1,4,0:0:0:0:
256,192,95312,1,0,0:0:0:0:
256,192,95395,1,0,0:0:0:0:
256,192,95478,1,8,0:0:0:0:
256,192,95645,1,8,0:0:0:0:
256,192,95812,1,0,0:0:0:0:
256,192,95978,1,8,0:0:0:0:
256,192,96062,1,0,0:0:0:0:
256,192,96145,1,8,0:0:0:0:
256,192,96312,1,8,0:0:0:0:
256,192,96478,1,4,0:0:0:0:
256,192,96645,1,0,0:0:0:0:
256,192,96812,1,8,0:0:0:0:
256,192,96895,1,8,0:0:0:0:
256,192,96978,1,8,0:0:0:0:
256,192,97145,1,4,0:0:0:0:
256,192,97312,1,0,0:0:0:0:
256,192,97478,1,8,0:0:0:0:
256,192,97645,1,8,0:0:0:0:
256,192,97978,1,4,0:0:0:0:
256,192,98145,1,4,0:0:0:0:
256,192,98312,1,4,0:0:0:0:
256,192,98478,1,4,0:0:0:0:
256,192,98812,1,12,0:0:0:0:
256,192,99145,1,4,0:0:0:0:
256,192,99645,1,0,0:0:0:0:
256,192,99812,1,8,0:0:0:0:
256,192,100312,1,0,0:0:0:0:
256,192,100395,1,0,0:0:0:0:
256,192,100478,1,0,0:0:0:0:
256,192,100728,1,0,0:0:0:0:
256,192,100978,1,0,0:0:0:0:
256,192,101145,1,8,0:0:0:0:
256,192,101312,1,0,0:0:0:0:
256,192,101395,1,0,0:0:0:0:
256,192,101478,1,8,0:0:0:0:
256,192,101645,1,0,0:0:0:0:
256,192,101701,1,0,0:0:0:0:
256,192,101756,1,0,0:0:0:0:
256,192,101812,1,0,0:0:0:0:
256,192,102312,1,0,0:0:0:0:
256,192,102478,1,8,0:0:0:0:
256,192,102978,1,0,0:0:0:0:
256,192,103062,1,0,0:0:0:0:
256,192,103145,1,0,0:0:0:0:
256,192,103395,1,0,0:0:0:0:
256,192,103645,1,0,0:0:0:0:
256,192,103812,1,8,0:0:0:0:
256,192,103978,1,0,0:0:0:0:
256,192,104145,1,12,0:0:0:0:
256,192,104478,1,4,0:0:0:0:
256,192,105812,1,8,0:0:0:0:
256,192,106145,1,8,0:0:0:0:
256,192,106478,1,8,0:0:0:0:
256,192,106645,1,0,0:0:0:0:
256,192,106812,1,12,0:0:0:0:
256,192,107145,1,4,0:0:0:0:
256,192,107478,1,8,0:0:0:0:
256,192,107812,1,8,0:0:0:0:
256,192,108145,1,8,0:0:0:0:
256,192,108312,1,8,0:0:0:0:
256,192,108478,1,4,0:0:0:0:
256,192,108812,1,8,0:0:0:0:
256,192,109145,1,8,0:0:0:0:
256,192,109478,1,8,0:0:0:0:
256,192,109645,1,8,0:0:0:0:
256,192,109812,1,4,0:0:0:0:
256,192,109978,1,8,0:0:0:0:
256,192,110062,1,8,0:0:0:0:
256,192,110145,1,0,0:0:0:0:
256,192,110312,1,8,0:0:0:0:
256,192,110478,1,0,0:0:0:0:
256,192,110562,1,8,0:0:0:0:
256,192,110645,1,0,0:0:0:0:
256,192,110728,1,0,0:0:0:0:
256,192,110812,1,8,0:0:0:0:
256,192,110978,1,0,0:0:0:0:
256,192,111034,1,0,0:0:0:0:
256,192,111090,1,0,0:0:0:0:
256,192,111145,1,8,0:0:0:0:
256,192,111312,1,0,0:0:0:0:
256,192,111478,1,8,0:0:0:0:
256,192,111562,1,8,0:0:0:0:
256,192,111645,1,0,0:0:0:0:
256,192,111728,1,0,0:0:0:0:
256,192,111812,1,8,0:0:0:0:
256,192,111978,1,0,0:0:0:0:
256,192,112145,1,8,0:0:0:0:
256,192,112312,1,0,0:0:0:0:
256,192,112367,1,0,0:0:0:0:
256,192,112423,1,0,0:0:0:0:
256,192,112478,1,8,0:0:0:0:
256,192,112562,1,8,0:0:0:0:
256,192,112645,1,0,0:0:0:0:
256,192,112728,1,0,0:0:0:0:
256,192,112812,1,8,0:0:0:0:
256,192,112895,1,0,0:0:0:0:
256,192,112978,1,0,0:0:0:0:
256,192,113062,1,0,0:0:0:0:
256,192,113145,1,8,0:0:0:0:
256,192,113228,1,8,0:0:0:0:
256,192,113312,1,0,0:0:0:0:
256,192,113395,1,0,0:0:0:0:
256,192,113478,1,8,0:0:0:0:
256,192,113534,1,0,0:0:0:0:
256,192,113590,1,0,0:0:0:0:
256,192,113645,1,8,0:0:0:0:
256,192,113728,1,8,0:0:0:0:
256,192,113812,1,0,0:0:0:0:
256,192,114145,1,12,0:0:0:0:
256,192,114645,1,0,0:0:0:0:
256,192,114701,1,8,0:0:0:0:
256,192,114756,1,8,0:0:0:0:
256,192,114812,1,8,0:0:0:0:
256,192,115145,1,4,0:0:0:0:
256,192,115395,1,0,0:0:0:0:
256,192,115478,1,8,0:0:0:0:
256,192,115645,1,8,0:0:0:0:
256,192,115812,1,0,0:0:0:0:
256,192,115978,1,12,0:0:0:0:
256,192,116145,1,12,0:0:0:0:
256,192,116312,1,0,0:0:0:0:
256,192,116395,1,8,0:0:0:0:
256,192,116478,1,0,0:0:0:0:
256,192,116562,1,0,0:0:0:0:
256,192,116728,1,0,0:0:0:0:
256,192,116812,1,8,0:0:0:0:
256,192,116978,1,8,0:0:0:0:
256,192,117062,1,8,0:0:0:0:
256,192,117145,1,0,0:0:0:0:
256,192,117312,1,12,0:0:0:0:
256,192,117478,1,12,0:0:0:0:
256,192,117645,1,0,0:0:0:0:
256,192,117728,1,8,0:0:0:0:
256,192,117812,1,0,0:0:0:0:
256,192,118062,1,0,0:0:0:0:
256,192,118145,1,8,0:0:0:0:
256,192,118312,1,0,0:0:0:0:
256,192,118395,1,0,0:0:0:0:
256,192,118478,1,8,0:0:0:0:
256,192,118645,1,0,0:0:0:0:
256,192,118812,1,8,0:0:0:0:
256,192,118895,1,8,0:0:0:0:
256,192,118978,1,0,0:0:0:0:
256,192,119062,1,0,0:0:0:0:
256,192,119145,1,8,0:0:0:0:
256,192,119312,1,0,0:0:0:0:
256,192,119395,1,0,0:0:0:0:
256,192,119478,1,8,0:0:0:0:
256,192,119562,1,0,0:0:0:0:
256,192,119645,1,8,0:0:0:0:
256,192,119728,1,8,0:0:0:0:
256,192,119812,1,0,0:0:0:0:
256,192,119978,1,12,0:0:0:0:
256,192,120145,1,12,0:0:0:0:
256,192,120478,1,0,0:0:0:0:
256,192,120645,1,0,0:0:0:0:
256,192,120728,1,0,0:0:0:0:
256,192,120812,1,8,0:0:0:0:
256,192,120895,1,8,0:0:0:0:
256,192,120978,1,0,0:0:0:0:
256,192,121145,1,8,0:0:0:0:
256,192,121312,1,0,0:0:0:0:
256,192,121395,1,0,0:0:0:0:
256,192,121478,1,8,0:0:0:0:
256,192,121645,1,0,0:0:0:0:
256,192,121812,1,8,0:0:0:0:
256,192,121895,1,8,0:0:0:0:
256,192,121978,1,0,0:0:0:0:
256,192,122062,1,0,0:0:0:0:
256,192,122145,1,8,0:0:0:0:
256,192,122228,1,0,0:0:0:0:
256,192,122312,1,8,0:0:0:0:
256,192,122478,1,0,0:0:0:0:
256,192,122562,1,0,0:0:0:0:
256,192,122645,1,8,0:0:0:0:
256,192,122812,1,8,0:0:0:0:
256,192,122895,1,8,0:0:0:0:
256,192,122978,1,0,0:0:0:0:
256,192,123062,1,0,0:0:0:0:
256,192,123145,1,8,0:0:0:0:
256,192,123312,1,0,0:0:0:0:
256,192,123478,1,12,0:0:0:0:
256,192,123645,1,0,0:0:0:0:
256,192,123728,1,8,0:0:0:0:
256,192,123812,1,0,0:0:0:0:
256,192,123978,1,0,0:0:0:0:
256,192,124145,1,12,0:0:0:0:
256,192,124312,1,8,0:0:0:0:
256,192,124478,1,4,0:0:0:0:
256,192,124812,1,8,0:0:0:0:
256,192,124978,1,4,0:0:0:0:
256,192,125145,1,8,0:0:0:0:
256,192,125312,1,0,0:0:0:0:
256,192,125395,1,8,0:0:0:0:
256,192,125478,1,8,0:0:0:0:
256,192,125645,1,8,0:0:0:0:
256,192,125812,1,0,0:0:0:0:
256,192,125895,1,0,0:0:0:0:
256,192,125978,1,0,0:0:0:0:
256,192,126145,1,12,0:0:0:0:
256,192,126478,1,0,0:0:0:0:
256,192,126645,1,12,0:0:0:0:
256,192,126812,1,12,0:0:0:0:
256,192,126978,1,0,0:0:0:0:
256,192,127062,1,0,0:0:0:0:
256,192,127145,1,8,0:0:0:0:
256,192,127228,1,0,0:0:0:0:
256,192,127395,1,0,0:0:0:0:
256,192,127478,1,8,0:0:0:0:
256,192,127645,1,8,0:0:0:0:
256,192,127728,1,8,0:0:0:0:
256,192,127812,1,0,0:0:0:0:
256,192,127978,1,12,0:0:0:0:
256,192,128145,1,12,0:0:0:0:
256,192,128312,1,0,0:0:0:0:
256,192,128478,1,8,0:0:0:0:
256,192,128728,1,0,0:0:0:0:
256,192,128812,1,8,0:0:0:0:
256,192,128978,1,0,0:0:0:0:
256,192,129062,1,0,0:0:0:0:
256,192,129145,1,8,0:0:0:0:
256,192,129228,1,8,0:0:0:0:
256,192,129312,1,0,0:0:0:0:
256,192,129478,1,8,0:0:0:0:
256,192,129645,1,0,0:0:0:0:
256,192,129728,1,0,0:0:0:0:
256,192,129812,1,8,0:0:0:0:
256,192,129895,1,0,0:0:0:0:
256,192,129978,1,0,0:0:0:0:
256,192,130062,1,0,0:0:0:0:
256,192,130145,1,8,0:0:0:0:
256,192,130312,1,8,0:0:0:0:
256,192,130395,1,8,0:0:0:0:
256,192,130478,1,0,0:0:0:0:
256,192,130645,1,12,0:0:0:0:
256,192,130812,1,12,0:0:0:0:
256,192,131145,1,4,0:0:0:0:
224,192,131478,1,8,0:0:0:0:
224,192,131645,1,4,0:0:0:0:
224,192,131978,1,8,0:0:0:0:
224,192,132145,1,8,0:0:0:0:
224,192,132478,1,4,0:0:0:0:
224,192,132812,1,8,0:0:0:0:
224,192,132978,1,4,0:0:0:0:
224,192,133312,1,8,0:0:0:0:
224,192,133478,1,8,0:0:0:0:
224,192,133645,1,0,0:0:0:0:
224,192,133978,1,0,0:0:0:0:
224,192,134145,1,12,0:0:0:0:
224,192,134478,1,0,0:0:0:0:
224,192,134645,1,0,0:0:0:0:
224,192,134812,1,12,0:0:0:0:
224,192,135145,1,4,0:0:0:0:
224,192,135478,1,8,0:0:0:0:
224,192,135812,1,4,0:0:0:0:
224,192,135978,1,8,0:0:0:0:
224,192,136145,1,0,0:0:0:0:
224,192,136201,1,0,0:0:0:0:
224,192,136256,1,0,0:0:0:0:
224,192,136312,1,8,0:0:0:0:
256,192,136478,8,8,137645,0:0:0:0:
256,192,137812,5,0,0:0:0:0:
256,192,137978,1,0,0:0:0:0:
256,192,138062,1,0,0:0:0:0:
256,192,138145,1,8,0:0:0:0:
256,192,138312,1,0,0:0:0:0:
256,192,138395,1,8,0:0:0:0:
256,192,138562,1,8,0:0:0:0:
256,192,138645,1,0,0:0:0:0:
256,192,138812,1,12,0:0:0:0:
256,192,139146,1,4,0:0:0:0:
256,192,139312,1,0,0:0:0:0:
256,192,139479,1,8,0:0:0:0:
256,192,139646,1,0,0:0:0:0:
256,192,139729,1,8,0:0:0:0:
256,192,139896,1,8,0:0:0:0:
256,192,139979,1,0,0:0:0:0:
256,192,140062,1,0,0:0:0:0:
256,192,140146,1,8,0:0:0:0:
256,192,140312,1,0,0:0:0:0:
256,192,140479,1,8,0:0:0:0:
256,192,140562,1,8,0:0:0:0:
256,192,140646,1,0,0:0:0:0:
256,192,140729,1,0,0:0:0:0:
256,192,140812,1,8,0:0:0:0:
256,192,140979,1,8,0:0:0:0:
256,192,141146,1,0,0:0:0:0:
256,192,141229,1,0,0:0:0:0:
256,192,141312,1,8,0:0:0:0:
256,192,141396,1,0,0:0:0:0:
256,192,141479,1,8,0:0:0:0:
256,192,141646,1,8,0:0:0:0:
256,192,141812,1,0,0:0:0:0:
256,192,142146,1,8,0:0:0:0:
256,192,142312,1,0,0:0:0:0:
256,192,142396,1,0,0:0:0:0:
256,192,142479,1,8,0:0:0:0:
256,192,142646,1,0,0:0:0:0:
256,192,142812,1,8,0:0:0:0:
256,192,142896,1,8,0:0:0:0:
256,192,142979,1,0,0:0:0:0:
256,192,143062,1,8,0:0:0:0:
256,192,143146,1,0,0:0:0:0:
256,192,143312,1,0,0:0:0:0:
256,192,143479,1,8,0:0:0:0:
256,192,143646,1,0,0:0:0:0:
256,192,143729,1,0,0:0:0:0:
256,192,143812,1,8,0:0:0:0:
256,192,143979,1,8,0:0:0:0:
256,192,144062,1,0,0:0:0:0:
256,192,144146,1,8,0:0:0:0:
256,192,144479,1,0,0:0:0:0:
256,192,144646,1,0,0:0:0:0:
256,192,144812,1,8,0:0:0:0:
256,192,144896,1,8,0:0:0:0:
256,192,144979,1,0,0:0:0:0:
256,192,145062,1,8,0:0:0:0:
256,192,145229,1,8,0:0:0:0:
256,192,145312,1,0,0:0:0:0:
256,192,145479,1,8,0:0:0:0:
256,192,145646,1,0,0:0:0:0:
256,192,145729,1,0,0:0:0:0:
256,192,145812,1,8,0:0:0:0:
256,192,145979,1,0,0:0:0:0:
256,192,146146,1,8,0:0:0:0:
256,192,146229,1,8,0:0:0:0:
256,192,146312,1,0,0:0:0:0:
256,192,146479,1,0,0:0:0:0:
256,192,146646,1,8,0:0:0:0:
256,192,146729,1,0,0:0:0:0:
256,192,146812,1,8,0:0:0:0:
256,192,146979,1,0,0:0:0:0:
256,192,147146,1,8,0:0:0:0:
256,192,147229,1,8,0:0:0:0:
256,192,147312,1,8,0:0:0:0:
256,192,147396,1,0,0:0:0:0:
256,192,147479,1,8,0:0:0:0:
256,192,147646,1,8,0:0:0:0:
256,192,147812,1,0,0:0:0:0:
256,192,147979,1,0,0:0:0:0:
256,192,148062,1,0,0:0:0:0:
256,192,148146,1,8,0:0:0:0:
256,192,148312,1,8,0:0:0:0:
256,192,148479,1,4,0:0:0:0:
256,192,148646,1,8,0:0:0:0:
256,192,148729,1,0,0:0:0:0:
256,192,148812,1,8,0:0:0:0:
256,192,148896,1,8,0:0:0:0:
256,192,148979,1,0,0:0:0:0:
256,192,149062,1,8,0:0:0:0:
256,192,149146,1,8,0:0:0:0:
256,192,149229,1,8,0:0:0:0:
256,192,149312,1,0,0:0:0:0:
256,192,149479,1,12,0:0:0:0:
256,192,149812,1,4,0:0:0:0:
256,192,149979,1,0,0:0:0:0:
256,192,150062,1,0,0:0:0:0:
256,192,150146,1,8,0:0:0:0:
256,192,150312,1,8,0:0:0:0:
256,192,150479,1,0,0:0:0:0:
256,192,150562,1,0,0:0:0:0:
256,192,150646,1,8,0:0:0:0:
256,192,150729,1,0,0:0:0:0:
256,192,150812,1,8,0:0:0:0:
256,192,150979,1,0,0:0:0:0:
256,192,151146,1,8,0:0:0:0:
256,192,151229,1,8,0:0:0:0:
256,192,151312,1,0,0:0:0:0:
256,192,151479,1,8,0:0:0:0:
256,192,151646,1,0,0:0:0:0:
256,192,151729,1,8,0:0:0:0:
256,192,151812,1,0,0:0:0:0:
256,192,151979,1,8,0:0:0:0:
256,192,152146,1,8,0:0:0:0:
256,192,152229,1,8,0:0:0:0:
256,192,152312,1,0,0:0:0:0:
256,192,152396,1,0,0:0:0:0:
256,192,152479,1,8,0:0:0:0:
256,192,152812,1,8,0:0:0:0:
256,192,152979,1,0,0:0:0:0:
256,192,153062,1,8,0:0:0:0:
256,192,153145,1,0,0:0:0:0:
256,192,153229,1,0,0:0:0:0:
256,192,153312,1,8,0:0:0:0:
256,192,153479,1,8,0:0:0:0:
256,192,153645,1,0,0:0:0:0:
256,192,153729,1,0,0:0:0:0:
256,192,153812,1,8,0:0:0:0:
256,192,153979,1,0,0:0:0:0:
256,192,154145,1,8,0:0:0:0:
256,192,154229,1,8,0:0:0:0:
256,192,154312,1,0,0:0:0:0:
256,192,154395,1,0,0:0:0:0:
256,192,154479,1,8,0:0:0:0:
256,192,154645,1,8,0:0:0:0:
256,192,154729,1,0,0:0:0:0:
256,192,154812,1,8,0:0:0:0:
256,192,155145,1,4,0:0:0:0:
256,192,155312,1,0,0:0:0:0:
256,192,155479,1,8,0:0:0:0:
256,192,155645,1,8,0:0:0:0:
256,192,155729,1,8,0:0:0:0:
256,192,155812,1,0,0:0:0:0:
256,192,155979,1,0,0:0:0:0:
256,192,156145,1,8,0:0:0:0:
256,192,156229,1,0,0:0:0:0:
256,192,156312,1,8,0:0:0:0:
256,192,156479,1,4,0:0:0:0:
256,192,156645,1,0,0:0:0:0:
256,192,156812,1,8,0:0:0:0:
256,192,156895,1,8,0:0:0:0:
256,192,156979,1,0,0:0:0:0:
256,192,157062,1,0,0:0:0:0:
256,192,157145,1,8,0:0:0:0:
256,192,157229,1,0,0:0:0:0:
256,192,157312,1,8,0:0:0:0:
256,192,157395,1,8,0:0:0:0:
256,192,157479,1,0,0:0:0:0:
256,192,157534,1,0,0:0:0:0:
256,192,157590,1,0,0:0:0:0:
256,192,157645,1,8,0:0:0:0:
256,192,157812,1,4,0:0:0:0:
256,192,158479,1,4,0:0:0:0:
256,192,158979,1,12,0:0:0:0:
256,192,159312,1,12,0:0:0:0:
256,192,159645,1,12,0:0:0:0:
256,192,159812,1,12,0:0:0:0:
256,192,159979,1,0,0:0:0:0:
256,192,160062,1,0,0:0:0:0:
256,192,160145,1,8,0:0:0:0:
256,192,160479,1,4,0:0:0:0:
256,192,160812,1,8,0:0:0:0:
256,192,160979,1,8,0:0:0:0:
256,192,161145,1,0,0:0:0:0:
256,192,161312,1,0,0:0:0:0:
256,192,161395,1,0,0:0:0:0:
256,192,161479,1,8,0:0:0:0:
256,192,161645,1,0,0:0:0:0:
256,192,161812,1,8,0:0:0:0:
256,192,161895,1,8,0:0:0:0:
256,192,161979,1,0,0:0:0:0:
256,192,162145,1,8,0:0:0:0:
256,192,162312,1,8,0:0:0:0:
256,192,162479,1,0,0:0:0:0:
256,192,162645,1,8,0:0:0:0:
256,192,162729,1,0,0:0:0:0:
256,192,162812,1,8,0:0:0:0:
256,192,162979,1,8,0:0:0:0:
256,192,163145,1,0,0:0:0:0:
256,192,163479,1,8,0:0:0:0:
256,192,163645,1,0,0:0:0:0:
256,192,163812,1,8,0:0:0:0:
256,192,163895,1,8,0:0:0:0:
256,192,163979,1,0,0:0:0:0:
256,192,164145,1,8,0:0:0:0:
256,192,164312,1,0,0:0:0:0:
256,192,164395,1,0,0:0:0:0:
256,192,164479,1,8,0:0:0:0:
256,192,164645,1,0,0:0:0:0:
256,192,164812,1,8,0:0:0:0:
256,192,164895,1,8,0:0:0:0:
256,192,164979,1,0,0:0:0:0:
256,192,165062,1,0,0:0:0:0:
256,192,165145,1,8,0:0:0:0:
256,192,165312,1,0,0:0:0:0:
256,192,165479,1,8,0:0:0:0:
256,192,165562,1,8,0:0:0:0:
256,192,165645,1,8,0:0:0:0:
256,192,165812,1,0,0:0:0:0:
256,192,166145,1,8,0:0:0:0:
256,192,166312,1,8,0:0:0:0:
256,192,166479,1,0,0:0:0:0:
256,192,166645,1,8,0:0:0:0:
256,192,166729,1,0,0:0:0:0:
256,192,166812,1,8,0:0:0:0:
256,192,166979,1,8,0:0:0:0:
256,192,167145,1,0,0:0:0:0:
256,192,167229,1,0,0:0:0:0:
256,192,167312,1,0,0:0:0:0:
256,192,167479,1,8,0:0:0:0:
256,192,167645,1,0,0:0:0:0:
256,192,167729,1,0,0:0:0:0:
256,192,167812,1,8,0:0:0:0:
256,192,167895,1,8,0:0:0:0:
256,192,167979,1,0,0:0:0:0:
256,192,168145,1,8,0:0:0:0:
256,192,168312,1,0,0:0:0:0:
256,192,168395,1,0,0:0:0:0:
256,192,168479,1,8,0:0:0:0:
256,192,168645,1,0,0:0:0:0:
256,192,168812,1,8,0:0:0:0:
256,192,168979,1,0,0:0:0:0:
256,192,169062,1,8,0:0:0:0:
256,192,169145,1,0,0:0:0:0:
256,192,169312,1,0,0:0:0:0:
256,192,169479,1,8,0:0:0:0:
256,192,169645,1,8,0:0:0:0:
256,192,169812,1,4,0:0:0:0:
256,192,170145,1,8,0:0:0:0:
256,192,170312,1,8,0:0:0:0:
256,192,170479,1,0,0:0:0:0:
256,192,170562,1,0,0:0:0:0:
256,192,170645,1,0,0:0:0:0:
256,192,170812,1,12,0:0:0:0:
256,192,170979,1,0,0:0:0:0:
256,192,171034,1,0,0:0:0:0:
256,192,171090,1,0,0:0:0:0:
256,192,171145,1,8,0:0:0:0:
256,192,171479,1,8,0:0:0:0:
256,192,171645,1,8,0:0:0:0:
256,192,171812,1,0,0:0:0:0:
256,192,171895,1,0,0:0:0:0:
256,192,171979,1,0,0:0:0:0:
256,192,172145,1,8,0:0:0:0:
256,192,172312,1,0,0:0:0:0:
256,192,172395,1,0,0:0:0:0:
256,192,172479,1,8,0:0:0:0:
256,192,172562,1,8,0:0:0:0:
256,192,172645,1,0,0:0:0:0:
256,192,172812,1,8,0:0:0:0:
256,192,172979,1,0,0:0:0:0:
256,192,173062,1,0,0:0:0:0:
256,192,173145,1,8,0:0:0:0:
256,192,173312,1,0,0:0:0:0:
256,192,173479,1,8,0:0:0:0:
256,192,173645,1,0,0:0:0:0:
256,192,173701,1,0,0:0:0:0:
256,192,173757,1,0,0:0:0:0:
256,192,173812,1,8,0:0:0:0:
256,192,174145,1,8,0:0:0:0:
256,192,174312,1,0,0:0:0:0:
256,192,174479,1,8,0:0:0:0:
256,192,174562,1,8,0:0:0:0:
256,192,174645,1,0,0:0:0:0:
256,192,174812,1,8,0:0:0:0:
256,192,174979,1,0,0:0:0:0:
256,192,175062,1,8,0:0:0:0:
256,192,175145,1,0,0:0:0:0:
256,192,175312,1,0,0:0:0:0:
256,192,175479,1,8,0:0:0:0:
256,192,175562,1,8,0:0:0:0:
256,192,175645,1,0,0:0:0:0:
256,192,175729,1,0,0:0:0:0:
256,192,175812,1,8,0:0:0:0:
256,192,175979,1,0,0:0:0:0:
256,192,176145,1,8,0:0:0:0:
256,192,176312,1,0,0:0:0:0:
256,192,176368,1,0,0:0:0:0:
256,192,176423,1,0,0:0:0:0:
256,192,176479,1,8,0:0:0:0:
256,192,176645,1,0,0:0:0:0:
256,192,176812,1,8,0:0:0:0:
256,192,176979,1,0,0:0:0:0:
256,192,177062,1,0,0:0:0:0:
256,192,177145,1,8,0:0:0:0:
256,192,177312,1,0,0:0:0:0:
256,192,177479,1,8,0:0:0:0:
256,192,177645,1,0,0:0:0:0:
256,192,177701,1,0,0:0:0:0:
256,192,177757,1,0,0:0:0:0:
256,192,177812,1,8,0:0:0:0:
256,192,177979,1,0,0:0:0:0:
256,192,178145,1,8,0:0:0:0:
256,192,178312,1,0,0:0:0:0:
256,192,178395,1,0,0:0:0:0:
256,192,178479,1,8,0:0:0:0:
256,192,178562,1,8,0:0:0:0:
256,192,178645,1,0,0:0:0:0:
256,192,178812,1,8,0:0:0:0:
256,192,178979,1,0,0:0:0:0:
256,192,179034,1,0,0:0:0:0:
256,192,179090,1,0,0:0:0:0:
256,192,179145,1,8,0:0:0:0:
256,192,179229,1,8,0:0:0:0:
256,192,179312,1,0,0:0:0:0:
256,192,179395,1,0,0:0:0:0:
256,192,179479,1,8,0:0:0:0:
256,192,179562,1,0,0:0:0:0:
256,192,179645,1,8,0:0:0:0:
256,192,179729,1,0,0:0:0:0:
256,192,179812,1,8,0:0:0:0:
256,192,179895,1,8,0:0:0:0:
256,192,179979,1,0,0:0:0:0:
256,192,180062,1,0,0:0:0:0:
256,192,180145,1,8,0:0:0:0:
256,192,180201,1,8,0:0:0:0:
256,192,180257,1,8,0:0:0:0:
256,192,180312,1,0,0:0:0:0:
256,192,180395,1,8,0:0:0:0:
256,192,180479,1,0,0:0:0:0:
256,192,181145,1,8,0:0:0:0:
256,192,181368,1,0,0:0:0:0:
256,192,181479,1,12,0:0:0:0:
256,192,181812,1,4,0:0:0:0:
256,192,182145,1,8,0:0:0:0:
256,192,182368,1,0,0:0:0:0:
256,192,182479,1,8,0:0:0:0:
256,192,182701,1,8,0:0:0:0:
256,192,183034,1,8,0:0:0:0:
256,192,183145,1,0,0:0:0:0:
256,192,183368,1,0,0:0:0:0:
256,192,183479,1,8,0:0:0:0:
256,192,183590,1,8,0:0:0:0:
256,192,183701,1,0,0:0:0:0:
256,192,183812,1,8,0:0:0:0:
256,192,184034,1,8,0:0:0:0:
256,192,184145,1,0,0:0:0:0:
256,192,184368,1,8,0:0:0:0:
256,192,184479,1,0,0:0:0:0:
256,192,184812,1,0,0:0:0:0:
256,192,185034,1,8,0:0:0:0:
256,192,185145,1,8,0:0:0:0:
256,192,185368,1,0,0:0:0:0:
256,192,185701,1,0,0:0:0:0:
256,192,185812,1,0,0:0:0:0:
256,192,186034,1,8,0:0:0:0:
256,192,186145,1,0,0:0:0:0:
256,192,186257,1,0,0:0:0:0:
256,192,186368,1,8,0:0:0:0:
256,192,186479,1,8,0:0:0:0:
256,192,186701,1,0,0:0:0:0:
256,192,186812,1,8,0:0:0:0:
256,192,187034,1,0,0:0:0:0:
256,192,187145,1,12,0:0:0:0:
256,192,187479,1,0,0:0:0:0:
256,192,187701,1,8,0:0:0:0:
256,192,187812,1,8,0:0:0:0:
256,192,187923,1,0,0:0:0:0:
256,192,188034,1,8,0:0:0:0:
256,192,188145,1,0,0:0:0:0:
256,192,188368,1,0,0:0:0:0:
256,192,188479,1,8,0:0:0:0:
256,192,188701,1,0,0:0:0:0:
256,192,188812,1,0,0:0:0:0:
256,192,188923,1,8,0:0:0:0:
256,192,189034,1,0,0:0:0:0:
256,192,189145,1,8,0:0:0:0:
256,192,189368,1,0,0:0:0:0:
256,192,189479,1,0,0:0:0:0:
256,192,189590,1,8,0:0:0:0:
256,192,189701,1,0,0:0:0:0:
256,192,189812,1,0,0:0:0:0:
256,192,190034,1,8,0:0:0:0:
256,192,190145,1,0,0:0:0:0:
256,192,190368,1,0,0:0:0:0:
256,192,190479,1,8,0:0:0:0:
256,192,190701,1,8,0:0:0:0:
256,192,190979,1,4,0:0:0:0:
256,192,191979,1,8,0:0:0:0:
256,192,192145,1,8,0:0:0:0:
256,192,192312,1,8,0:0:0:0:
256,192,192479,1,4,0:0:0:0:
256,192,192812,1,8,0:0:0:0:
256,192,192979,1,0,0:0:0:0:
256,192,193145,1,8,0:0:0:0:
256,192,193229,1,8,0:0:0:0:
256,192,193312,1,0,0:0:0:0:
256,192,193479,1,8,0:0:0:0:
256,192,193645,1,0,0:0:0:0:
256,192,193729,1,0,0:0:0:0:
256,192,193895,1,8,0:0:0:0:
256,192,193979,1,0,0:0:0:0:
256,192,194062,1,0,0:0:0:0:
256,192,194145,1,8,0:0:0:0:
256,192,194312,1,8,0:0:0:0:
256,192,194479,1,0,0:0:0:0:
256,192,194562,1,0,0:0:0:0:
256,192,194645,1,8,0:0:0:0:
256,192,194729,1,0,0:0:0:0:
256,192,194812,1,8,0:0:0:0:
256,192,194979,1,0,0:0:0:0:
256,192,195145,1,8,0:0:0:0:
256,192,195479,1,8,0:0:0:0:
256,192,195645,1,0,0:0:0:0:
256,192,195729,1,0,0:0:0:0:
256,192,195812,1,8,0:0:0:0:
256,192,195979,1,0,0:0:0:0:
256,192,196145,1,8,0:0:0:0:
256,192,196229,1,0,0:0:0:0:
256,192,196312,1,8,0:0:0:0:
256,192,196395,1,8,0:0:0:0:
256,192,196479,1,0,0:0:0:0:
256,192,196645,1,0,0:0:0:0:
256,192,196729,1,0,0:0:0:0:
256,192,196812,1,8,0:0:0:0:
256,192,196979,1,8,0:0:0:0:
256,192,197145,1,0,0:0:0:0:
256,192,197312,1,8,0:0:0:0:
256,192,197395,1,0,0:0:0:0:
256,192,197479,1,8,0:0:0:0:
256,192,197645,1,8,0:0:0:0:
256,192,197812,1,4,0:0:0:0:
256,192,198145,1,8,0:0:0:0:
256,192,198312,1,0,0:0:0:0:
256,192,198479,1,8,0:0:0:0:
256,192,198562,1,0,0:0:0:0:
256,192,198645,1,0,0:0:0:0:
256,192,198729,1,0,0:0:0:0:
256,192,198812,1,8,0:0:0:0:
256,192,198979,1,8,0:0:0:0:
256,192,199145,1,4,0:0:0:0:
256,192,199312,1,0,0:0:0:0:
256,192,199479,1,8,0:0:0:0:
256,192,199562,1,8,0:0:0:0:
256,192,199645,1,0,0:0:0:0:
256,192,199812,1,0,0:0:0:0:
256,192,199979,1,8,0:0:0:0:
256,192,200062,1,0,0:0:0:0:
256,192,200145,1,8,0:0:0:0:
256,192,200312,1,8,0:0:0:0:
256,192,200479,1,4,0:0:0:0:
256,192,200645,1,0,0:0:0:0:
256,192,200729,1,0,0:0:0:0:
256,192,200812,1,8,0:0:0:0:
256,192,200979,1,8,0:0:0:0:
256,192,201145,1,4,0:0:0:0:
256,192,201312,1,0,0:0:0:0:
256,192,201479,1,8,0:0:0:0:
256,192,201645,1,8,0:0:0:0:
256,192,201979,1,4,0:0:0:0:
256,192,202145,1,4,0:0:0:0:
256,192,202312,1,4,0:0:0:0:
256,192,202479,1,4,0:0:0:0:
256,192,202812,1,12,0:0:0:0:
256,192,203145,1,4,0:0:0:0:
256,192,203645,1,0,0:0:0:0:
256,192,203812,1,8,0:0:0:0:
256,192,204312,1,0,0:0:0:0:
256,192,204395,1,0,0:0:0:0:
256,192,204479,1,0,0:0:0:0:
256,192,204729,1,0,0:0:0:0:
256,192,204979,1,0,0:0:0:0:
256,192,205145,1,8,0:0:0:0:
256,192,205312,1,0,0:0:0:0:
256,192,205395,1,0,0:0:0:0:
256,192,205479,1,8,0:0:0:0:
256,192,205645,1,0,0:0:0:0:
256,192,205701,1,0,0:0:0:0:
256,192,205757,1,0,0:0:0:0:
256,192,205812,1,0,0:0:0:0:
256,192,206312,1,0,0:0:0:0:
256,192,206479,1,8,0:0:0:0:
256,192,206979,1,0,0:0:0:0:
256,192,207062,1,0,0:0:0:0:
256,192,207145,1,0,0:0:0:0:
256,192,207395,1,0,0:0:0:0:
256,192,207645,1,0,0:0:0:0:
256,192,207812,1,8,0:0:0:0:
256,192,207979,1,0,0:0:0:0:
256,192,208145,1,12,0:0:0:0:
256,192,208479,1,4,0:0:0:0:
256,192,209034,1,0,0:0:0:0:
256,192,209145,1,8,0:0:0:0:
256,192,209479,1,0,0:0:0:0:
256,192,210034,1,0,0:0:0:0:
256,192,210145,1,8,0:0:0:0:
256,192,210479,1,0,0:0:0:0:
256,192,211034,1,0,0:0:0:0:
256,192,211145,1,8,0:0:0:0:
256,192,211479,1,0,0:0:0:0:
256,192,211812,1,0,0:0:0:0:
256,192,212145,1,0,0:0:0:0:
256,192,212479,1,8,0:0:0:0:
256,192,212812,1,8,0:0:0:0:
256,192,213145,1,8,0:0:0:0:
256,192,213479,1,0,0:0:0:0:
256,192,213812,1,4,0:0:0:0:
256,192,213979,1,8,0:0:0:0:
256,192,214145,1,0,0:0:0:0:
256,192,214229,1,0,0:0:0:0:
256,192,214312,1,8,0:0:0:0:
256,192,214395,1,0,0:0:0:0:
256,192,214479,1,8,0:0:0:0:
256,192,214645,1,0,0:0:0:0:
256,192,214812,1,8,0:0:0:0:
256,192,214979,1,0,0:0:0:0:
256,192,215034,1,0,0:0:0:0:
256,192,215090,1,0,0:0:0:0:
256,192,215145,1,8,0:0:0:0:
256,192,215312,1,0,0:0:0:0:
256,192,215479,1,8,0:0:0:0:
256,192,215562,1,8,0:0:0:0:
256,192,215645,1,0,0:0:0:0:
256,192,215729,1,0,0:0:0:0:
256,192,215812,1,8,0:0:0:0:
256,192,215979,1,0,0:0:0:0:
256,192,216145,1,8,0:0:0:0:
256,192,216312,1,0,0:0:0:0:
256,192,216368,1,0,0:0:0:0:
256,192,216423,1,0,0:0:0:0:
256,192,216479,1,8,0:0:0:0:
256,192,216562,1,8,0:0:0:0:
256,192,216645,1,0,0:0:0:0:
256,192,216729,1,8,0:0:0:0:
256,192,216812,1,0,0:0:0:0:
256,192,216895,1,0,0:0:0:0:
256,192,216979,1,8,0:0:0:0:
256,192,217062,1,0,0:0:0:0:
256,192,217145,1,8,0:0:0:0:
256,192,217229,1,8,0:0:0:0:
256,192,217312,1,0,0:0:0:0:
256,192,217395,1,0,0:0:0:0:
256,192,217479,1,8,0:0:0:0:
256,192,217534,1,0,0:0:0:0:
256,192,217590,1,0,0:0:0:0:
256,192,217645,1,8,0:0:0:0:
256,192,217729,1,8,0:0:0:0:
256,192,217812,1,0,0:0:0:0:
256,192,218145,1,12,0:0:0:0:
256,192,218479,1,0,0:0:0:0:
256,192,218645,1,8,0:0:0:0:
256,192,218812,1,8,0:0:0:0:
256,192,218979,1,8,0:0:0:0:
256,192,219145,1,4,0:0:0:0:
256,192,219395,1,0,0:0:0:0:
256,192,219479,1,8,0:0:0:0:
256,192,219645,1,8,0:0:0:0:
256,192,219729,1,8,0:0:0:0:
256,192,219812,1,0,0:0:0:0:
256,192,219895,1,0,0:0:0:0:
256,192,219979,1,8,0:0:0:0:
256,192,220145,1,8,0:0:0:0:
256,192,220312,1,0,0:0:0:0:
256,192,220395,1,8,0:0:0:0:
256,192,220479,1,0,0:0:0:0:
256,192,220562,1,0,0:0:0:0:
256,192,220729,1,0,0:0:0:0:
256,192,220812,1,8,0:0:0:0:
256,192,220979,1,8,0:0:0:0:
256,192,221062,1,8,0:0:0:0:
256,192,221145,1,0,0:0:0:0:
256,192,221229,1,0,0:0:0:0:
256,192,221312,1,8,0:0:0:0:
256,192,221395,1,0,0:0:0:0:
256,192,221479,1,8,0:0:0:0:
256,192,221645,1,0,0:0:0:0:
256,192,221812,1,8,0:0:0:0:
256,192,221895,1,8,0:0:0:0:
256,192,222062,1,0,0:0:0:0:
256,192,222145,1,8,0:0:0:0:
256,192,222312,1,0,0:0:0:0:
256,192,222395,1,0,0:0:0:0:
256,192,222479,1,8,0:0:0:0:
256,192,222645,1,0,0:0:0:0:
256,192,222812,1,8,0:0:0:0:
256,192,222895,1,8,0:0:0:0:
256,192,222979,1,0,0:0:0:0:
256,192,223062,1,8,0:0:0:0:
256,192,223229,1,8,0:0:0:0:
256,192,223312,1,0,0:0:0:0:
256,192,223395,1,0,0:0:0:0:
256,192,223479,1,8,0:0:0:0:
256,192,223645,1,0,0:0:0:0:
256,192,223729,1,8,0:0:0:0:
256,192,223812,1,0,0:0:0:0:
256,192,223979,1,12,0:0:0:0:
256,192,224145,1,12,0:0:0:0:
256,192,224479,1,8,0:0:0:0:
256,192,224645,1,0,0:0:0:0:
256,192,224729,1,0,0:0:0:0:
256,192,224812,1,8,0:0:0:0:
256,192,224895,1,8,0:0:0:0:
256,192,224979,1,0,0:0:0:0:
256,192,225145,1,8,0:0:0:0:
256,192,225312,1,0,0:0:0:0:
256,192,225395,1,0,0:0:0:0:
256,192,225479,1,8,0:0:0:0:
256,192,225645,1,8,0:0:0:0:
256,192,225729,1,8,0:0:0:0:
256,192,225812,1,0,0:0:0:0:
256,192,225979,1,0,0:0:0:0:
256,192,226062,1,0,0:0:0:0:
256,192,226145,1,8,0:0:0:0:
256,192,226229,1,0,0:0:0:0:
256,192,226312,1,8,0:0:0:0:
256,192,226395,1,8,0:0:0:0:
256,192,226479,1,0,0:0:0:0:
256,192,226645,1,8,0:0:0:0:
256,192,226812,1,8,0:0:0:0:
256,192,226895,1,8,0:0:0:0:
256,192,226979,1,0,0:0:0:0:
256,192,227062,1,0,0:0:0:0:
256,192,227145,1,8,0:0:0:0:
256,192,227312,1,0,0:0:0:0:
256,192,227479,1,12,0:0:0:0:
256,192,227645,1,0,0:0:0:0:
256,192,227729,1,0,0:0:0:0:
256,192,227812,1,8,0:0:0:0:
256,192,227979,1,0,0:0:0:0:
256,192,228145,1,12,0:0:0:0:
256,192,228312,1,8,0:0:0:0:
256,192,228479,1,4,0:0:0:0:
256,192,228812,1,8,0:0:0:0:
256,192,228979,1,4,0:0:0:0:
256,192,229145,1,8,0:0:0:0:
256,192,229312,1,0,0:0:0:0:
256,192,229395,1,8,0:0:0:0:
256,192,229479,1,8,0:0:0:0:
256,192,229645,1,8,0:0:0:0:
256,192,229812,1,0,0:0:0:0:
256,192,229895,1,0,0:0:0:0:
256,192,229979,1,0,0:0:0:0:
256,192,230145,1,12,0:0:0:0:
256,192,230395,1,8,0:0:0:0:
256,192,230479,1,0,0:0:0:0:
256,192,230645,1,8,0:0:0:0:
256,192,230812,1,8,0:0:0:0:
256,192,230979,1,0,0:0:0:0:
256,192,231062,1,8,0:0:0:0:
256,192,231229,1,0,0:0:0:0:
256,192,231312,1,8,0:0:0:0:
256,192,231395,1,8,0:0:0:0:
256,192,231479,1,0,0:0:0:0:
256,192,231562,1,8,0:0:0:0:
256,192,231729,1,8,0:0:0:0:
256,192,231812,1,0,0:0:0:0:
256,192,231979,1,8,0:0:0:0:
256,192,232145,1,8,0:0:0:0:
256,192,232229,1,8,0:0:0:0:
256,192,232312,1,0,0:0:0:0:
256,192,232395,1,0,0:0:0:0:
256,192,232479,1,8,0:0:0:0:
256,192,232645,1,0,0:0:0:0:
256,192,232729,1,0,0:0:0:0:
256,192,232812,1,8,0:0:0:0:
256,192,232979,1,8,0:0:0:0:
256,192,233062,1,8,0:0:0:0:
256,192,233145,1,0,0:0:0:0:
256,192,233312,1,0,0:0:0:0:
256,192,233479,1,8,0:0:0:0:
256,192,233645,1,0,0:0:0:0:
256,192,233729,1,8,0:0:0:0:
256,192,233895,1,8,0:0:0:0:
256,192,233979,1,0,0:0:0:0:
256,192,234062,1,0,0:0:0:0:
256,192,234145,1,8,0:0:0:0:
256,192,234312,1,8,0:0:0:0:
256,192,234395,1,8,0:0:0:0:
256,192,234479,1,0,0:0:0:0:
256,192,234645,1,12,0:0:0:0:
256,192,234812,1,12,0:0:0:0:
256,192,235145,1,4,0:0:0:0:
224,192,235479,1,8,0:0:0:0:
224,192,235645,1,4,0:0:0:0:
224,192,235979,1,8,0:0:0:0:
224,192,236145,1,8,0:0:0:0:
224,192,236479,1,4,0:0:0:0:
224,192,236812,1,8,0:0:0:0:
224,192,236979,1,4,0:0:0:0:
224,192,237312,1,8,0:0:0:0:
224,192,237479,1,8,0:0:0:0:
224,192,237645,1,0,0:0:0:0:
224,192,237979,1,0,0:0:0:0:
224,192,238145,1,12,0:0:0:0:
224,192,238479,1,0,0:0:0:0:
224,192,238645,1,0,0:0:0:0:
224,192,238812,1,12,0:0:0:0:
224,192,239145,1,4,0:0:0:0:
224,192,239479,1,8,0:0:0:0:
224,192,239812,1,4,0:0:0:0:
224,192,239979,1,8,0:0:0:0:
224,192,240145,1,0,0:0:0:0:
224,192,240201,1,0,0:0:0:0:
224,192,240257,1,0,0:0:0:0:
224,192,240312,1,8,0:0:0:0:
256,192,240479,8,8,241645,0:0:0:0:
256,192,241812,5,0,0:0:0:0:
256,192,241979,1,0,0:0:0:0:
256,192,242062,1,0,0:0:0:0:
256,192,242145,1,8,0:0:0:0:
256,192,242312,1,0,0:0:0:0:
256,192,242395,1,8,0:0:0:0:
256,192,242562,1,8,0:0:0:0:
256,192,242645,1,0,0:0:0:0:
256,192,242812,1,12,0:0:0:0:
256,192,243146,1,4,0:0:0:0:
256,192,243479,1,8,0:0:0:0:
256,192,243646,1,0,0:0:0:0:
256,192,243729,1,0,0:0:0:0:
256,192,243812,1,8,0:0:0:0:
256,192,243979,1,0,0:0:0:0:
256,192,244146,1,8,0:0:0:0:
256,192,244312,1,8,0:0:0:0:
256,192,244396,1,8,0:0:0:0:
256,192,244479,1,0,0:0:0:0:
256,192,244646,1,0,0:0:0:0:
256,192,244812,1,8,0:0:0:0:
256,192,244979,1,0,0:0:0:0:
256,192,245146,1,0,0:0:0:0:
256,192,245229,1,8,0:0:0:0:
256,192,245312,1,8,0:0:0:0:
256,192,245396,1,0,0:0:0:0:
256,192,245479,1,8,0:0:0:0:
256,192,245646,1,0,0:0:0:0:
256,192,245812,1,8,0:0:0:0:
256,192,245896,1,0,0:0:0:0:
256,192,245979,1,0,0:0:0:0:
256,192,246146,1,8,0:0:0:0:
256,192,246312,1,0,0:0:0:0:
256,192,246396,1,0,0:0:0:0:
256,192,246479,1,8,0:0:0:0:
256,192,246562,1,8,0:0:0:0:
256,192,246646,1,0,0:0:0:0:
256,192,246812,1,8,0:0:0:0:
256,192,246979,1,0,0:0:0:0:
256,192,247062,1,8,0:0:0:0:
256,192,247146,1,0,0:0:0:0:
256,192,247312,1,0,0:0:0:0:
256,192,247396,1,0,0:0:0:0:
256,192,247479,1,8,0:0:0:0:
256,192,247646,1,8,0:0:0:0:
256,192,247812,1,0,0:0:0:0:
256,192,247979,1,8,0:0:0:0:
256,192,248062,1,0,0:0:0:0:
256,192,248146,1,8,0:0:0:0:
256,192,248312,1,8,0:0:0:0:
256,192,248479,1,0,0:0:0:0:
256,192,248812,1,8,0:0:0:0:
256,192,248979,1,0,0:0:0:0:
256,192,249062,1,0,0:0:0:0:
256,192,249146,1,8,0:0:0:0:
256,192,249312,1,0,0:0:0:0:
256,192,249479,1,8,0:0:0:0:
256,192,249562,1,8,0:0:0:0:
256,192,249646,1,0,0:0:0:0:
256,192,249729,1,8,0:0:0:0:
256,192,249812,1,0,0:0:0:0:
256,192,249979,1,0,0:0:0:0:
256,192,250146,1,8,0:0:0:0:
256,192,250312,1,0,0:0:0:0:
256,192,250396,1,0,0:0:0:0:
256,192,250479,1,0,0:0:0:0:
256,192,250646,1,8,0:0:0:0:
256,192,250812,1,8,0:0:0:0:
256,192,250979,1,0,0:0:0:0:
256,192,251146,1,8,0:0:0:0:
256,192,251229,1,8,0:0:0:0:
256,192,251396,1,0,0:0:0:0:
256,192,251479,1,8,0:0:0:0:
256,192,251646,1,0,0:0:0:0:
256,192,251812,1,8,0:0:0:0:
256,192,251896,1,8,0:0:0:0:
256,192,251979,1,0,0:0:0:0:
256,192,252062,1,0,0:0:0:0:
256,192,252146,1,8,0:0:0:0:
256,192,252312,1,0,0:0:0:0:
256,192,252479,1,8,0:0:0:0:
256,192,252562,1,0,0:0:0:0:
256,192,252646,1,0,0:0:0:0:
256,192,252729,1,0,0:0:0:0:
256,192,252812,1,8,0:0:0:0:
256,192,252896,1,8,0:0:0:0:
256,192,252979,1,0,0:0:0:0:
256,192,253062,1,8,0:0:0:0:
256,192,253146,1,0,0:0:0:0:
256,192,253229,1,0,0:0:0:0:
256,192,253312,1,8,0:0:0:0:
256,192,253396,1,8,0:0:0:0:
256,192,253479,1,8,0:0:0:0:
256,192,253562,1,0,0:0:0:0:
256,192,253646,1,8,0:0:0:0:
256,192,253729,1,8,0:0:0:0:
256,192,253812,1,0,0:0:0:0:
256,192,254146,1,8,0:0:0:0:
256,192,254312,1,0,0:0:0:0:
256,192,254479,1,8,0:0:0:0:
256,192,254562,1,0,0:0:0:0:
256,192,254729,1,0,0:0:0:0:
256,192,254812,1,8,0:0:0:0:
256,192,254979,1,8,0:0:0:0:
256,192,255062,1,8,0:0:0:0:
256,192,255146,1,0,0:0:0:0:
256,192,255312,1,0,0:0:0:0:
256,192,255479,1,8,0:0:0:0:
256,192,255646,1,0,0:0:0:0:
256,192,255729,1,0,0:0:0:0:
256,192,255812,1,8,0:0:0:0:
256,192,255896,1,0,0:0:0:0:
256,192,256062,1,0,0:0:0:0:
256,192,256146,1,8,0:0:0:0:
256,192,256312,1,0,0:0:0:0:
256,192,256368,1,0,0:0:0:0:
256,192,256423,1,0,0:0:0:0:
256,192,256479,1,8,0:0:0:0:
256,192,256646,1,0,0:0:0:0:
256,192,256729,1,0,0:0:0:0:
256,192,256812,1,8,0:0:0:0:
256,192,256979,1,0,0:0:0:0:
256,192,257145,1,8,0:0:0:0:
256,192,257229,1,0,0:0:0:0:
256,192,257395,1,0,0:0:0:0:
256,192,257479,1,8,0:0:0:0:
256,192,257562,1,8,0:0:0:0:
256,192,257729,1,0,0:0:0:0:
256,192,257812,1,8,0:0:0:0:
256,192,257979,1,0,0:0:0:0:
256,192,258145,1,8,0:0:0:0:
256,192,258229,1,8,0:0:0:0:
256,192,258312,1,0,0:0:0:0:
256,192,258395,1,0,0:0:0:0:
256,192,258479,1,8,0:0:0:0:
256,192,258645,1,0,0:0:0:0:
256,192,258812,1,8,0:0:0:0:
256,192,258979,1,0,0:0:0:0:
256,192,259034,1,0,0:0:0:0:
256,192,259090,1,0,0:0:0:0:
256,192,259145,1,8,0:0:0:0:
256,192,259312,1,0,0:0:0:0:
256,192,259395,1,0,0:0:0:0:
256,192,259479,1,8,0:0:0:0:
256,192,259562,1,8,0:0:0:0:
256,192,259645,1,0,0:0:0:0:
256,192,259812,1,8,0:0:0:0:
256,192,259979,1,0,0:0:0:0:
256,192,260062,1,0,0:0:0:0:
256,192,260145,1,8,0:0:0:0:
256,192,260312,1,0,0:0:0:0:
256,192,260368,1,0,0:0:0:0:
256,192,260423,1,0,0:0:0:0:
256,192,260479,1,8,0:0:0:0:
256,192,260645,1,0,0:0:0:0:
256,192,260812,1,8,0:0:0:0:
256,192,260979,1,0,0:0:0:0:
256,192,261062,1,8,0:0:0:0:
256,192,261145,1,0,0:0:0:0:
256,192,261312,1,0,0:0:0:0:
256,192,261479,1,8,0:0:0:0:
256,192,261645,1,0,0:0:0:0:
256,192,261701,1,0,0:0:0:0:
256,192,261757,1,0,0:0:0:0:
256,192,261812,1,8,0:0:0:0:
256,192,261895,1,8,0:0:0:0:
256,192,261979,1,0,0:0:0:0:
256,192,262062,1,0,0:0:0:0:
256,192,262146,1,8,0:0:0:0:
256,192,262229,1,0,0:0:0:0:
256,192,262312,1,0,0:0:0:0:
256,192,262396,1,0,0:0:0:0:
256,192,262479,1,8,0:0:0:0:
256,192,262562,1,8,0:0:0:0:
256,192,262646,1,0,0:0:0:0:
256,192,262729,1,0,0:0:0:0:
256,192,262812,1,8,0:0:0:0:
256,192,262868,1,8,0:0:0:0:
256,192,262923,1,8,0:0:0:0:
256,192,262979,1,0,0:0:0:0:
256,192,263062,1,0,0:0:0:0:
256,192,263146,1,8,0:0:0:0:
256,192,263312,1,4,0:0:0:0:
256,192,263479,1,4,0:0:0:0:
256,192,263646,1,4,0:0:0:0:
256,192,263812,1,4,0:0:0:0:
256,192,264146,1,12,0:0:0:0:
256,192,264479,1,4,0:0:0:0:
256,192,264979,1,0,0:0:0:0:
256,192,265146,1,8,0:0:0:0:
256,192,265646,1,0,0:0:0:0:
256,192,265729,1,0,0:0:0:0:
256,192,265812,1,0,0:0:0:0:
256,192,266062,1,0,0:0:0:0:
256,192,266312,1,0,0:0:0:0:
256,192,266479,1,8,0:0:0:0:
256,192,266646,1,0,0:0:0:0:
256,192,266729,1,0,0:0:0:0:
256,192,266812,1,8,0:0:0:0:
256,192,266979,1,0,0:0:0:0:
256,192,267034,1,0,0:0:0:0:
256,192,267090,1,0,0:0:0:0:
256,192,267146,1,0,0:0:0:0:
256,192,267646,1,0,0:0:0:0:
256,192,267812,1,8,0:0:0:0:
256,192,268312,1,0,0:0:0:0:
256,192,268396,1,0,0:0:0:0:
256,192,268479,1,0,0:0:0:0:
256,192,268729,1,0,0:0:0:0:
256,192,268979,1,0,0:0:0:0:
256,192,269146,1,8,0:0:0:0:
256,192,269312,1,0,0:0:0:0:
256,192,269479,1,12,0:0:0:0:
256,192,269812,1,4,0:0:0:0:
256,192,271145,1,8,0:0:0:0:
256,192,271479,1,8,0:0:0:0:
256,192,271812,1,8,0:0:0:0:
256,192,271979,1,0,0:0:0:0:
256,192,272145,1,12,0:0:0:0:
256,192,272479,1,4,0:0:0:0:
256,192,272812,1,8,0:0:0:0:
256,192,273145,1,8,0:0:0:0:
256,192,273479,1,8,0:0:0:0:
256,192,273645,1,8,0:0:0:0:
256,192,273812,1,4,0:0:0:0:
256,192,274145,1,8,0:0:0:0:
256,192,274479,1,8,0:0:0:0:
256,192,274812,1,8,0:0:0:0:
256,192,274979,1,8,0:0:0:0:
256,192,275145,1,4,0:0:0:0:
256,192,275312,1,8,0:0:0:0:
256,192,275395,1,8,0:0:0:0:
256,192,275479,1,0,0:0:0:0:
256,192,275645,1,8,0:0:0:0:
256,192,275729,1,0,0:0:0:0:
256,192,275812,1,8,0:0:0:0:
256,192,275895,1,8,0:0:0:0:
256,192,275979,1,0,0:0:0:0:
256,192,276062,1,0,0:0:0:0:
256,192,276145,1,8,0:0:0:0:
256,192,276312,1,0,0:0:0:0:
256,192,276368,1,0,0:0:0:0:
256,192,276423,1,0,0:0:0:0:
256,192,276479,1,8,0:0:0:0:
256,192,276645,1,0,0:0:0:0:
256,192,276729,1,0,0:0:0:0:
256,192,276812,1,8,0:0:0:0:
256,192,276895,1,8,0:0:0:0:
256,192,276979,1,0,0:0:0:0:
256,192,277062,1,8,0:0:0:0:
256,192,277145,1,0,0:0:0:0:
256,192,277312,1,0,0:0:0:0:
256,192,277479,1,8,0:0:0:0:
256,192,277645,1,0,0:0:0:0:
256,192,277701,1,0,0:0:0:0:
256,192,277757,1,0,0:0:0:0:
256,192,277812,1,8,0:0:0:0:
256,192,277895,1,8,0:0:0:0:
256,192,277979,1,0,0:0:0:0:
256,192,278062,1,0,0:0:0:0:
256,192,278145,1,8,0:0:0:0:
256,192,278229,1,8,0:0:0:0:
256,192,278312,1,8,0:0:0:0:
256,192,278395,1,0,0:0:0:0:
256,192,278479,1,8,0:0:0:0:
256,192,278562,1,8,0:0:0:0:
256,192,278645,1,0,0:0:0:0:
256,192,278729,1,0,0:0:0:0:
256,192,278812,1,8,0:0:0:0:
256,192,278868,1,0,0:0:0:0:
256,192,278923,1,0,0:0:0:0:
256,192,278979,1,8,0:0:0:0:
256,192,279062,1,8,0:0:0:0:
256,192,279145,1,0,0:0:0:0:
256,192,279479,1,12,0:0:0:0:
256,192,280479,1,8,0:0:0:0:
256,192,280562,1,8,0:0:0:0:
256,192,280645,1,0,0:0:0:0:
256,192,280729,1,0,0:0:0:0:
256,192,280812,1,8,0:0:0:0:
256,192,280895,1,0,0:0:0:0:
256,192,280979,1,8,0:0:0:0:
256,192,281062,1,8,0:0:0:0:
256,192,281145,1,0,0:0:0:0:
256,192,281229,1,0,0:0:0:0:
256,192,281312,1,8,0:0:0:0:
256,192,281395,1,0,0:0:0:0:
256,192,281479,1,8,0:0:0:0:
256,192,281645,1,8,0:0:0:0:
256,192,281813,1,4,0:0:0:0:
256,192,282146,1,0,0:0:0:0:
256,192,282479,1,0,0:0:0:0:
256,192,282979,1,4,0:0:0:0:
256,192,283479,1,0,0:0:0:0:
256,192,283813,1,0,0:0:0:0:
256,192,284479,1,4,0:0:0:0:
256,192,284813,1,0,0:0:0:0:
256,192,285146,1,0,0:0:0:0:
256,192,285646,1,4,0:0:0:0:
256,192,285979,1,4,0:0:0:0:
256,192,286313,1,4,0:0:0:0:
256,192,286479,1,4,0:0:0:0:
256,192,286813,1,12,0:0:0:0:
256,192,287146,1,4,0:0:0:0:
256,192,287313,1,0,0:0:0:0:
256,192,287396,1,0,0:0:0:0:
256,192,287479,1,8,0:0:0:0:
256,192,287563,1,8,0:0:0:0:
256,192,287646,1,0,0:0:0:0:
256,192,287813,1,8,0:0:0:0:
256,192,287979,1,0,0:0:0:0:
256,192,288063,1,0,0:0:0:0:
256,192,288146,1,8,0:0:0:0:
256,192,288313,1,8,0:0:0:0:
256,192,288479,1,0,0:0:0:0:
256,192,288563,1,8,0:0:0:0:
256,192,288646,1,0,0:0:0:0:
256,192,288729,1,0,0:0:0:0:
256,192,288813,1,8,0:0:0:0:
256,192,288979,1,8,0:0:0:0:
256,192,289063,1,8,0:0:0:0:
256,192,289146,1,0,0:0:0:0:
256,192,289313,1,8,0:0:0:0:
256,192,289396,1,0,0:0:0:0:
256,192,289479,1,8,0:0:0:0:
256,192,289563,1,8,0:0:0:0:
256,192,289646,1,0,0:0:0:0:
256,192,289729,1,0,0:0:0:0:
256,192,289813,1,8,0:0:0:0:
256,192,289979,1,0,0:0:0:0:
256,192,290146,1,12,0:0:0:0:
256,192,290313,1,0,0:0:0:0:
256,192,290396,1,0,0:0:0:0:
256,192,290479,1,8,0:0:0:0:
256,192,290563,1,0,0:0:0:0:
256,192,290646,1,0,0:0:0:0:
256,192,290813,1,12,0:0:0:0:
256,192,290979,1,8,0:0:0:0:
256,192,291146,1,4,0:0:0:0:
256,192,291479,1,8,0:0:0:0:
256,192,291646,1,4,0:0:0:0:
256,192,291813,1,8,0:0:0:0:
256,192,291979,1,0,0:0:0:0:
256,192,292063,1,8,0:0:0:0:
256,192,292146,1,8,0:0:0:0:
256,192,292313,1,8,0:0:0:0:
256,192,292479,1,0,0:0:0:0:
256,192,292563,1,0,0:0:0:0:
256,192,292646,1,0,0:0:0:0:
256,192,292813,1,12,0:0:0:0:
256,192,293063,1,8,0:0:0:0:
256,192,293146,1,0,0:0:0:0:
256,192,293229,1,0,0:0:0:0:
256,192,293313,1,8,0:0:0:0:
256,192,293479,1,8,0:0:0:0:
256,192,293646,1,0,0:0:0:0:
256,192,293729,1,8,0:0:0:0:
256,192,293813,1,0,0:0:0:0:
256,192,293896,1,0,0:0:0:0:
256,192,294063,1,0,0:0:0:0:
256,192,294146,1,8,0:0:0:0:
256,192,294313,1,8,0:0:0:0:
256,192,294396,1,8,0:0:0:0:
256,192,294479,1,0,0:0:0:0:
256,192,294563,1,0,0:0:0:0:
256,192,294646,1,8,0:0:0:0:
256,192,294729,1,0,0:0:0:0:
256,192,294813,1,8,0:0:0:0:
256,192,294979,1,0,0:0:0:0:
256,192,295146,1,8,0:0:0:0:
256,192,295229,1,8,0:0:0:0:
256,192,295396,1,0,0:0:0:0:
256,192,295479,1,8,0:0:0:0:
256,192,295563,1,8,0:0:0:0:
256,192,295646,1,0,0:0:0:0:
256,192,295813,1,8,0:0:0:0:
256,192,295979,1,0,0:0:0:0:
256,192,296063,1,0,0:0:0:0:
256,192,296146,1,8,0:0:0:0:
256,192,296229,1,8,0:0:0:0:
256,192,296313,1,0,0:0:0:0:
256,192,296396,1,0,0:0:0:0:
256,192,296479,1,8,0:0:0:0:
256,192,296646,1,0,0:0:0:0:
256,192,296729,1,0,0:0:0:0:
256,192,296813,1,8,0:0:0:0:
256,192,296896,1,0,0:0:0:0:
256,192,296979,1,8,0:0:0:0:
256,192,297063,1,8,0:0:0:0:
256,192,297146,1,0,0:0:0:0:
256,192,297313,1,12,0:0:0:0:
256,192,297479,1,12,0:0:0:0:
256,192,297813,1,4,0:0:0:0:
224,192,298146,1,8,0:0:0:0:
224,192,298313,1,4,0:0:0:0:
224,192,298646,1,8,0:0:0:0:
224,192,298813,1,8,0:0:0:0:
224,192,299146,1,4,0:0:0:0:
224,192,299479,1,8,0:0:0:0:
224,192,299646,1,4,0:0:0:0:
224,192,299979,1,8,0:0:0:0:
224,192,300146,1,8,0:0:0:0:
224,192,300313,1,0,0:0:0:0:
224,192,300646,1,0,0:0:0:0:
224,192,300813,1,12,0:0:0:0:
224,192,301146,1,0,0:0:0:0:
224,192,301313,1,0,0:0:0:0:
224,192,301479,1,12,0:0:0:0:
224,192,301813,1,4,0:0:0:0:
224,192,302146,1,8,0:0:0:0:
224,192,302479,1,4,0:0:0:0:
224,192,302646,1,8,0:0:0:0:
224,192,302813,1,0,0:0:0:0:
224,192,302868,1,0,0:0:0:0:
224,192,302924,1,0,0:0:0:0:
224,192,302979,1,8,0:0:0:0:
256,192,303146,1,4,0:0:0:0:
256,192,303313,1,0,0:0:0:0:
256,192,303479,1,8,0:0:0:0:
256,192,303646,1,0,0:0:0:0:
256,192,303729,1,8,0:0:0:0:
256,192,303896,1,8,0:0:0:0:
256,192,303979,1,0,0:0:0:0:
256,192,304063,1,0,0:0:0:0:
256,192,304146,1,8,0:0:0:0:
256,192,304313,1,0,0:0:0:0:
256,192,304479,1,8,0:0:0:0:
256,192,304563,1,8,0:0:0:0:
256,192,304646,1,0,0:0:0:0:
256,192,304729,1,0,0:0:0:0:
256,192,304813,1,8,0:0:0:0:
256,192,304979,1,8,0:0:0:0:
256,192,305146,1,0,0:0:0:0:
256,192,305229,1,0,0:0:0:0:
256,192,305313,1,8,0:0:0:0:
256,192,305396,1,0,0:0:0:0:
256,192,305479,1,8,0:0:0:0:
256,192,305646,1,8,0:0:0:0:
256,192,305813,1,0,0:0:0:0:
256,192,306146,1,8,0:0:0:0:
256,192,306313,1,0,0:0:0:0:
256,192,306396,1,0,0:0:0:0:
256,192,306479,1,8,0:0:0:0:
256,192,306646,1,0,0:0:0:0:
256,192,306813,1,8,0:0:0:0:
256,192,306896,1,8,0:0:0:0:
256,192,306979,1,0,0:0:0:0:
256,192,307063,1,8,0:0:0:0:
256,192,307146,1,0,0:0:0:0:
256,192,307313,1,0,0:0:0:0:
256,192,307479,1,8,0:0:0:0:
256,192,307646,1,0,0:0:0:0:
256,192,307729,1,0,0:0:0:0:
256,192,307813,1,8,0:0:0:0:
256,192,307979,1,8,0:0:0:0:
256,192,308063,1,0,0:0:0:0:
256,192,308146,1,8,0:0:0:0:
256,192,308479,1,0,0:0:0:0:
256,192,308646,1,0,0:0:0:0:
256,192,308813,1,8,0:0:0:0:
256,192,308896,1,8,0:0:0:0:
256,192,308979,1,0,0:0:0:0:
256,192,309063,1,8,0:0:0:0:
256,192,309229,1,8,0:0:0:0:
256,192,309313,1,0,0:0:0:0:
256,192,309479,1,8,0:0:0:0:
256,192,309646,1,0,0:0:0:0:
256,192,309729,1,0,0:0:0:0:
256,192,309812,1,8,0:0:0:0:
256,192,309979,1,0,0:0:0:0:
256,192,310146,1,8,0:0:0:0:
256,192,310229,1,8,0:0:0:0:
256,192,310312,1,0,0:0:0:0:
256,192,310479,1,0,0:0:0:0:
256,192,310646,1,8,0:0:0:0:
256,192,310729,1,0,0:0:0:0:
256,192,310812,1,8,0:0:0:0:
256,192,310979,1,0,0:0:0:0:
256,192,311146,1,8,0:0:0:0:
256,192,311229,1,8,0:0:0:0:
256,192,311312,1,8,0:0:0:0:
256,192,311396,1,0,0:0:0:0:
256,192,311479,1,8,0:0:0:0:
256,192,311646,1,8,0:0:0:0:
256,192,311812,1,0,0:0:0:0:
256,192,311979,1,0,0:0:0:0:
256,192,312062,1,0,0:0:0:0:
256,192,312146,1,8,0:0:0:0:
256,192,312312,1,8,0:0:0:0:
256,192,312479,1,4,0:0:0:0:
256,192,312646,1,8,0:0:0:0:
256,192,312729,1,0,0:0:0:0:
256,192,312812,1,8,0:0:0:0:
256,192,312896,1,8,0:0:0:0:
256,192,312979,1,0,0:0:0:0:
256,192,313062,1,8,0:0:0:0:
256,192,313146,1,8,0:0:0:0:
256,192,313229,1,8,0:0:0:0:
256,192,313312,1,0,0:0:0:0:
256,192,313479,1,12,0:0:0:0:
256,192,313812,1,4,0:0:0:0:
256,192,313979,1,0,0:0:0:0:
256,192,314062,1,0,0:0:0:0:
256,192,314146,1,8,0:0:0:0:
256,192,314312,1,8,0:0:0:0:
256,192,314479,1,0,0:0:0:0:
256,192,314562,1,0,0:0:0:0:
256,192,314646,1,8,0:0:0:0:
256,192,314729,1,0,0:0:0:0:
256,192,314812,1,8,0:0:0:0:
256,192,314979,1,0,0:0:0:0:
256,192,315146,1,8,0:0:0:0:
256,192,315229,1,8,0:0:0:0:
256,192,315312,1,0,0:0:0:0:
256,192,315479,1,8,0:0:0:0:
256,192,315646,1,0,0:0:0:0:
256,192,315729,1,8,0:0:0:0:
256,192,315812,1,0,0:0:0:0:
256,192,315979,1,8,0:0:0:0:
256,192,316146,1,8,0:0:0:0:
256,192,316229,1,8,0:0:0:0:
256,192,316312,1,0,0:0:0:0:
256,192,316396,1,0,0:0:0:0:
256,192,316479,1,8,0:0:0:0:
256,192,316812,1,8,0:0:0:0:
256,192,316979,1,0,0:0:0:0:
256,192,317062,1,8,0:0:0:0:
256,192,317146,1,0,0:0:0:0:
256,192,317229,1,0,0:0:0:0:
256,192,317312,1,8,0:0:0:0:
256,192,317479,1,8,0:0:0:0:
256,192,317646,1,0,0:0:0:0:
256,192,317729,1,0,0:0:0:0:
256,192,317812,1,8,0:0:0:0:
256,192,317979,1,0,0:0:0:0:
256,192,318146,1,8,0:0:0:0:
256,192,318229,1,8,0:0:0:0:
256,192,318312,1,0,0:0:0:0:
256,192,318396,1,0,0:0:0:0:
256,192,318479,1,8,0:0:0:0:
256,192,318646,1,8,0:0:0:0:
256,192,318729,1,0,0:0:0:0:
256,192,318812,1,8,0:0:0:0:
256,192,319146,1,4,0:0:0:0:
256,192,319312,1,0,0:0:0:0:
256,192,319479,1,8,0:0:0:0:
256,192,319646,1,8,0:0:0:0:
256,192,319729,1,8,0:0:0:0:
256,192,319812,1,0,0:0:0:0:
256,192,319979,1,0,0:0:0:0:
256,192,320146,1,8,0:0:0:0:
256,192,320229,1,0,0:0:0:0:
256,192,320312,1,8,0:0:0:0:
256,192,320479,1,4,0:0:0:0:
256,192,320646,1,0,0:0:0:0:
256,192,320812,1,8,0:0:0:0:
256,192,320896,1,8,0:0:0:0:
256,192,320979,1,0,0:0:0:0:
256,192,321062,1,0,0:0:0:0:
256,192,321146,1,8,0:0:0:0:
256,192,321229,1,0,0:0:0:0:
256,192,321312,1,8,0:0:0:0:
256,192,321396,1,8,0:0:0:0:
256,192,321479,1,0,0:0:0:0:
256,192,321535,1,0,0:0:0:0:
256,192,321590,1,0,0:0:0:0:
256,192,321646,1,8,0:0:0:0:
256,192,321812,1,4,0:0:0:0:
256,192,322479,1,4,0:0:0:0:
256,192,322979,1,12,0:0:0:0:
256,192,323312,1,12,0:0:0:0:
256,192,323646,1,12,0:0:0:0:
256,192,323812,1,12,0:0:0:0:
256,192,323979,1,0,0:0:0:0:
256,192,324062,1,8,0:0:0:0:
256,192,324146,1,0,0:0:0:0:
256,192,324312,1,12,0:0:0:0:
256,192,324646,1,12,0:0:0:0:
256,192,324979,1,12,0:0:0:0:
256,192,325146,1,12,0:0:0:0:
256,192,325312,1,0,0:0:0:0:
256,192,325396,1,0,0:0:0:0:
256,192,325479,1,8,0:0:0:0:
256,192,325813,1,4,0:0:0:0:
256,192,326146,1,8,0:0:0:0:
256,192,326313,1,8,0:0:0:0:
256,192,326479,1,0,0:0:0:0:
256,192,326646,1,0,0:0:0:0:
256,192,326729,1,0,0:0:0:0:
256,192,326813,1,8,0:0:0:0:
256,192,326979,1,0,0:0:0:0:
256,192,327146,1,8,0:0:0:0:
256,192,327229,1,8,0:0:0:0:
256,192,327313,1,0,0:0:0:0:
256,192,327479,1,8,0:0:0:0:
256,192,327646,1,8,0:0:0:0:
256,192,327813,1,0,0:0:0:0:
256,192,327979,1,8,0:0:0:0:
256,192,328063,1,0,0:0:0:0:
256,192,328146,1,8,0:0:0:0:
256,192,328313,1,8,0:0:0:0:
256,192,328479,1,0,0:0:0:0:
256,192,328813,1,8,0:0:0:0:
256,192,328979,1,0,0:0:0:0:
256,192,329146,1,8,0:0:0:0:
256,192,329229,1,8,0:0:0:0:
256,192,329313,1,0,0:0:0:0:
256,192,329479,1,8,0:0:0:0:
256,192,329646,1,0,0:0:0:0:
256,192,329729,1,0,0:0:0:0:
256,192,329813,1,8,0:0:0:0:
256,192,329979,1,0,0:0:0:0:
256,192,330146,1,8,0:0:0:0:
256,192,330229,1,8,0:0:0:0:
256,192,330313,1,0,0:0:0:0:
256,192,330396,1,0,0:0:0:0:
256,192,330479,1,8,0:0:0:0:
256,192,330646,1,0,0:0:0:0:
256,192,330813,1,8,0:0:0:0:
256,192,330896,1,8,0:0:0:0:
256,192,330979,1,8,0:0:0:0:
256,192,331146,1,0,0:0:0:0:
256,192,331479,1,8,0:0:0:0:
256,192,331646,1,8,0:0:0:0:
256,192,331813,1,0,0:0:0:0:
256,192,331979,1,8,0:0:0:0:
256,192,332063,1,0,0:0:0:0:
256,192,332146,1,8,0:0:0:0:
256,192,332313,1,8,0:0:0:0:
256,192,332479,1,0,0:0:0:0:
256,192,332563,1,0,0:0:0:0:
256,192,332646,1,0,0:0:0:0:
256,192,332813,1,8,0:0:0:0:
256,192,332979,1,0,0:0:0:0:
256,192,333063,1,0,0:0:0:0:
256,192,333146,1,8,0:0:0:0:
256,192,333229,1,8,0:0:0:0:
256,192,333313,1,0,0:0:0:0:
256,192,333479,1,8,0:0:0:0:
256,192,333646,1,0,0:0:0:0:
256,192,333729,1,0,0:0:0:0:
256,192,333813,1,8,0:0:0:0:
256,192,333979,1,0,0:0:0:0:
256,192,334146,1,8,0:0:0:0:
256,192,334313,1,0,0:0:0:0:
256,192,334396,1,8,0:0:0:0:
256,192,334479,1,0,0:0:0:0:
256,192,334646,1,0,0:0:0:0:
256,192,334813,1,8,0:0:0:0:
256,192,334979,1,8,0:0:0:0:
256,192,335146,1,4,0:0:0:0:
256,192,335479,1,8,0:0:0:0:
256,192,335646,1,8,0:0:0:0:
256,192,335813,1,0,0:0:0:0:
256,192,335896,1,0,0:0:0:0:
256,192,335979,1,0,0:0:0:0:
256,192,336146,1,12,0:0:0:0:
256,192,336313,1,0,0:0:0:0:
256,192,336368,1,0,0:0:0:0:
256,192,336424,1,0,0:0:0:0:
256,192,336479,1,8,0:0:0:0:
256,192,336813,1,8,0:0:0:0:
256,192,336979,1,8,0:0:0:0:
256,192,337146,1,0,0:0:0:0:
256,192,337229,1,0,0:0:0:0:
256,192,337313,1,0,0:0:0:0:
256,192,337479,1,8,0:0:0:0:
256,192,337646,1,0,0:0:0:0:
256,192,337729,1,0,0:0:0:0:
256,192,337813,1,8,0:0:0:0:
256,192,337896,1,8,0:0:0:0:
256,192,337979,1,0,0:0:0:0:
256,192,338146,1,8,0:0:0:0:
256,192,338313,1,0,0:0:0:0:
256,192,338396,1,0,0:0:0:0:
256,192,338479,1,8,0:0:0:0:
256,192,338646,1,0,0:0:0:0:
256,192,338813,1,8,0:0:0:0:
256,192,338979,1,0,0:0:0:0:
256,192,339035,1,0,0:0:0:0:
256,192,339090,1,0,0:0:0:0:
256,192,339146,1,8,0:0:0:0:
256,192,339479,1,8,0:0:0:0:
256,192,339646,1,0,0:0:0:0:
256,192,339813,1,8,0:0:0:0:
256,192,339896,1,8,0:0:0:0:
256,192,339979,1,0,0:0:0:0:
256,192,340146,1,8,0:0:0:0:
256,192,340313,1,0,0:0:0:0:
256,192,340396,1,8,0:0:0:0:
256,192,340479,1,0,0:0:0:0:
256,192,340646,1,0,0:0:0:0:
256,192,340813,1,8,0:0:0:0:
256,192,340896,1,8,0:0:0:0:
256,192,340979,1,0,0:0:0:0:
256,192,341063,1,0,0:0:0:0:
256,192,341146,1,8,0:0:0:0:
256,192,341313,1,0,0:0:0:0:
256,192,341479,1,8,0:0:0:0:
256,192,341646,1,0,0:0:0:0:
256,192,341701,1,0,0:0:0:0:
256,192,341757,1,0,0:0:0:0:
256,192,341813,1,8,0:0:0:0:
256,192,341979,1,0,0:0:0:0:
256,192,342146,1,8,0:0:0:0:
256,192,342313,1,0,0:0:0:0:
256,192,342396,1,0,0:0:0:0:
256,192,342479,1,8,0:0:0:0:
256,192,342646,1,0,0:0:0:0:
256,192,342813,1,8,0:0:0:0:
256,192,342979,1,0,0:0:0:0:
256,192,343035,1,0,0:0:0:0:
256,192,343090,1,0,0:0:0:0:
256,192,343146,1,8,0:0:0:0:
256,192,343313,1,0,0:0:0:0:
256,192,343479,1,8,0:0:0:0:
256,192,343646,1,0,0:0:0:0:
256,192,343729,1,0,0:0:0:0:
256,192,343813,1,8,0:0:0:0:
256,192,343896,1,8,0:0:0:0:
256,192,343979,1,0,0:0:0:0:
256,192,344146,1,8,0:0:0:0:
256,192,344313,1,0,0:0:0:0:
256,192,344368,1,0,0:0:0:0:
256,192,344424,1,0,0:0:0:0:
256,192,344479,1,8,0:0:0:0:
256,192,344563,1,8,0:0:0:0:
256,192,344646,1,0,0:0:0:0:
256,192,344729,1,0,0:0:0:0:
256,192,344813,1,8,0:0:0:0:
256,192,344896,1,0,0:0:0:0:
256,192,344979,1,8,0:0:0:0:
256,192,345063,1,0,0:0:0:0:
256,192,345146,1,8,0:0:0:0:
256,192,345229,1,8,0:0:0:0:
256,192,345313,1,0,0:0:0:0:
256,192,345396,1,0,0:0:0:0:
256,192,345479,1,8,0:0:0:0:
256,192,345535,1,8,0:0:0:0:
256,192,345590,1,8,0:0:0:0:
256,192,345646,1,0,0:0:0:0:
256,192,345729,1,8,0:0:0:0:
256,192,345813,1,0,0:0:0:0:
256,192,346479,1,8,0:0:0:0:
256,192,346646,1,0,0:0:0:0:
256,192,346813,1,12,0:0:0:0:
256,192,347146,1,4,0:0:0:0:
256,192,347479,1,8,0:0:0:0:
256,192,347813,1,0,0:0:0:0:
256,192,347979,1,0,0:0:0:0:
256,192,348146,1,8,0:0:0:0:
256,192,348479,1,8,0:0:0:0:
256,192,348646,1,8,0:0:0:0:
256,192,348813,1,0,0:0:0:0:
256,192,348979,1,0,0:0:0:0:
256,192,349146,1,8,0:0:0:0:
256,192,349479,1,8,0:0:0:0:
256,192,349646,1,8,0:0:0:0:
256,192,349813,1,0,0:0:0:0:
256,192,350146,1,8,0:0:0:0:
256,192,350479,1,0,0:0:0:0:
256,192,350646,1,0,0:0:0:0:
256,192,350813,1,8,0:0:0:0:
256,192,351146,1,8,0:0:0:0:
256,192,351313,1,8,0:0:0:0:
256,192,351479,1,0,0:0:0:0:
256,192,351646,1,0,0:0:0:0:
256,192,351813,1,8,0:0:0:0:
256,192,352146,1,8,0:0:0:0:
256,192,352313,1,8,0:0:0:0:
256,192,352479,1,0,0:0:0:0:
256,192,352813,1,8,0:0:0:0:
256,192,353146,1,0,0:0:0:0:
256,192,353313,1,0,0:0:0:0:
256,192,353479,1,8,0:0:0:0:
256,192,353812,1,8,0:0:0:0:
256,192,353979,1,8,0:0:0:0:
256,192,354146,1,0,0:0:0:0:
256,192,354312,1,0,0:0:0:0:
256,192,354479,1,8,0:0:0:0:
256,192,354812,1,8,0:0:0:0:
256,192,354979,1,8,0:0:0:0:
256,192,355146,1,0,0:0:0:0:
256,192,355479,1,8,0:0:0:0:
256,192,355812,1,0,0:0:0:0:
256,192,355979,1,0,0:0:0:0:
256,192,356146,1,8,0:0:0:0:
256,192,356479,1,8,0:0:0:0:
256,192,356646,1,8,0:0:0:0:
256,192,356812,1,0,0:0:0:0:
256,192,356979,1,0,0:0:0:0:
256,192,357146,1,8,0:0:0:0:
256,192,357229,1,8,0:0:0:0:
256,192,357312,1,8,0:0:0:0:
256,192,357479,1,8,0:0:0:0:
256,192,357646,1,8,0:0:0:0:
256,192,357812,1,4,0:0:0:0:
256,192,358146,1,8,0:0:0:0:
256,192,358479,1,8,0:0:0:0:
256,192,358812,1,8,0:0:0:0:
256,192,359146,1,8,0:0:0:0:
256,192,359479,1,8,0:0:0:0:
256,192,359812,1,8,0:0:0:0:
256,192,360146,1,8,0:0:0:0:
256,192,360312,1,8,0:0:0:0:
256,192,360479,1,8,0:0:0:0:
256,192,360812,1,8,0:0:0:0:
256,192,361146,1,8,0:0:0:0:
256,192,361479,1,8,0:0:0:0:
256,192,361812,1,8,0:0:0:0:
256,192,362146,1,8,0:0:0:0:
256,192,362479,1,8,0:0:0:0:
256,192,362562,1,8,0:0:0:0:
256,192,362646,1,8,0:0:0:0:
256,192,362812,1,8,0:0:0:0:
256,192,362979,1,8,0:0:0:0:
256,192,363146,1,4,0:0:0:0:
256,192,363312,1,0,0:0:0:0:
256,192,363479,1,8,0:0:0:0:
256,192,363562,1,8,0:0:0:0:
256,192,363646,1,0,0:0:0:0:
256,192,363812,1,8,0:0:0:0:
256,192,363979,1,0,0:0:0:0:
256,192,364062,1,0,0:0:0:0:
256,192,364146,1,8,0:0:0:0:
256,192,364312,1,8,0:0:0:0:
256,192,364479,1,4,0:0:0:0:
256,192,364646,1,0,0:0:0:0:
256,192,364812,1,8,0:0:0:0:
256,192,364896,1,8,0:0:0:0:
256,192,364979,1,0,0:0:0:0:
256,192,365062,1,0,0:0:0:0:
256,192,365146,1,8,0:0:0:0:
256,192,365312,1,0,0:0:0:0:
256,192,365479,1,8,0:0:0:0:
256,192,365562,1,0,0:0:0:0:
256,192,365646,1,8,0:0:0:0:
256,192,365812,1,4,0:0:0:0:
256,192,365979,1,0,0:0:0:0:
256,192,366146,1,8,0:0:0:0:
256,192,366229,1,8,0:0:0:0:
256,192,366312,1,8,0:0:0:0:
256,192,366479,1,4,0:0:0:0:
256,192,366646,1,0,0:0:0:0:
256,192,366812,1,8,0:0:0:0:
256,192,366868,1,8,0:0:0:0:
256,192,366924,1,8,0:0:0:0:
256,192,366979,1,8,0:0:0:0:
256,192,367146,1,4,0:0:0:0:
256,192,367479,1,8,0:0:0:0:
256,192,367646,1,0,0:0:0:0:
256,192,367812,1,8,0:0:0:0:
256,192,367896,1,8,0:0:0:0:
256,192,367979,1,0,0:0:0:0:
256,192,368062,1,0,0:0:0:0:
256,192,368146,1,8,0:0:0:0:
256,192,368312,1,8,0:0:0:0:
256,192,368479,1,4,0:0:0:0:
