osu file format v14

[General]
AudioFilename: audio.mp3
AudioLeadIn: 0
PreviewTime: 55268
Countdown: 0
SampleSet: Soft
StackLeniency: 0.4
Mode: 0
LetterboxInBreaks: 0
WidescreenStoryboard: 1

[Editor]
Bookmarks: 760,8628,19120,29612,40104,55841,76825,88300
DistanceSpacing: 1
BeatDivisor: 4
GridSize: 32
TimelineZoom: 1.9

[Metadata]
Title:Himegoto*Crisisters (TV Size)
TitleUnicode:ひめごと*クライシスターズ (TV Size)
Artist:ONIMAI SISTERS
ArtistUnicode:ONIMAI SISTERS
Creator:-Yua
Version:Kirishima-'s Nor*mal
Source:お兄ちゃんはおしまい!
Tags:anime japanese pop jpop j-pop ending ed oniichan wa oshimai i'm now your sister! おにまい onimai onii-chan もみじ momiji みはり mihari 高野麻里佳 kouno marika 石原夏織 ishihara kaori 金元寿子 kanemoto hisako 津田美波 tsuda minami 緒山まひろ mahiro oyama 穂月かえで hoduki kaede yua Malphs Kirishima- MeAqua tete Present Onloong yf yf_bmp wen
BeatmapID:4002824
BeatmapSetID:1911312

[Difficulty]
HPDrainRate:3
CircleSize:3
OverallDifficulty:4
ApproachRate:5.5
SliderMultiplier:1
SliderTickRate:1

[Events]
//Background and Video events
Video,135,"ED.mp4"
0,0,"BG.jpg",0,0
//Break Periods
//Storyboard Layer 0 (Background)
//Storyboard Layer 1 (Fail)
//Storyboard Layer 2 (Pass)
//Storyboard Layer 3 (Foreground)
//Storyboard Layer 4 (Overlay)
//Storyboard Sound Samples

[TimingPoints]
760,327.868852459016,4,2,1,40,1,0
760,-100,4,2,1,40,0,0
6005,-100,4,2,1,50,0,0
8300,-100,4,2,1,60,0,0
8628,-100,4,2,1,60,0,0
13874,-100,4,2,1,80,0,0
19120,-100,4,2,1,50,0,0
29612,-100,4,2,1,55,0,0
40104,-100,4,2,1,65,0,1
45350,-100,4,2,1,55,0,0
55841,-100,4,2,1,70,0,1
66005,-100,4,2,1,60,0,1
66333,-100,4,2,1,70,0,0
66661,-100,4,2,1,70,0,1
76497,-100,4,2,1,60,0,1
76825,-100,4,2,1,60,0,0
84694,-100,4,2,1,50,0,0
88300,-100,4,2,1,50,0,0

[Colours]
Combo1 : 129,129,129
Combo2 : 241,234,224
Combo3 : 255,204,230

[HitObjects]
75,30,5514,6,0,L|26:17,2,50,2|0|2,0:0|0:0|0:0,0:0:0:0:
123,42,6005,2,0,L|149:138,1,100,10|2,0:0|0:0,0:0:0:0:
80,212,6661,1,8,0:0:0:0:
80,212,6825,1,2,0:0:0:0:
125,301,7153,2,0,L|221:327,1,100,10|10,0:0|0:0,0:0:0:0:
247,370,7645,2,0,L|295:357,1,50,2|10,0:0|0:0,0:0:0:0:
344,345,7973,1,2,1:2:0:0:
419,280,8300,1,2,0:0:0:0:
385,185,8628,6,0,L|398:137,1,50,6|2,1:0|0:0,0:0:0:0:
413,88,8956,1,10,0:0:0:0:
336,23,9284,2,0,P|286:22|244:47,1,100,2|10,1:2|0:0,0:0:0:0:
179,124,9940,2,0,L|192:172,1,50,2|2,1:2|0:0,0:0:0:0:
207,220,10268,2,0,P|249:245|298:244,1,100,10|6,0:0|0:3,0:0:0:0:
352,239,10759,1,10,0:1:0:0:
352,239,10923,1,10,0:1:0:0:
438,289,11251,6,0,L|451:241,1,50,2|2,1:2|0:0,0:0:0:0:
493,213,11579,1,10,0:0:0:0:
499,113,11907,2,0,L|470:11,1,100,2|10,1:2|0:0,0:0:0:0:
385,65,12563,1,2,1:2:0:0:
385,65,12727,2,0,L|288:39,1,100,2|2,0:0|0:0,0:0:0:0:
201,84,13382,1,10,0:1:0:0:
201,84,13546,1,10,0:1:0:0:
211,183,13874,6,0,L|139:202,2,75,10|10|10,0:0|0:0|0:0,0:0:0:0:
309,220,14694,1,0,1:2:0:0:
309,220,14858,2,0,L|381:239,2,75,8|8|10,0:0|0:0|0:0,0:0:0:0:
235,288,15678,1,8,0:0:0:0:
235,288,15841,2,0,L|186:301,1,50,8|2,0:0|0:0,0:0:0:0:
160,344,16169,2,0,L|111:331,1,50,10|2,0:0|1:2,0:0:0:0:
67,307,16497,6,0,L|52:232,1,75,12|14,0:0|0:0,0:0:0:0:
22,164,16989,2,0,L|37:89,1,75,12|12,0:0|0:0,0:0:0:0:
87,35,17481,1,8,0:0:0:0:
171,89,17809,2,0,P|213:64|262:64,1,100,8|8,0:0|0:0,0:0:0:0:
344,122,18464,2,0,L|393:109,2,50,8|8|10,0:0|0:0|0:0,0:0:0:0:
327,220,19120,5,0,1:2:0:0:
228,239,19448,1,2,1:2:0:0:
167,159,19776,2,0,L|193:62,1,100,2|2,1:2|1:2,0:0:0:0:
290,38,20432,1,2,1:2:0:0:
344,122,20759,2,0,L|441:96,1,100,2|0,1:2|1:2,0:0:0:0:
510,167,21415,2,0,L|497:215,1,50,2|2,1:2|1:2,0:0:0:0:
482,263,21743,6,0,P|439:288|390:287,1,100,2|2,1:2|1:2,0:0:0:0:
298,247,22399,2,0,L|278:174,2,75,0|2|2,1:2|0:0|0:0,0:0:0:0:
231,322,23219,1,2,0:0:0:0:
231,322,23382,2,0,P|181:321|139:346,1,100,2|2,1:2|1:2,0:0:0:0:
51,298,24038,2,0,L|64:250,1,50,2|2,1:2|0:0,0:0:0:0:
82,202,24366,5,2,1:2:0:0:
11,130,24694,1,2,1:2:0:0:
57,41,25022,2,0,L|154:15,1,100,2|0,1:2|1:2,0:0:0:0:
234,74,25678,1,2,1:2:0:0:
205,169,26005,2,0,L|179:266,1,100,2|0,1:2|1:2,0:0:0:0:
253,333,26661,2,0,L|301:320,1,50,2|2,1:2|0:0,0:0:0:0:
349,307,26989,6,0,P|374:265|374:216,1,100,2|2,1:2|1:2,0:0:0:0:
437,137,27645,2,0,L|510:157,2,75,0|2|2,1:2|0:0|1:2,0:0:0:0:
441,141,29120,1,10,0:0:0:0:
441,141,29284,2,0,L|393:129,1,50,10|10,0:0|0:0,0:0:0:0:
369,83,29612,6,0,L|272:109,1,100,6|10,1:0|0:0,0:0:0:0:
175,81,30268,2,0,L|149:178,1,100,2|10,1:2|0:0,0:0:0:0:
136,225,30759,1,2,0:0:0:0:
181,314,31087,1,2,3:2:0:0:
283,296,31415,1,2,0:0:0:0:
283,296,31579,2,0,L|331:283,1,50,2|0,1:2|1:2,0:0:0:0:
380,274,31907,1,10,0:0:0:0:
464,218,32235,6,0,P|464:168|439:126,1,100,2|10,1:2|0:0,0:0:0:0:
359,64,32891,1,2,1:2:0:0:
278,120,33219,1,10,0:0:0:0:
278,120,33382,2,0,P|228:120|186:95,1,100,2|2,0:0|3:2,0:0:0:0:
157,53,33874,1,10,0:0:0:0:
59,74,34202,2,0,L|47:122,1,50,2|0,1:2|1:2,0:0:0:0:
34,171,34530,1,10,0:0:0:0:
110,235,34858,6,0,L|136:332,1,100,2|10,1:2|0:0,0:0:0:0:
235,343,35514,2,0,P|277:368|326:368,1,100,0|10,1:2|0:0,0:0:0:0:
376,358,36005,2,0,L|402:261,1,100,2|2,0:0|3:2,0:0:0:0:
413,212,36497,1,10,0:0:0:0:
325,163,36825,2,0,L|277:175,1,50,0|0,1:2|1:2,0:0:0:0:
255,220,37153,2,0,L|207:208,1,50,10|2,0:0|0:0,0:0:0:0:
158,222,37481,6,0,P|132:179|133:130,1,100,2|10,1:2|0:0,0:0:0:0:
216,75,38137,2,0,L|204:27,2,50,2|8|8,1:2|0:0|0:0,0:0:0:0:
258,101,38628,1,2,1:2:0:0:
332,33,38956,1,2,3:2:0:0:
332,33,39120,2,0,P|383:29|430:57,1,100,8|10,0:0|0:0,0:0:0:0:
463,90,39612,1,8,0:1:0:0:
463,90,39776,1,10,0:1:0:0:
469,190,40104,6,0,L|443:287,1,100,6|10,1:0|0:0,0:0:0:0:
345,310,40759,2,0,L|297:322,1,50,10|0,0:0|1:2,0:0:0:0:
271,365,41087,2,0,L|223:353,1,50,10|0,0:0|1:2,0:0:0:0:
174,337,41415,2,0,L|148:240,1,100,10|10,0:0|0:0,0:0:0:0:
141,195,41907,1,2,0:0:0:0:
141,195,42071,1,10,0:0:0:0:
52,149,42399,2,0,L|64:101,1,50,10|0,0:0|1:2,0:0:0:0:
80,53,42727,6,0,P|122:28|171:28,1,100,10|10,0:0|0:0,0:0:0:0:
268,55,43382,2,0,L|280:103,1,50,10|0,0:0|1:2,0:0:0:0:
323,129,43710,2,0,L|311:177,1,50,10|0,0:0|1:2,0:0:0:0:
292,224,44038,2,0,P|250:249|201:249,1,100,10|10,0:0|0:0,0:0:0:0:
157,233,44530,1,2,1:2:0:0:
157,233,44694,1,10,0:0:0:0:
92,156,45022,2,0,L|104:108,1,50,8|8,0:0|0:0,0:0:0:0:
118,59,45350,6,0,L|215:33,1,100,2|2,1:2|1:2,0:0:0:0:
313,50,46005,1,2,1:2:0:0:
343,145,46333,1,2,1:2:0:0:
266,209,46661,2,0,L|240:306,1,100,2|0,1:2|1:2,0:0:0:0:
230,358,47153,1,10,0:0:0:0:
230,358,47317,1,2,1:2:0:0:
326,382,47645,2,0,L|374:370,1,50,10|10,0:0|0:0,0:0:0:0:
423,358,47973,6,0,P|448:315|448:266,1,100,6|8,0:0|0:0,0:0:0:0:
438,222,48464,1,2,0:0:0:0:
438,222,48628,2,0,L|342:197,1,100,8|8,0:0|0:0,0:0:0:0:
315,99,49284,1,10,0:0:0:0:
218,73,49612,1,8,0:0:0:0:
141,137,49940,2,0,L|129:185,1,50,10|8,0:0|0:0,0:0:0:0:
83,207,50268,2,0,L|95:255,1,50,10|8,1:2|1:2,0:0:0:0:
111,303,50596,6,0,P|153:328|202:328,1,100,6|0,1:0|1:2,0:0:0:0:
255,320,51087,1,2,3:2:0:0:
255,320,51251,1,2,1:2:0:0:
330,254,51579,1,0,1:2:0:0:
330,254,51743,2,0,P|372:229|421:229,1,100,2|2,0:0|3:2,0:0:0:0:
494,160,52399,1,8,1:2:0:0:
447,78,52727,1,8,1:2:0:0:
447,78,52891,2,0,L|398:65,1,50,8|8,1:2|1:2,0:0:0:0:
378,18,53219,6,0,L|281:44,1,100,10|10,1:2|0:0,0:0:0:0:
190,16,53874,1,10,0:0:0:0:
190,16,54038,1,10,0:0:0:0:
116,84,54366,1,10,0:0:0:0:
232,177,54858,2,0,L|206:274,1,100,14|0,0:0|0:0,0:0:0:0:
182,320,55350,1,10,0:0:0:0:
182,320,55514,2,0,L|134:333,1,50,10|10,0:0|0:0,0:0:0:0:
86,349,55841,5,6,1:0:0:0:
1,297,56169,1,10,0:0:0:0:
50,210,56497,2,0,L|63:161,1,50,2|10,1:2|0:1,0:0:0:0:
82,117,56825,1,10,0:1:0:0:
82,117,56989,2,0,P|124:92|173:92,1,100,2|0,0:0|0:0,0:0:0:0:
222,106,57481,1,10,0:0:0:0:
285,28,57809,2,0,L|334:41,1,50,2|10,1:2|0:1,0:0:0:0:
381,52,58137,1,10,0:1:0:0:
457,115,58464,5,2,1:2:0:0:
435,212,58792,1,10,0:0:0:0:
338,238,59120,2,0,L|290:251,1,50,2|0,1:2|0:0,0:0:0:0:
264,296,59448,1,10,0:0:0:0:
264,296,59612,2,0,L|167:270,1,100,2|0,0:0|0:0,0:0:0:0:
118,257,60104,2,0,L|105:208,1,50,10|0,0:0|0:0,0:0:0:0:
62,182,60432,2,0,L|75:133,1,50,2|8,1:2|0:1,0:0:0:0:
90,86,60759,1,10,0:1:0:0:
177,134,61087,6,0,P|226:134|268:109,1,100,2|10,1:2|0:0,0:0:0:0:
302,71,61579,1,2,0:0:0:0:
395,119,61907,1,2,0:0:0:0:
395,119,62071,2,0,L|408:167,1,50,10|2,0:0|0:0,0:0:0:0:
452,190,62399,2,0,L|439:238,1,50,2|2,1:2|0:0,0:0:0:0:
428,290,62727,1,10,0:0:0:0:
428,290,62891,2,0,P|385:315|336:314,1,100,2|0,0:0|0:0,0:0:0:0:
288,300,63382,1,10,0:0:0:0:
206,358,63710,5,6,1:2:0:0:
117,311,64038,1,10,0:0:0:0:
123,211,64366,2,0,L|171:198,1,50,2|0,1:2|0:0,0:0:0:0:
194,153,64694,2,0,L|242:166,1,50,10|0,0:0|0:0,0:0:0:0:
290,179,65022,2,0,L|315:275,1,100,10|8,0:0|0:0,0:0:0:0:
330,328,65514,1,2,0:0:0:0:
330,328,65678,2,0,P|372:353|421:353,1,100,10|8,0:0|1:2,0:0:0:0:
481,273,66333,6,0,L|494:225,1,50,2|0,1:2|1:2,0:0:0:0:
509,176,66661,1,14,0:0:0:0:
416,137,66989,2,0,L|403:88,1,50,2|10,1:2|0:1,0:0:0:0:
395,43,67317,1,10,0:1:0:0:
395,43,67481,2,0,L|299:17,1,100,2|0,1:2|0:0,0:0:0:0:
249,4,67973,1,10,0:0:0:0:
196,89,68301,2,0,L|147:102,1,50,2|10,1:2|0:1,0:0:0:0:
99,115,68629,1,10,0:1:0:0:
42,197,68956,5,2,1:2:0:0:
88,285,69284,1,10,0:0:0:0:
187,294,69612,2,0,L|235:281,1,50,2|0,1:2|0:0,0:0:0:0:
288,272,69940,1,10,0:0:0:0:
288,272,70104,2,0,P|313:230|313:181,1,100,2|0,0:0|0:0,0:0:0:0:
303,130,70596,2,0,L|254:117,1,50,10|2,0:0|0:0,0:0:0:0:
237,69,70924,2,0,L|188:82,1,50,2|10,1:2|0:1,0:0:0:0:
141,99,71251,1,10,0:1:0:0:
77,176,71579,6,0,L|103:272,1,100,6|10,1:0|0:0,0:0:0:0:
118,320,72071,1,2,0:0:0:0:
214,291,72399,2,0,L|310:317,1,100,2|2,1:2|0:0,0:0:0:0:
332,362,72891,2,0,L|380:349,1,50,10|10,0:0|0:0,0:0:0:0:
433,342,73219,1,10,0:0:0:0:
433,342,73382,2,0,P|458:300|458:251,1,100,10|0,0:0|1:2,0:0:0:0:
442,202,73874,1,10,0:0:0:0:
371,130,74202,6,0,L|323:117,1,50,8|0,0:0|1:2,0:0:0:0:
273,104,74530,1,14,0:0:0:0:
201,174,74858,2,0,L|153:187,1,50,2|0,1:2|1:2,0:0:0:0:
129,231,75186,2,0,L|81:218,1,50,14|0,0:0|0:0,0:0:0:0:
32,203,75514,2,0,L|6:106,1,100,10|8,0:0|0:0,0:0:0:0:
79,38,76169,2,0,L|176:64,1,100,10|8,0:0|1:2,0:0:0:0:
206,159,76825,6,0,L|219:207,1,50,6|2,1:0|1:2,0:0:0:0:
238,259,77153,1,10,0:0:0:0:
238,259,77317,2,0,P|280:284|329:284,1,100,2|2,1:2|1:2,0:0:0:0:
383,280,77809,1,10,0:0:0:0:
383,280,77973,1,6,1:2:0:0:
436,195,78300,2,0,L|423:147,1,50,2|10,1:2|0:0,0:0:0:0:
410,97,78628,2,0,P|368:72|319:72,1,100,2|8,1:2|0:1,0:0:0:0:
272,93,79120,1,8,0:1:0:0:
176,64,79448,6,0,L|128:77,1,50,4|0,1:0|1:2,0:0:0:0:
84,98,79776,1,8,0:0:0:0:
84,98,79940,2,0,L|58:195,1,100,0|0,1:2|1:2,0:0:0:0:
132,261,80596,2,0,L|229:235,1,100,4|0,1:0|1:2,0:0:0:0:
277,224,81087,1,10,0:0:0:0:
334,141,81415,1,10,0:0:0:0:
432,160,81743,1,10,0:0:0:0:
464,254,82071,6,0,L|451:302,1,50,6|2,1:0|1:2,0:0:0:0:
440,354,82399,1,10,0:0:0:0:
440,354,82563,2,0,P|398:379|349:379,1,100,2|2,1:2|1:2,0:0:0:0:
304,366,83055,1,10,0:0:0:0:
304,366,83219,1,6,1:2:0:0:
250,281,83546,2,0,L|202:268,1,50,2|10,1:2|0:0,0:0:0:0:
152,256,83874,2,0,P|127:214|127:165,1,100,2|10,1:2|0:1,0:0:0:0:
144,116,84366,1,10,0:1:0:0:
221,53,84694,6,0,L|317:27,1,100,10|2,0:0|0:0,0:0:0:0:
419,9,85350,1,10,0:0:0:0:
419,9,85514,1,2,0:0:0:0:
461,99,85842,2,0,L|435:195,1,100,10|10,0:0|0:0,0:0:0:0:
417,242,86334,2,0,L|369:255,1,50,2|10,0:0|0:0,0:0:0:0:
323,269,86662,1,10,0:0:0:0:
323,269,86825,1,10,0:0:0:0:
262,189,87153,6,0,P|219:163|170:164,1,100,6|10,1:0|0:0,0:0:0:0:
123,182,87645,2,0,L|111:231,1,50,2|14,0:0|0:0,0:0:0:0:
100,279,87973,1,10,0:0:0:0:
12,326,88300,1,2,0:0:0:0:
