osu file format v14

[General]
AudioFilename: audio.ogg
AudioLeadIn: 0
PreviewTime: 55438
Countdown: 0
SampleSet: Normal
StackLeniency: 0.7
Mode: 1
LetterboxInBreaks: 0
WidescreenStoryboard: 0

[Editor]
DistanceSpacing: 1
BeatDivisor: 3
GridSize: 32
TimelineZoom: 2.799999

[Metadata]
Title:Himegoto*Crisisters (TV Size)
TitleUnicode:ひめごと*クライシスターズ (TV Size)
Artist:ONIMAI SISTERS
ArtistUnicode:ONIMAI SISTERS
Creator:komasy
Version:Muzukashii
Source:お兄ちゃんはおしまい!
Tags:おにまい Oniichan ha wa Oshimai! 高野麻里佳 Kouno Marika 石原夏織 Ishihara Kaori 金元寿子 Kanemoto Hisako 津田美波 Tsuda Minami PCCG.02194 Ver. Version Jpop J-pop pop Japanese Anime Electronic ed ending theme thema Onimai: I'm Now Your Sister!
BeatmapID:4262598
BeatmapSetID:2042726

[Difficulty]
HPDrainRate:6
CircleSize:7
OverallDifficulty:4.6
ApproachRate:10
SliderMultiplier:1.4
SliderTickRate:1

[Events]
//Background and Video events
0,0,"Muzukashii.jpg",0,70
Video,200,"onimaimai.mp4"
//Break Periods
//Storyboard Layer 0 (Background)
//Storyboard Layer 1 (Fail)
//Storyboard Layer 2 (Pass)
//Storyboard Layer 3 (Foreground)
//Storyboard Layer 4 (Overlay)
//Storyboard Sound Samples

[TimingPoints]
887,327.868852459016,4,1,0,30,1,0
887,-105.263157894737,4,1,0,30,0,0
5641,-100,4,1,0,80,0,0
8728,-90.909090909091,4,1,0,90,0,0
8755,-90.909090909091,4,1,0,90,0,1
19220,-100,4,1,0,70,0,1
19247,-100,4,1,0,70,0,0
29712,-100,4,1,0,80,0,0
55620,-96.774224765879,4,1,0,80,0,0
55784,-93.750058593787,4,1,0,80,0,0
55948,-90.909090909091,4,1,0,90,0,0
55968,-90.909090909091,4,1,0,90,0,1
66460,-90.909090909091,4,1,0,90,0,0
66788,-90.909090909091,4,1,0,90,0,1
75723,-92.592592592593,4,1,0,90,0,1
75886,-93.457943925234,4,1,0,90,0,1
76050,-94.339622641509,4,1,0,90,0,1
76214,-96.153846153846,4,1,0,90,0,1
76952,-100,4,1,0,80,0,0
84800,-100,4,1,0,80,0,0
85456,-99.90977360927,4,1,0,80,0,0
85948,-99.519589025901,4,1,0,80,0,0
86276,-98.983857704982,4,1,0,80,0,0
86604,-98.159509202454,4,1,0,80,0,0
86768,-97.623266397232,4,1,0,80,0,0
86932,-96.997218566485,4,1,0,80,0,0
87096,-96.277068713174,4,1,0,80,0,0
87259,-95.459448568057,4,1,0,80,0,0
87280,-95.459448568057,4,1,0,80,0,1
87587,-93.523424971558,4,1,0,80,0,1
87915,-91.183346520282,4,1,0,80,0,1
88079,-89.864891628675,4,1,0,80,0,1
88407,-86.95652173913,4,1,0,50,0,1
88427,-86.9565217391304,4,1,0,50,0,0

[HitObjects]
352,96,887,5,8,0:0:0:0:
352,96,1214,5,8,0:0:0:0:
160,96,1433,5,0,0:0:0:0:
352,96,1542,5,10,0:0:0:0:
160,96,1870,5,0,0:0:0:0:
160,96,2198,5,0,0:0:0:0:
160,96,2744,5,0,0:0:0:0:
352,96,2854,5,8,0:0:0:0:
352,96,3182,5,8,0:0:0:0:
160,96,3509,5,0,0:0:0:0:
160,96,3837,5,0,0:0:0:0:
160,96,4056,5,0,0:0:0:0:
352,96,4165,5,8,0:0:0:0:
160,96,4493,5,0,0:0:0:0:
160,96,4602,5,0,0:0:0:0:
352,96,4712,5,8,0:0:0:0:
352,96,5149,5,8,0:0:0:0:
352,288,6132,5,12,0:0:0:0:
352,288,6788,5,12,0:0:0:0:
160,288,7280,5,4,0:0:0:0:
160,288,7608,5,4,0:0:0:0:
160,288,7936,5,4,0:0:0:0:
160,288,8100,5,4,0:0:0:0:
352,288,8427,5,12,0:0:0:0:
160,288,8755,5,4,0:0:0:0:
160,96,9083,5,0,0:0:0:0:
352,96,9247,5,8,0:0:0:0:
160,96,9411,5,0,0:0:0:0:
352,96,9739,5,8,0:0:0:0:
352,96,9821,5,8,0:0:0:0:
352,96,9903,5,8,0:0:0:0:
160,96,10067,5,0,0:0:0:0:
352,96,10395,5,8,0:0:0:0:
160,96,10559,5,0,0:0:0:0:
160,96,10641,5,0,0:0:0:0:
160,96,10723,5,0,0:0:0:0:
352,96,10886,5,8,0:0:0:0:
352,96,11050,5,8,0:0:0:0:
160,96,11378,5,0,0:0:0:0:
160,96,11706,5,0,0:0:0:0:
352,96,11870,5,8,0:0:0:0:
160,96,12034,5,0,0:0:0:0:
352,96,12198,5,8,0:0:0:0:
352,96,12280,5,8,0:0:0:0:
352,96,12362,5,8,0:0:0:0:
352,96,12526,5,8,0:0:0:0:
160,96,12690,5,0,0:0:0:0:
352,96,13018,5,8,0:0:0:0:
160,96,13182,5,0,0:0:0:0:
160,96,13264,5,0,0:0:0:0:
160,96,13346,5,0,0:0:0:0:
352,96,13509,5,8,0:0:0:0:
352,96,13673,5,8,0:0:0:0:
160,96,14001,5,0,0:0:0:0:
352,288,14493,5,12,0:0:0:0:
352,96,14821,5,8,0:0:0:0:
160,96,14985,5,0,0:0:0:0:
160,96,15231,5,0,0:0:0:0:
352,288,15477,5,12,0:0:0:0:
160,96,15968,5,0,0:0:0:0:
349,95,16132,5,8,0:0:0:0:
160,97,16296,5,0,0:0:0:0:
160,97,16378,5,0,0:0:0:0:
160,97,16460,5,0,0:0:0:0:
352,288,16624,5,12,0:0:0:0:
352,288,16870,5,12,0:0:0:0:
352,288,17116,5,12,0:0:0:0:
352,288,17362,5,12,0:0:0:0:
352,288,17608,5,12,0:0:0:0:
160,96,17936,5,0,0:0:0:0:
160,96,18018,5,0,0:0:0:0:
160,96,18100,5,0,0:0:0:0:
352,96,18264,5,8,0:0:0:0:
160,96,18427,5,0,0:0:0:0:
160,96,18591,5,0,0:0:0:0:
160,96,18673,5,0,0:0:0:0:
160,96,18755,5,0,0:0:0:0:
352,96,18919,5,8,0:0:0:0:
160,96,19247,5,0,0:0:0:0:
352,96,19739,5,8,0:0:0:0:
160,96,19903,5,0,0:0:0:0:
352,96,20149,5,8,0:0:0:0:
160,96,20395,5,0,0:0:0:0:
160,96,20559,5,0,0:0:0:0:
352,96,20723,5,8,0:0:0:0:
160,96,20886,5,0,0:0:0:0:
352,96,21132,5,8,0:0:0:0:
160,96,21378,5,0,0:0:0:0:
352,96,21542,5,8,0:0:0:0:
160,96,21706,5,0,0:0:0:0:
352,96,21870,5,8,0:0:0:0:
160,96,22198,5,0,0:0:0:0:
352,96,22362,5,8,0:0:0:0:
160,96,22526,5,0,0:0:0:0:
352,96,22772,5,8,0:0:0:0:
352,96,23018,5,8,0:0:0:0:
352,96,23346,5,8,0:0:0:0:
160,96,23509,5,0,0:0:0:0:
352,96,23673,5,8,0:0:0:0:
160,96,23837,5,0,0:0:0:0:
160,96,24001,5,0,0:0:0:0:
352,96,24165,5,8,0:0:0:0:
160,96,24329,5,0,0:0:0:0:
352,96,24493,5,8,0:0:0:0:
160,96,24985,5,0,0:0:0:0:
352,96,25149,5,8,0:0:0:0:
352,96,25395,5,8,0:0:0:0:
160,96,25641,5,0,0:0:0:0:
160,96,25805,5,0,0:0:0:0:
352,96,25968,5,8,0:0:0:0:
160,96,26132,5,0,0:0:0:0:
352,96,26378,5,8,0:0:0:0:
160,96,26624,5,0,0:0:0:0:
352,96,26788,5,8,0:0:0:0:
160,96,26952,5,0,0:0:0:0:
352,96,27116,5,8,0:0:0:0:
160,96,27280,5,0,0:0:0:0:
160,96,27444,5,0,0:0:0:0:
352,96,27608,5,8,0:0:0:0:
160,96,27772,5,0,0:0:0:0:
160,96,28018,5,0,0:0:0:0:
352,96,28264,5,8,0:0:0:0:
160,96,29247,5,0,0:0:0:0:
160,96,29411,5,0,0:0:0:0:
160,96,29575,5,0,0:0:0:0:
352,288,29739,5,12,0:0:0:0:
352,96,30067,5,8,0:0:0:0:
160,96,30395,5,0,0:0:0:0:
160,96,30723,5,0,0:0:0:0:
352,96,30886,5,8,0:0:0:0:
352,96,31214,5,8,0:0:0:0:
160,96,31378,5,0,0:0:0:0:
160,96,31460,5,0,0:0:0:0:
160,96,31542,5,0,0:0:0:0:
352,96,31706,5,8,0:0:0:0:
160,96,31870,5,0,0:0:0:0:
352,96,32034,5,8,0:0:0:0:
160,96,32362,5,0,0:0:0:0:
352,96,32690,5,8,0:0:0:0:
160,96,32854,5,0,0:0:0:0:
352,96,33018,5,8,0:0:0:0:
160,96,33346,5,0,0:0:0:0:
352,96,33509,5,8,0:0:0:0:
160,96,33837,5,0,0:0:0:0:
352,96,34001,5,8,0:0:0:0:
160,96,34165,5,0,0:0:0:0:
352,96,34329,5,8,0:0:0:0:
352,96,34493,5,8,0:0:0:0:
352,96,34657,5,8,0:0:0:0:
160,96,34985,5,0,0:0:0:0:
160,96,35149,5,0,0:0:0:0:
352,96,35313,5,8,0:0:0:0:
160,96,35641,5,0,0:0:0:0:
160,96,35968,5,0,0:0:0:0:
352,96,36132,5,8,0:0:0:0:
352,96,36460,5,8,0:0:0:0:
160,96,36624,5,0,0:0:0:0:
160,96,36706,5,0,0:0:0:0:
160,96,36788,5,0,0:0:0:0:
352,96,36952,5,8,0:0:0:0:
352,96,37116,5,8,0:0:0:0:
160,96,37280,5,0,0:0:0:0:
160,96,37444,5,0,0:0:0:0:
352,96,37608,5,8,0:0:0:0:
352,96,37936,5,8,0:0:0:0:
160,96,38264,5,0,0:0:0:0:
352,96,38427,5,8,0:0:0:0:
352,96,38591,5,8,0:0:0:0:
160,96,38755,5,0,0:0:0:0:
160,96,39083,5,0,0:0:0:0:
352,96,39247,5,8,0:0:0:0:
352,96,39329,5,8,0:0:0:0:
352,96,39411,5,8,0:0:0:0:
160,96,39575,5,0,0:0:0:0:
352,288,39739,5,12,0:0:0:0:
352,288,39903,5,12,0:0:0:0:
160,288,40231,5,4,0:0:0:0:
352,96,40559,5,8,0:0:0:0:
352,96,40886,5,8,0:0:0:0:
160,96,41050,5,0,0:0:0:0:
352,96,41214,5,8,0:0:0:0:
160,96,41378,5,0,0:0:0:0:
352,96,41542,5,8,0:0:0:0:
352,96,41870,5,8,0:0:0:0:
352,96,42198,5,8,0:0:0:0:
160,96,42362,5,0,0:0:0:0:
352,96,42526,5,8,0:0:0:0:
160,96,42690,5,0,0:0:0:0:
352,96,42854,5,8,0:0:0:0:
352,96,43182,5,8,0:0:0:0:
352,96,43509,5,8,0:0:0:0:
160,96,43673,5,0,0:0:0:0:
352,96,43837,5,8,0:0:0:0:
160,96,44001,5,0,0:0:0:0:
160,96,44165,5,0,0:0:0:0:
352,96,44493,5,8,0:0:0:0:
160,96,44657,5,0,0:0:0:0:
352,96,44821,5,8,0:0:0:0:
352,96,45149,5,8,0:0:0:0:
352,96,45231,5,8,0:0:0:0:
352,96,45313,5,8,0:0:0:0:
160,288,45477,5,4,0:0:0:0:
352,96,45805,5,8,0:0:0:0:
160,96,46132,5,0,0:0:0:0:
352,96,46460,5,8,0:0:0:0:
352,96,46624,5,8,0:0:0:0:
160,96,46788,5,0,0:0:0:0:
160,96,47116,5,0,0:0:0:0:
352,96,47280,5,8,0:0:0:0:
160,96,47444,5,0,0:0:0:0:
160,96,47608,5,0,0:0:0:0:
352,96,47772,5,8,0:0:0:0:
352,96,47854,5,8,0:0:0:0:
352,96,47936,5,8,0:0:0:0:
160,288,48100,5,4,0:0:0:0:
352,96,48427,5,8,0:0:0:0:
160,96,48591,5,0,0:0:0:0:
160,96,48755,5,0,0:0:0:0:
160,96,49083,5,0,0:0:0:0:
352,96,49247,5,8,0:0:0:0:
160,96,49411,5,0,0:0:0:0:
352,96,49739,5,8,0:0:0:0:
352,96,49903,5,8,0:0:0:0:
160,96,50067,5,0,0:0:0:0:
160,96,50149,5,0,0:0:0:0:
160,96,50231,5,0,0:0:0:0:
352,96,50395,5,8,0:0:0:0:
160,288,50723,5,4,0:0:0:0:
352,96,51050,5,8,0:0:0:0:
160,96,51378,5,0,0:0:0:0:
160,96,51706,5,0,0:0:0:0:
352,288,51870,5,12,0:0:0:0:
352,96,52198,5,8,0:0:0:0:
160,96,52526,5,0,0:0:0:0:
352,96,52854,5,8,0:0:0:0:
352,96,53018,5,8,0:0:0:0:
352,96,53182,5,8,0:0:0:0:
160,288,53346,5,4,0:0:0:0:
352,288,53673,5,12,0:0:0:0:
160,288,54001,5,4,0:0:0:0:
352,288,54165,5,12,0:0:0:0:
160,288,54493,5,4,0:0:0:0:
352,288,54985,5,12,0:0:0:0:
352,96,55477,5,8,0:0:0:0:
352,96,55641,5,8,0:0:0:0:
352,96,55805,5,8,0:0:0:0:
160,288,55968,5,4,0:0:0:0:
352,96,56296,5,8,0:0:0:0:
160,96,56624,5,0,0:0:0:0:
352,96,56788,5,8,0:0:0:0:
352,96,56952,5,8,0:0:0:0:
160,96,57116,5,0,0:0:0:0:
160,96,57444,5,0,0:0:0:0:
352,96,57608,5,8,0:0:0:0:
160,96,57772,5,0,0:0:0:0:
160,96,57854,5,0,0:0:0:0:
160,96,57936,5,0,0:0:0:0:
352,96,58100,5,8,0:0:0:0:
352,96,58264,5,8,0:0:0:0:
160,96,58591,5,0,0:0:0:0:
352,96,58919,5,8,0:0:0:0:
160,96,59247,5,0,0:0:0:0:
160,96,59411,5,0,0:0:0:0:
352,96,59575,5,8,0:0:0:0:
160,96,59739,5,0,0:0:0:0:
352,96,60067,5,8,0:0:0:0:
352,96,60149,5,8,0:0:0:0:
352,96,60231,5,8,0:0:0:0:
352,96,60395,5,8,0:0:0:0:
160,96,60559,5,0,0:0:0:0:
352,288,60723,5,12,0:0:0:0:
352,288,60886,5,12,0:0:0:0:
160,96,61214,5,0,0:0:0:0:
352,96,61378,5,8,0:0:0:0:
352,96,61460,5,8,0:0:0:0:
352,96,61542,5,8,0:0:0:0:
160,96,61706,5,0,0:0:0:0:
160,96,62034,5,0,0:0:0:0:
352,96,62198,5,8,0:0:0:0:
352,96,62362,5,8,0:0:0:0:
160,96,62526,5,0,0:0:0:0:
160,96,62608,5,0,0:0:0:0:
160,96,62690,5,0,0:0:0:0:
352,96,62854,5,8,0:0:0:0:
352,96,63018,5,8,0:0:0:0:
160,96,63346,5,0,0:0:0:0:
352,96,63509,5,8,0:0:0:0:
160,96,63673,5,0,0:0:0:0:
160,96,63755,5,0,0:0:0:0:
160,96,63837,5,0,0:0:0:0:
352,288,64165,5,12,0:0:0:0:
160,96,64493,5,0,0:0:0:0:
352,288,64821,5,12,0:0:0:0:
160,96,65149,5,0,0:0:0:0:
160,96,65313,5,0,0:0:0:0:
352,96,65477,5,8,0:0:0:0:
352,96,65641,5,8,0:0:0:0:
163,172,65805,6,0,L|201:192,6,38.5000011749268
160,96,66460,5,0,0:0:0:0:
160,96,66542,5,0,0:0:0:0:
160,96,66624,5,0,0:0:0:0:
352,288,66788,5,12,0:0:0:0:
160,96,67116,5,0,0:0:0:0:
352,96,67280,5,8,0:0:0:0:
352,96,67444,5,8,0:0:0:0:
160,96,67608,5,0,0:0:0:0:
160,96,67936,5,0,0:0:0:0:
352,96,68100,5,8,0:0:0:0:
160,96,68264,5,0,0:0:0:0:
160,96,68346,5,0,0:0:0:0:
160,96,68428,5,0,0:0:0:0:
352,96,68592,5,8,0:0:0:0:
352,96,68756,5,8,0:0:0:0:
160,96,69083,5,0,0:0:0:0:
352,96,69411,5,8,0:0:0:0:
160,96,69739,5,0,0:0:0:0:
160,96,69903,5,0,0:0:0:0:
352,96,70067,5,8,0:0:0:0:
160,96,70231,5,0,0:0:0:0:
352,96,70559,5,8,0:0:0:0:
352,96,70641,5,8,0:0:0:0:
352,96,70723,5,8,0:0:0:0:
352,96,70887,5,8,0:0:0:0:
160,96,71051,5,0,0:0:0:0:
352,288,71215,5,12,0:0:0:0:
352,288,71378,5,12,0:0:0:0:
160,288,71706,5,4,0:0:0:0:
352,96,71870,5,8,0:0:0:0:
352,96,71952,5,8,0:0:0:0:
352,96,72034,5,8,0:0:0:0:
160,96,72198,5,0,0:0:0:0:
160,96,72526,5,0,0:0:0:0:
352,96,72854,5,8,0:0:0:0:
160,96,73018,5,0,0:0:0:0:
352,96,73182,5,8,0:0:0:0:
352,96,73346,5,8,0:0:0:0:
160,96,73509,5,0,0:0:0:0:
160,96,73837,5,0,0:0:0:0:
352,96,74001,5,8,0:0:0:0:
352,96,74083,5,8,0:0:0:0:
352,96,74165,5,8,0:0:0:0:
160,96,74329,5,0,0:0:0:0:
352,288,74657,5,12,0:0:0:0:
160,96,74985,5,0,0:0:0:0:
352,288,75313,5,12,0:0:0:0:
160,96,75641,5,0,0:0:0:0:
160,96,75805,5,0,0:0:0:0:
352,96,75968,5,8,0:0:0:0:
352,96,76132,5,8,0:0:0:0:
169,168,76296,6,0,L|180:209,6,36.399999777832
160,288,76952,5,4,0:0:0:0:
160,96,77116,5,0,0:0:0:0:
352,96,77280,5,8,0:0:0:0:
160,96,77444,5,0,0:0:0:0:
160,96,77772,5,0,0:0:0:0:
352,96,77936,5,8,0:0:0:0:
160,96,78100,5,0,0:0:0:0:
160,96,78427,5,0,0:0:0:0:
352,96,78591,5,8,0:0:0:0:
160,96,78755,5,0,0:0:0:0:
352,96,79083,5,8,0:0:0:0:
352,96,79247,5,8,0:0:0:0:
160,96,79575,5,0,0:0:0:0:
160,96,79739,5,8,0:0:0:0:
160,96,79821,5,8,0:0:0:0:
352,96,79903,5,8,0:0:0:0:
160,96,80067,5,0,0:0:0:0:
160,96,80395,5,0,0:0:0:0:
352,96,80559,5,8,0:0:0:0:
160,96,80723,5,0,0:0:0:0:
160,96,81050,5,0,0:0:0:0:
352,288,81214,5,12,0:0:0:0:
352,288,81542,5,12,0:0:0:0:
352,288,81870,5,12,0:0:0:0:
160,288,82198,5,4,0:0:0:0:
160,96,82362,5,0,0:0:0:0:
352,96,82526,5,8,0:0:0:0:
160,96,82690,5,0,0:0:0:0:
160,96,83018,5,0,0:0:0:0:
352,96,83182,5,8,0:0:0:0:
160,96,83346,5,0,0:0:0:0:
160,96,83673,5,0,0:0:0:0:
352,96,83837,5,8,0:0:0:0:
160,96,84001,5,0,0:0:0:0:
352,96,84329,5,8,0:0:0:0:
352,96,84493,5,8,0:0:0:0:
160,96,84657,5,0,0:0:0:0:
352,288,84821,5,12,0:0:0:0:
352,288,85477,5,12,0:0:0:0:
160,288,85968,5,4,0:0:0:0:
160,288,86296,5,4,0:0:0:0:
160,288,86624,5,4,0:0:0:0:
160,288,86788,5,4,0:0:0:0:
352,96,86952,5,8,0:0:0:0:
352,96,87116,5,8,0:0:0:0:
160,288,87280,5,4,0:0:0:0:
352,288,87608,5,12,0:0:0:0:
352,288,87936,5,12,0:0:0:0:
160,288,88100,5,4,0:0:0:0:
352,96,88427,5,8,0:0:0:0:
