osu file format v14

[General]
AudioFilename: audio.ogg
AudioLeadIn: 0
PreviewTime:55199
Countdown: 0
SampleSet: Soft
StackLeniency: 0.7
Mode: 3
LetterboxInBreaks: 0
WidescreenStoryboard: 1
SpecialStyle: 0

[Editor]
Bookmarks:8478,18970,29461,39871,39953,55691
DistanceSpacing: 0.7
BeatDivisor: 4
GridSize: 32
TimelineZoom: 1.1

[Metadata]
Title:Himegoto*Crisisters (TV Size)
TitleUnicode:ひめごと*クライシスターズ (TV Size)
Artist:ONIMAI SISTERS
ArtistUnicode:ONIMAI SISTERS
Creator:Hidden is fun
Version:Hard
Source:お兄ちゃんはおしまい!
Tags:cai_ji_ccc yhsh Faputa ML-ysg おにまい Oniichan wa Oshimai! 高野麻里佳 Kouno Marika 石原夏織 Ishihara Kaori 金元寿子 Kanemoto Hisako 津田美波 Tsuda Minami 緒山まひろ Mahiro Oyama 穂月かえで Hoduki Kaede PCCG.02194 Ver. Version Jpop J-pop pop Japanese Anime Electronic ed ending theme thema Onimai: I'm Now Your Sister!
BeatmapID:4045098
BeatmapSetID:1909971

[Difficulty]
HPDrainRate:7
CircleSize:4
OverallDifficulty:7
ApproachRate:5
SliderMultiplier:1.4
SliderTickRate:1

[Events]
//Background and Video events
Video,70,"ed.mp4"
0,0,"bg.jpg",0,0
//Break Periods
//Storyboard Layer 0 (Background)
//Storyboard Layer 1 (Fail)
//Storyboard Layer 2 (Pass)
//Storyboard Layer 3 (Foreground)
//Storyboard Layer 4 (Overlay)
//Storyboard Sound Samples

[TimingPoints]
-702,327.868852459016,4,2,1,50,1,0
55691,-100,4,2,1,50,0,1
65527,-100,4,2,1,50,0,0
66183,-100,4,2,1,50,0,1
76675,-100,4,2,1,50,0,0

[HitObjects]
320,192,281,5,0,0:0:0:0:
448,192,500,1,0,0:0:0:0:
64,192,609,1,0,0:0:0:0:
192,192,609,1,0,0:0:0:0:
320,192,937,1,0,0:0:0:0:
448,192,1265,1,0,0:0:0:0:
64,192,1593,1,0,0:0:0:0:
448,192,1702,1,0,0:0:0:0:
320,192,1811,1,0,0:0:0:0:
64,192,1920,1,0,0:0:0:0:
192,192,1920,128,0,2467:0:0:0:0:
448,192,2248,1,0,0:0:0:0:
64,192,2467,1,0,0:0:0:0:
320,192,2576,128,0,3232:0:0:0:0:
192,192,2904,1,0,0:0:0:0:
64,192,3232,1,0,0:0:0:0:
448,192,3232,1,0,0:0:0:0:
192,192,3451,1,0,0:0:0:0:
448,192,3560,1,0,0:0:0:0:
64,192,3778,1,0,0:0:0:0:
320,192,3888,1,0,0:0:0:0:
448,192,4106,1,0,0:0:0:0:
192,192,4216,1,0,0:0:0:0:
320,192,4434,1,0,0:0:0:0:
64,192,4543,1,0,0:0:0:0:
448,192,4871,1,0,0:0:0:0:
320,192,4871,1,0,0:0:0:0:
192,192,5363,128,0,5691:0:0:0:0:
320,192,5691,1,0,0:0:0:0:
64,192,5855,1,2,0:0:0:0:
448,192,5855,1,0,0:0:0:0:
192,192,6183,1,0,0:0:0:0:
320,192,6511,1,2,0:0:0:0:
448,192,6511,1,0,0:0:0:0:
64,192,6675,1,0,0:0:0:0:
192,192,7002,1,2,0:0:0:0:
320,192,7002,1,0,0:0:0:0:
320,192,7330,1,2,0:0:0:0:
448,192,7330,1,0,0:0:0:0:
192,192,7494,1,0,0:0:0:0:
320,192,7658,1,2,0:0:0:0:
448,192,7658,1,0,0:0:0:0:
64,192,7822,1,2,0:0:0:0:
192,192,7822,1,0,0:0:0:0:
320,192,8150,1,0,0:0:0:0:
448,192,8150,128,0,8478:0:0:0:0:
64,192,8478,1,2,0:0:0:0:
192,192,8478,1,4,0:0:0:0:
320,192,8478,1,0,0:0:0:0:
448,192,8642,1,0,0:0:0:0:
320,192,8724,1,0,0:0:0:0:
64,192,8806,1,2,0:0:0:0:
192,192,8806,1,8,0:0:0:0:
320,192,8970,1,0,0:0:0:0:
64,192,9134,1,2,0:0:0:0:
448,192,9134,1,0,0:0:0:0:
192,192,9297,1,0,0:0:0:0:
320,192,9461,1,2,0:0:0:0:
448,192,9461,1,8,0:0:0:0:
64,192,9543,1,0,0:0:0:0:
192,192,9625,1,0,0:0:0:0:
320,192,9707,1,0,0:0:0:0:
64,192,9789,1,2,0:0:0:0:
448,192,9789,1,0,0:0:0:0:
320,192,9953,1,0,0:0:0:0:
192,192,10035,1,0,0:0:0:0:
64,192,10117,1,2,0:0:0:0:
448,192,10117,1,8,0:0:0:0:
192,192,10281,1,0,0:0:0:0:
64,192,10445,1,2,0:0:0:0:
320,192,10445,1,0,0:0:0:0:
192,192,10609,1,0,0:0:0:40:Clap.wav
448,192,10609,1,0,0:0:0:0:
192,192,10773,1,10,0:0:0:0:
448,192,10773,1,0,0:0:0:40:Clap.wav
320,192,10937,1,0,0:0:0:0:
192,192,11019,1,0,0:0:0:0:
64,192,11101,1,2,0:0:0:0:
448,192,11101,1,0,0:0:0:0:
192,192,11265,1,0,0:0:0:0:
320,192,11347,1,0,0:0:0:0:
64,192,11429,1,8,0:0:0:0:
448,192,11429,1,2,0:0:0:0:
192,192,11593,1,0,0:0:0:0:
320,192,11757,1,2,0:0:0:0:
448,192,11757,1,0,0:0:0:0:
64,192,11920,1,0,0:0:0:0:
192,192,12084,1,2,0:0:0:0:
320,192,12084,1,8,0:0:0:0:
448,192,12166,1,0,0:0:0:0:
64,192,12248,1,0,0:0:0:0:
192,192,12330,1,0,0:0:0:0:
320,192,12412,1,2,0:0:0:0:
448,192,12412,1,0,0:0:0:0:
192,192,12576,1,0,0:0:0:0:
320,192,12658,1,0,0:0:0:0:
64,192,12740,1,2,0:0:0:0:
448,192,12740,1,8,0:0:0:0:
192,192,12904,1,0,0:0:0:0:
64,192,13068,1,2,0:0:0:0:
320,192,13068,1,0,0:0:0:0:
192,192,13232,1,0,0:0:0:40:Clap.wav
448,192,13232,1,0,0:0:0:0:
192,192,13396,1,10,0:0:0:0:
448,192,13396,1,0,0:0:0:40:Clap.wav
320,192,13560,1,0,0:0:0:0:
192,192,13642,1,0,0:0:0:0:
64,192,13724,1,2,0:0:0:0:
448,192,13724,1,0,0:0:0:0:
192,192,13970,1,2,0:0:0:0:
320,192,14052,1,0,0:0:0:40:Snare.wav
448,192,14052,1,0,0:0:0:0:
64,192,14216,128,2,14543:0:0:0:0:
192,192,14216,1,0,0:0:0:0:
448,192,14543,1,2,0:0:0:0:
64,192,14707,1,2,0:0:0:0:
192,192,14707,1,0,0:0:0:0:
448,192,14953,1,2,0:0:0:0:
192,192,15035,1,0,0:0:0:40:Snare.wav
320,192,15035,1,0,0:0:0:0:
64,192,15199,1,2,0:0:0:0:
448,192,15199,128,0,15527:0:0:0:0:
192,192,15527,1,10,0:0:0:0:
64,192,15691,1,2,0:0:0:0:
448,192,15691,1,0,0:0:0:0:
192,192,15773,1,0,0:0:0:0:
320,192,15855,1,8,0:0:0:0:
64,192,16019,1,2,0:0:0:0:
448,192,16019,1,0,0:0:0:0:
320,192,16101,1,0,0:0:0:40:Snare.wav
192,192,16183,1,0,0:0:0:40:Snare.wav
64,192,16347,1,2,0:0:0:0:
320,192,16347,1,4,0:0:0:0:
448,192,16347,1,0,0:0:0:0:
192,192,16593,1,2,0:0:0:0:
320,192,16593,1,0,0:0:0:0:
64,192,16838,1,2,0:0:0:0:
192,192,16838,1,0,0:0:0:0:
320,192,17084,1,2,0:0:0:0:
448,192,17084,1,0,0:0:0:0:
64,192,17330,1,2,0:0:0:0:
192,192,17330,1,8,0:0:0:0:
320,192,17494,1,2,0:0:0:0:
448,192,17494,1,8,0:0:0:0:
64,192,17658,1,2,0:0:0:0:
192,192,17658,1,8,0:0:0:0:
320,192,17822,1,0,0:0:0:0:
64,192,17986,1,2,0:0:0:0:
448,192,17986,1,0,0:0:0:0:
192,192,18150,1,0,0:0:0:0:
320,192,18314,1,2,0:0:0:0:
448,192,18314,1,0,0:0:0:0:
192,192,18396,1,2,0:0:0:0:
320,192,18478,1,2,0:0:0:0:
192,192,18560,1,2,0:0:0:0:
64,192,18642,1,2,0:0:0:0:
448,192,18642,1,8,0:0:0:0:
64,192,18970,1,2,0:0:0:0:
192,192,18970,1,0,0:0:0:0:
320,192,19134,1,0,0:0:0:0:
448,192,19297,1,2,0:0:0:0:
64,192,19461,1,0,0:0:0:0:
192,192,19543,1,0,0:0:0:0:
320,192,19625,1,2,0:0:0:0:
448,192,19625,128,0,19871:0:0:0:0:
192,192,19871,1,0,0:0:0:0:
320,192,19953,1,2,0:0:0:0:
64,192,20117,1,0,0:0:0:0:
320,192,20281,1,2,0:0:0:0:
448,192,20281,1,0,0:0:0:0:
192,192,20445,1,0,0:0:0:0:
64,192,20609,1,2,0:0:0:0:
320,192,20609,128,0,20855:0:0:0:0:
192,192,20855,1,0,0:0:0:0:
448,192,20937,1,2,0:0:0:0:
64,192,21101,1,0,0:0:0:0:
192,192,21101,1,0,0:0:0:0:
320,192,21265,1,2,0:0:0:0:
448,192,21265,1,0,0:0:0:0:
64,192,21429,1,0,0:0:0:0:
192,192,21429,1,0,0:0:0:0:
320,192,21593,1,2,0:0:0:0:
448,192,21593,1,0,0:0:0:0:
64,192,21757,1,0,0:0:0:0:
320,192,21920,1,2,0:0:0:0:
64,192,22084,1,0,0:0:0:0:
192,192,22166,1,0,0:0:0:0:
320,192,22248,1,2,0:0:0:0:
448,192,22248,128,0,22494:0:0:0:0:
192,192,22494,1,0,0:0:0:0:
320,192,22576,1,2,0:0:0:0:
64,192,22740,128,0,22904:0:0:0:0:
192,192,22904,1,2,0:0:0:0:
320,192,22904,1,0,0:0:0:0:
448,192,23068,128,0,23232:0:0:0:0:
320,192,23232,128,2,23396:0:0:0:0:
192,192,23396,128,0,23560:0:0:0:0:
64,192,23560,128,2,23724:0:0:0:0:
320,192,23724,1,0,0:0:0:0:
448,192,23724,1,0,0:0:0:0:
64,192,23888,1,2,0:0:0:0:
192,192,23888,1,0,0:0:0:0:
320,192,24052,1,0,0:0:0:0:
448,192,24052,1,0,0:0:0:0:
64,192,24216,1,2,0:0:0:0:
192,192,24216,1,0,0:0:0:0:
448,192,24379,1,0,0:0:0:0:
320,192,24543,1,2,0:0:0:0:
192,192,24707,1,0,0:0:0:0:
320,192,24789,1,0,0:0:0:0:
64,192,24871,1,2,0:0:0:0:
448,192,24871,1,0,0:0:0:0:
320,192,25117,1,0,0:0:0:0:
192,192,25199,1,2,0:0:0:0:
448,192,25363,1,0,0:0:0:0:
64,192,25527,1,2,0:0:0:0:
320,192,25527,1,0,0:0:0:0:
192,192,25691,1,0,0:0:0:0:
64,192,25855,1,2,0:0:0:0:
448,192,25855,1,0,0:0:0:0:
320,192,26101,1,0,0:0:0:0:
192,192,26183,1,2,0:0:0:0:
64,192,26347,1,0,0:0:0:0:
448,192,26347,1,0,0:0:0:0:
192,192,26511,1,2,0:0:0:0:
320,192,26511,1,0,0:0:0:0:
64,192,26675,1,0,0:0:0:0:
448,192,26675,1,0,0:0:0:0:
192,192,26838,1,2,0:0:0:0:
320,192,26838,1,0,0:0:0:0:
64,192,27002,1,0,0:0:0:0:
448,192,27166,1,2,0:0:0:0:
192,192,27330,1,0,0:0:0:0:
64,192,27412,1,0,0:0:0:0:
320,192,27494,1,2,0:0:0:0:
448,192,27494,1,0,0:0:0:0:
192,192,27740,1,0,0:0:0:0:
320,192,27822,1,2,0:0:0:0:
64,192,27986,1,2,0:0:0:0:
448,192,27986,1,0,0:0:0:0:
64,192,28970,1,8,0:0:0:0:
192,192,28970,1,2,0:0:0:0:
320,192,29134,1,2,0:0:0:0:
448,192,29134,1,8,0:0:0:0:
64,192,29297,1,2,0:0:0:0:
192,192,29297,1,8,0:0:0:0:
64,192,29461,1,2,0:0:0:0:
320,192,29461,1,0,0:0:0:0:
448,192,29461,1,0,0:0:0:0:
192,192,29789,1,8,0:0:0:0:
448,192,29789,128,2,30117:0:0:0:0:
64,192,30117,128,2,30445:0:0:0:0:
320,192,30117,1,0,0:0:0:0:
448,192,30281,1,0,0:0:0:0:
192,192,30445,1,8,0:0:0:0:
320,192,30445,1,2,0:0:0:0:
448,192,30609,1,0,0:0:0:0:
64,192,30773,1,2,0:0:0:0:
192,192,30855,1,0,0:0:0:0:
320,192,30937,1,0,0:0:0:0:
64,192,31101,1,2,0:0:0:0:
448,192,31101,1,8,0:0:0:0:
192,192,31265,1,0,0:0:0:0:
64,192,31429,128,2,31757:0:0:0:0:
448,192,31429,1,0,0:0:0:0:
320,192,31593,1,8,0:0:0:0:
192,192,31757,1,2,0:0:0:0:
448,192,31757,128,8,32084:0:0:0:0:
64,192,32084,1,2,0:0:0:0:
320,192,32084,128,0,32412:0:0:0:0:
192,192,32248,1,0,0:0:0:0:
64,192,32412,1,8,0:0:0:0:
448,192,32412,1,2,0:0:0:0:
320,192,32576,1,0,0:0:0:0:
192,192,32740,1,2,0:0:0:0:
320,192,33068,1,2,0:0:0:0:
448,192,33068,1,8,0:0:0:0:
64,192,33232,1,0,0:0:0:0:
448,192,33396,1,2,0:0:0:0:
320,192,33478,1,0,0:0:0:0:
192,192,33560,1,0,0:0:0:0:
64,192,33724,1,2,0:0:0:0:
448,192,33724,1,8,0:0:0:0:
320,192,33888,1,0,0:0:0:0:
64,192,34052,128,2,34379:0:0:0:0:
448,192,34052,1,0,0:0:0:0:
192,192,34216,1,8,0:0:0:0:
320,192,34379,1,2,0:0:0:0:
448,192,34379,128,8,34707:0:0:0:0:
64,192,34707,1,2,0:0:0:0:
192,192,34707,128,0,35035:0:0:0:0:
448,192,34871,1,0,0:0:0:0:
64,192,35035,1,2,0:0:0:0:
320,192,35035,128,8,35363:0:0:0:0:
64,192,35363,128,2,35691:0:0:0:0:
448,192,35363,1,0,0:0:0:0:
320,192,35527,1,0,0:0:0:0:
192,192,35691,1,2,0:0:0:0:
448,192,35691,1,8,0:0:0:0:
320,192,35855,1,0,0:0:0:0:
64,192,36019,1,2,0:0:0:0:
192,192,36101,1,0,0:0:0:0:
320,192,36183,1,0,0:0:0:0:
64,192,36347,1,2,0:0:0:0:
192,192,36347,1,8,0:0:0:0:
320,192,36511,1,0,0:0:0:0:
448,192,36675,1,2,0:0:0:0:
64,192,36838,1,8,0:0:0:0:
320,192,37002,1,2,0:0:0:0:
448,192,37002,1,8,0:0:0:0:
192,192,37166,1,0,0:0:0:0:
64,192,37330,1,2,0:0:0:0:
320,192,37330,128,0,37658:0:0:0:0:
448,192,37494,1,0,0:0:0:0:
64,192,37658,1,2,0:0:0:0:
192,192,37658,128,8,37986:0:0:0:0:
64,192,37986,128,2,38314:0:0:0:0:
448,192,37986,1,0,0:0:0:0:
192,192,38150,1,8,0:0:0:0:
320,192,38314,1,2,0:0:0:0:
448,192,38314,1,8,0:0:0:0:
64,192,38478,1,2,0:0:0:0:
192,192,38478,1,0,0:0:0:0:
320,192,38806,1,2,0:0:0:0:
64,192,38970,1,2,0:0:0:0:
448,192,38970,1,0,0:0:0:40:Snare.wav
192,192,39052,1,0,0:0:0:40:Snare.wav
448,192,39134,1,0,0:0:0:40:Snare.wav
320,192,39216,1,0,0:0:0:40:Snare.wav
192,192,39297,1,0,0:0:0:0:
320,192,39461,1,0,0:0:0:40:Clap.wav
448,192,39461,1,0,0:0:0:0:
64,192,39625,1,0,0:0:0:40:Clap.wav
192,192,39625,1,0,0:0:0:0:
64,192,39953,1,6,0:0:0:0:
448,192,39953,1,8,0:0:0:0:
320,192,39953,1,0,0:0:0:0:
64,192,40281,1,8,0:0:0:0:
192,192,40281,1,2,0:0:0:0:
320,192,40609,1,8,0:0:0:0:
448,192,40609,1,0,0:0:0:0:
192,192,40773,1,2,0:0:0:0:
64,192,40937,1,8,0:0:0:0:
448,192,40937,1,0,0:0:0:0:
320,192,41101,1,2,0:0:0:0:
64,192,41265,1,2,0:0:0:0:
192,192,41265,1,8,0:0:0:0:
64,192,41593,1,8,0:0:0:0:
320,192,41593,1,0,0:0:0:0:
192,192,41757,1,0,0:0:0:0:
320,192,41920,1,8,0:0:0:0:
448,192,41920,1,0,0:0:0:0:
64,192,42084,1,2,0:0:0:0:
192,192,42248,1,8,0:0:0:0:
320,192,42248,1,0,0:0:0:0:
448,192,42412,1,2,0:0:0:0:
64,192,42576,1,8,0:0:0:0:
192,192,42576,1,2,0:0:0:0:
320,192,42904,1,8,0:0:0:0:
448,192,42904,1,0,0:0:0:0:
192,192,43232,1,8,0:0:0:0:
448,192,43232,1,0,0:0:0:0:
320,192,43396,1,2,0:0:0:0:
64,192,43560,1,8,0:0:0:0:
448,192,43560,1,0,0:0:0:0:
192,192,43724,1,2,0:0:0:0:
64,192,43888,128,8,44216:0:0:0:0:
320,192,43888,1,2,0:0:0:0:
192,192,44216,128,8,44543:0:0:0:0:
320,192,44216,1,0,0:0:0:0:
448,192,44379,1,2,0:0:0:0:
64,192,44543,1,8,0:0:0:0:
320,192,44543,128,0,44871:0:0:0:0:
192,192,44707,1,2,0:0:0:0:
64,192,44871,1,0,0:0:0:40:Snare.wav
448,192,44871,1,0,0:0:0:0:
192,192,44953,1,0,0:0:0:40:Snare.wav
320,192,45035,1,2,0:0:0:0:
448,192,45199,1,2,0:0:0:0:
64,192,45363,1,8,0:0:0:0:
192,192,45363,1,0,0:0:0:0:
320,192,45527,1,2,0:0:0:0:
64,192,45691,1,8,0:0:0:0:
448,192,45691,1,0,0:0:0:0:
192,192,45855,1,2,0:0:0:0:
320,192,46019,1,8,0:0:0:0:
448,192,46019,1,0,0:0:0:0:
64,192,46183,1,2,0:0:0:0:
192,192,46347,1,8,0:0:0:0:
320,192,46347,1,0,0:0:0:0:
64,192,46511,128,2,46838:0:0:0:0:
320,192,46675,1,8,0:0:0:0:
448,192,46675,1,2,0:0:0:0:
192,192,46838,1,2,0:0:0:0:
64,192,47002,1,8,0:0:0:0:
320,192,47002,1,2,0:0:0:0:
448,192,47166,1,2,0:0:0:0:
64,192,47330,1,2,0:0:0:0:
192,192,47330,1,8,0:0:0:0:
320,192,47494,1,2,0:0:0:0:
448,192,47494,1,0,0:0:0:0:
192,192,47576,1,2,0:0:0:0:
64,192,47658,1,10,0:0:0:0:
448,192,47740,1,2,0:0:0:0:
192,192,47822,1,2,0:0:0:0:
320,192,47822,1,0,0:0:0:0:
64,192,48150,1,2,0:0:0:0:
448,192,48150,1,8,0:0:0:0:
192,192,48314,1,0,0:0:0:0:
320,192,48478,1,2,0:0:0:0:
448,192,48478,1,0,0:0:0:0:
192,192,48642,1,0,0:0:0:0:
64,192,48806,1,2,0:0:0:0:
448,192,48806,1,8,0:0:0:0:
320,192,48970,1,0,0:0:0:0:
64,192,49134,1,2,0:0:0:0:
192,192,49134,1,0,0:0:0:0:
64,192,49297,1,2,0:0:0:0:
320,192,49461,1,8,0:0:0:0:
448,192,49461,1,2,0:0:0:0:
448,192,49625,1,2,0:0:0:0:
64,192,49789,1,2,0:0:0:0:
320,192,49789,1,0,0:0:0:0:
192,192,49871,1,2,0:0:0:0:
448,192,49953,1,2,0:0:0:0:
320,192,50035,1,2,0:0:0:0:
64,192,50117,1,8,0:0:0:0:
192,192,50117,1,2,0:0:0:20:soft-hitwhistle.wav
320,192,50281,1,2,0:0:0:20:soft-hitwhistle.wav
192,192,50445,1,2,0:0:0:0:
448,192,50445,128,4,50773:0:0:0:0:
64,192,50445,1,0,0:0:0:0:
64,192,50773,1,2,0:0:0:0:
192,192,50937,128,0,51101:0:0:0:0:
320,192,51101,128,2,51593:0:0:0:0:
448,192,51101,1,0,0:0:0:0:
448,192,51429,1,2,0:0:0:0:
64,192,51593,1,0,0:0:0:0:
192,192,51593,1,0,0:0:0:0:
448,192,51757,1,2,0:0:0:0:
64,192,51920,1,0,0:0:0:0:
320,192,51920,1,0,0:0:0:0:
192,192,52084,1,2,0:0:0:0:
320,192,52248,1,8,0:0:0:0:
448,192,52248,1,0,0:0:0:0:
64,192,52576,1,8,0:0:0:0:
192,192,52576,1,0,0:0:0:0:
320,192,52740,1,8,0:0:0:0:
448,192,52740,1,0,0:0:0:0:
64,192,52904,1,8,0:0:0:0:
192,192,52904,1,0,0:0:0:0:
320,192,53068,1,2,0:0:0:0:
448,192,53068,1,0,0:0:0:0:
192,192,53232,1,0,0:0:0:0:
320,192,53314,1,0,0:0:0:0:
64,192,53396,1,2,0:0:0:0:
448,192,53396,1,0,0:0:0:0:
448,192,53560,1,0,0:0:0:0:
320,192,53642,1,0,0:0:0:0:
64,192,53724,1,8,0:0:0:0:
192,192,53724,1,0,0:0:0:0:
320,192,53888,1,8,0:0:0:0:
448,192,53888,1,0,0:0:0:0:
192,192,54052,1,0,0:0:0:0:
64,192,54216,1,8,0:0:0:0:
448,192,54216,1,0,0:0:0:0:
320,192,54707,128,2,55199:0:0:0:0:
448,192,54707,128,8,55199:0:0:0:0:
64,192,55199,1,8,0:0:0:0:
192,192,55199,1,2,0:0:0:0:
320,192,55363,1,8,0:0:0:0:
448,192,55363,1,2,0:0:0:0:
64,192,55527,1,8,0:0:0:0:
192,192,55527,1,2,0:0:0:0:
64,192,55691,1,4,0:0:0:0:
320,192,55691,1,2,0:0:0:0:
448,192,55691,1,0,0:0:0:0:
192,192,55855,1,0,0:0:0:0:
320,192,56019,1,2,0:0:0:0:
448,192,56019,1,8,0:0:0:0:
192,192,56183,1,0,0:0:0:0:
64,192,56347,1,2,0:0:0:0:
320,192,56347,1,0,0:0:0:0:
192,192,56511,1,0,0:0:0:40:Clap.wav
448,192,56511,1,0,0:0:0:0:
192,192,56675,1,10,0:0:0:0:
448,192,56675,1,0,0:0:0:40:Clap.wav
64,192,56838,1,0,0:0:0:0:
192,192,57002,1,2,0:0:0:0:
448,192,57002,1,0,0:0:0:0:
320,192,57166,1,0,0:0:0:0:
64,192,57330,1,8,0:0:0:0:
448,192,57330,1,2,0:0:0:0:
192,192,57494,1,0,0:0:0:0:
64,192,57658,1,2,0:0:0:0:
320,192,57658,1,0,0:0:0:0:
192,192,57822,1,0,0:0:0:40:Clap.wav
448,192,57822,1,0,0:0:0:0:
192,192,57986,1,10,0:0:0:0:
448,192,57986,1,0,0:0:0:40:Clap.wav
320,192,58150,1,0,0:0:0:0:
64,192,58314,1,2,0:0:0:0:
192,192,58314,1,0,0:0:0:0:
320,192,58478,1,0,0:0:0:0:
64,192,58642,1,2,0:0:0:0:
448,192,58642,1,8,0:0:0:0:
192,192,58806,1,0,0:0:0:0:
320,192,58970,1,2,0:0:0:0:
448,192,58970,1,0,0:0:0:0:
192,192,59134,1,0,0:0:0:0:
64,192,59297,1,2,0:0:0:0:
448,192,59297,1,8,0:0:0:0:
192,192,59461,1,0,0:0:0:0:
320,192,59461,1,0,0:0:0:0:
448,192,59625,1,2,0:0:0:0:
192,192,59789,1,0,0:0:0:0:
64,192,59953,1,8,0:0:0:0:
320,192,59953,1,2,0:0:0:0:
192,192,60117,1,0,0:0:0:0:
320,192,60281,1,2,0:0:0:0:
448,192,60281,1,0,0:0:0:0:
64,192,60445,1,0,0:0:0:40:Clap.wav
192,192,60445,1,0,0:0:0:0:
64,192,60609,1,10,0:0:0:0:
192,192,60609,1,0,0:0:0:40:Clap.wav
320,192,60773,1,0,0:0:0:0:
64,192,60937,1,2,0:0:0:0:
448,192,60937,1,0,0:0:0:0:
192,192,60937,1,0,0:0:0:0:
320,192,61183,1,0,0:0:0:0:
64,192,61265,1,2,0:0:0:0:
192,192,61265,1,8,0:0:0:0:
448,192,61429,1,0,0:0:0:0:
192,192,61593,1,2,0:0:0:0:
320,192,61757,1,0,0:0:0:0:
64,192,61920,1,2,0:0:0:0:
448,192,61920,1,8,0:0:0:0:
192,192,62084,1,0,0:0:0:0:
320,192,62248,1,2,0:0:0:0:
448,192,62248,1,0,0:0:0:0:
64,192,62412,1,0,0:0:0:0:
192,192,62576,1,8,0:0:0:0:
320,192,62576,1,2,0:0:0:0:
64,192,62740,1,0,0:0:0:0:
448,192,62904,1,2,0:0:0:0:
320,192,63068,1,0,0:0:0:0:
64,192,63232,1,8,0:0:0:0:
192,192,63232,1,2,0:0:0:0:
320,192,63314,1,0,0:0:0:0:
448,192,63396,1,0,0:0:0:0:
64,192,63560,1,2,0:0:0:0:
192,192,63560,1,0,0:0:0:0:
320,192,63560,1,0,0:0:0:0:
64,192,63724,1,0,0:0:0:0:
320,192,63888,1,2,0:0:0:0:
448,192,63888,1,8,0:0:0:0:
192,192,64052,1,0,0:0:0:0:
64,192,64216,1,2,0:0:0:0:
448,192,64216,1,0,0:0:0:0:
448,192,64379,1,0,0:0:0:0:
64,192,64543,1,2,0:0:0:0:
192,192,64543,1,8,0:0:0:0:
320,192,64707,1,0,0:0:0:0:
192,192,64871,1,2,0:0:0:0:
448,192,64871,1,0,0:0:0:0:
64,192,65035,1,2,0:0:0:0:
320,192,65035,1,0,0:0:0:0:
64,192,65199,1,8,0:0:0:0:
192,192,65199,1,2,0:0:0:0:
320,192,65363,1,2,0:0:0:0:
448,192,65363,1,0,0:0:0:0:
64,192,65527,1,2,0:0:0:0:
448,192,65527,1,0,0:0:0:0:
192,192,65609,1,2,0:0:0:0:
320,192,65691,1,2,0:0:0:0:
448,192,65773,1,2,0:0:0:0:
64,192,65855,1,8,0:0:0:0:
192,192,65855,1,2,0:0:0:20:soft-hitwhistle.wav
320,192,66019,1,2,0:0:0:20:soft-hitwhistle.wav
448,192,66019,1,0,0:0:0:0:
192,192,66183,1,2,0:0:0:0:
320,192,66265,1,2,0:0:0:0:
64,192,66347,1,2,0:0:0:0:
192,192,66429,1,2,0:0:0:0:
64,192,66511,1,8,0:0:0:0:
320,192,66511,1,4,0:0:0:0:
448,192,66511,1,2,0:0:0:0:
192,192,66675,1,0,0:0:0:0:
64,192,66838,1,2,0:0:0:0:
320,192,66838,1,0,0:0:0:0:
192,192,67002,1,0,0:0:0:40:Clap.wav
448,192,67002,1,0,0:0:0:0:
192,192,67166,1,10,0:0:0:0:
448,192,67166,1,0,0:0:0:40:Clap.wav
320,192,67330,1,0,0:0:0:0:
64,192,67494,1,2,0:0:0:0:
192,192,67494,1,0,0:0:0:0:
320,192,67658,1,0,0:0:0:0:
192,192,67822,1,8,0:0:0:0:
448,192,67822,1,2,0:0:0:0:
64,192,67986,1,0,0:0:0:0:
192,192,68150,1,2,0:0:0:0:
448,192,68150,1,0,0:0:0:0:
64,192,68314,1,0,0:0:0:40:Clap.wav
320,192,68314,1,0,0:0:0:0:
64,192,68478,1,10,0:0:0:0:
320,192,68478,1,0,0:0:0:40:Clap.wav
448,192,68642,1,0,0:0:0:0:
64,192,68806,1,2,0:0:0:0:
192,192,68806,1,0,0:0:0:0:
448,192,68970,1,0,0:0:0:0:
192,192,69134,1,2,0:0:0:0:
320,192,69134,1,8,0:0:0:0:
64,192,69297,1,0,0:0:0:0:
320,192,69461,1,2,0:0:0:0:
448,192,69461,1,0,0:0:0:0:
192,192,69625,1,0,0:0:0:0:
64,192,69789,1,8,0:0:0:0:
320,192,69789,1,2,0:0:0:0:
192,192,69953,1,0,0:0:0:0:
448,192,69953,1,0,0:0:0:0:
320,192,70117,1,2,0:0:0:0:
448,192,70281,1,0,0:0:0:0:
192,192,70445,1,8,0:0:0:0:
320,192,70445,1,2,0:0:0:0:
64,192,70609,1,0,0:0:0:0:
448,192,70773,1,2,0:0:0:0:
64,192,70937,1,0,0:0:0:40:Clap.wav
192,192,70937,1,0,0:0:0:0:
64,192,71101,1,10,0:0:0:0:
192,192,71101,1,0,0:0:0:40:Clap.wav
320,192,71265,1,0,0:0:0:0:
64,192,71429,1,2,0:0:0:0:
192,192,71429,1,4,0:0:0:0:
448,192,71429,1,0,0:0:0:0:
320,192,71593,1,0,0:0:0:0:
192,192,71757,1,8,0:0:0:0:
448,192,71757,1,0,0:0:0:0:
64,192,71920,1,2,0:0:0:0:
320,192,71920,1,0,0:0:0:0:
192,192,72248,1,2,0:0:0:0:
320,192,72248,1,0,0:0:0:0:
64,192,72412,1,8,0:0:0:0:
448,192,72412,1,0,0:0:0:0:
320,192,72576,1,0,0:0:0:0:
448,192,72740,1,2,0:0:0:0:
192,192,72740,1,4,0:0:0:0:
64,192,72740,1,0,0:0:0:0:
448,192,72904,1,2,0:0:0:0:
320,192,72904,1,0,0:0:0:0:
192,192,73068,1,8,0:0:0:0:
64,192,73068,1,0,0:0:0:0:
448,192,73232,1,2,0:0:0:0:
320,192,73232,1,0,0:0:0:0:
64,192,73560,1,2,0:0:0:0:
448,192,73724,1,0,0:0:0:40:Snare.wav
320,192,73806,1,0,0:0:0:40:Snare.wav
64,192,73888,1,0,0:0:0:40:Snare.wav
192,192,73970,1,0,0:0:0:40:Snare.wav
320,192,74052,1,2,0:0:0:0:
448,192,74052,1,0,0:0:0:0:
64,192,74216,1,2,0:0:0:0:
192,192,74379,1,8,0:0:0:0:
448,192,74379,1,0,0:0:0:0:
64,192,74707,1,2,0:0:0:0:
192,192,74707,1,0,0:0:0:0:
320,192,74871,1,2,0:0:0:0:
192,192,75035,1,8,0:0:0:0:
448,192,75035,1,0,0:0:0:0:
320,192,75363,1,2,0:0:0:0:
448,192,75363,1,0,0:0:0:0:
64,192,75527,1,2,0:0:0:0:
192,192,75527,1,0,0:0:0:0:
192,192,75691,1,8,0:0:0:0:
448,192,75691,1,2,0:0:0:0:
64,192,75855,1,2,0:0:0:0:
320,192,75855,1,0,0:0:0:0:
192,192,76019,1,2,0:0:0:0:
448,192,76019,1,0,0:0:0:0:
320,192,76101,1,2,0:0:0:0:
64,192,76183,1,2,0:0:0:0:
192,192,76265,1,2,0:0:0:0:
320,192,76347,1,2,0:0:0:20:soft-hitwhistle.wav
448,192,76347,1,0,0:0:0:0:
64,192,76511,1,2,0:0:0:20:soft-hitwhistle.wav
192,192,76593,1,0,0:0:0:0:
64,192,76675,1,2,0:0:0:0:
320,192,76675,1,4,0:0:0:0:
448,192,76675,1,0,0:0:0:0:
192,192,76838,1,2,0:0:0:0:
448,192,76838,1,0,0:0:0:0:
192,192,77002,1,8,0:0:0:0:
320,192,77002,1,0,0:0:0:0:
64,192,77166,128,2,77494:0:0:0:0:
448,192,77166,1,0,0:0:0:0:
192,192,77494,1,2,0:0:0:0:
448,192,77494,1,0,0:0:0:0:
64,192,77658,1,8,0:0:0:0:
320,192,77658,1,0,0:0:0:0:
192,192,77822,128,2,78150:0:0:0:0:
448,192,77822,1,0,0:0:0:0:
320,192,78150,1,2,0:0:0:0:
448,192,78150,1,0,0:0:0:0:
64,192,78314,1,8,0:0:0:0:
192,192,78314,1,0,0:0:0:0:
320,192,78478,128,2,78806:0:0:0:0:
448,192,78478,1,0,0:0:0:0:
64,192,78806,1,2,0:0:0:0:
192,192,78806,1,0,0:0:0:40:Clap.wav
64,192,78970,1,8,0:0:0:0:
192,192,78970,1,0,0:0:0:40:Clap.wav
448,192,79134,1,0,0:0:0:0:
320,192,79216,1,0,0:0:0:0:
64,192,79297,1,2,0:0:0:0:
192,192,79297,1,4,0:0:0:0:
448,192,79297,1,0,0:0:0:0:
192,192,79461,1,2,0:0:0:0:
448,192,79461,1,0,0:0:0:0:
64,192,79625,1,8,0:0:0:0:
320,192,79625,1,0,0:0:0:0:
192,192,79789,1,2,0:0:0:0:
448,192,79789,1,0,0:0:0:0:
192,192,80117,1,2,0:0:0:0:
320,192,80117,1,0,0:0:0:0:
64,192,80281,1,8,0:0:0:0:
448,192,80281,1,0,0:0:0:0:
192,192,80445,1,2,0:0:0:0:
320,192,80445,1,4,0:0:0:0:
448,192,80445,1,0,0:0:0:0:
64,192,80773,1,2,0:0:0:0:
192,192,80855,1,0,0:0:0:0:
320,192,80937,1,8,0:0:0:0:
448,192,80937,1,0,0:0:0:0:
192,192,81101,1,2,0:0:0:0:
320,192,81183,1,0,0:0:0:0:
64,192,81265,1,8,0:0:0:0:
448,192,81265,1,0,0:0:0:0:
320,192,81429,1,2,0:0:0:0:
448,192,81511,1,0,0:0:0:0:
64,192,81593,1,8,0:0:0:0:
192,192,81593,1,0,0:0:0:0:
320,192,81757,1,0,0:0:0:40:Snare.wav
64,192,81920,1,4,0:0:0:0:
192,192,81920,1,2,0:0:0:0:
448,192,81920,1,0,0:0:0:0:
192,192,82084,1,2,0:0:0:0:
320,192,82084,1,0,0:0:0:0:
320,192,82248,1,8,0:0:0:0:
448,192,82248,1,0,0:0:0:0:
64,192,82412,128,2,82740:0:0:0:0:
192,192,82412,1,0,0:0:0:0:
320,192,82740,1,2,0:0:0:0:
448,192,82740,1,0,0:0:0:0:
64,192,82904,1,8,0:0:0:0:
192,192,82904,1,0,0:0:0:0:
320,192,83068,1,2,0:0:0:0:
448,192,83068,128,4,83396:0:0:0:0:
192,192,83068,1,0,0:0:0:0:
64,192,83396,1,2,0:0:0:0:
320,192,83396,1,0,0:0:0:0:
192,192,83560,1,8,0:0:0:0:
448,192,83560,1,0,0:0:0:0:
64,192,83724,1,2,0:0:0:0:
320,192,83724,128,0,84052:0:0:0:0:
64,192,84052,1,2,0:0:0:0:
192,192,84052,1,0,0:0:0:40:Clap.wav
320,192,84216,1,10,0:0:0:0:
448,192,84216,1,0,0:0:0:40:Clap.wav
192,192,84379,1,0,0:0:0:0:
64,192,84543,1,2,0:0:0:0:
448,192,84543,1,0,0:0:0:0:
192,192,84871,1,0,0:0:0:0:
320,192,85199,1,2,0:0:0:0:
448,192,85199,1,0,0:0:0:0:
192,192,85363,1,0,0:0:0:0:
64,192,85691,1,2,0:0:0:0:
320,192,85691,1,0,0:0:0:0:
192,192,86019,1,2,0:0:0:0:
448,192,86019,1,0,0:0:0:0:
320,192,86183,1,0,0:0:0:0:
64,192,86347,1,2,0:0:0:0:
192,192,86347,1,0,0:0:0:0:
320,192,86511,1,2,0:0:0:0:
448,192,86511,1,8,0:0:0:0:
192,192,86675,1,2,0:0:0:0:
320,192,86675,1,0,0:0:0:0:
64,192,86838,1,8,0:0:0:20:soft-hitclap.wav
192,192,86838,1,0,0:0:0:0:
64,192,87002,1,8,0:0:0:0:
320,192,87002,1,4,0:0:0:0:
448,192,87002,1,2,0:0:0:0:
192,192,87330,1,8,0:0:0:0:
448,192,87330,1,2,0:0:0:0:
64,192,87494,1,0,0:0:0:0:
320,192,87658,1,2,0:0:0:0:
448,192,87658,1,8,0:0:0:0:
64,192,87822,1,2,0:0:0:0:
192,192,87822,1,8,0:0:0:0:
448,192,88095,1,0,0:0:0:0:
