osu file format v14

[General]
AudioFilename: audio.mp3
AudioLeadIn: 0
PreviewTime: 55268
Countdown: 0
SampleSet: Soft
StackLeniency: 0.7
Mode: 0
LetterboxInBreaks: 0
WidescreenStoryboard: 1

[Editor]
Bookmarks: 8546,19202,29858,40022,50514,55759,66251
DistanceSpacing: 1.2
BeatDivisor: 8
GridSize: 4
TimelineZoom: 2.899999

[Metadata]
Title:Himegoto*Crisisters (TV Size)
TitleUnicode:ひめごと*クライシスターズ (TV Size)
Artist:ONIMAI SISTERS
ArtistUnicode:ONIMAI SISTERS
Creator:-Yua
Version:yf's Ex*tra
Source:お兄ちゃんはおしまい!
Tags:anime japanese pop jpop j-pop ending ed oniichan wa oshimai i'm now your sister! おにまい onimai onii-chan もみじ momiji みはり mihari 高野麻里佳 kouno marika 石原夏織 ishihara kaori 金元寿子 kanemoto hisako 津田美波 tsuda minami 緒山まひろ mahiro oyama 穂月かえで hoduki kaede yua Malphs Kirishima- MeAqua tete Present Onloong yf yf_bmp wen
BeatmapID:3945696
BeatmapSetID:1911312

[Difficulty]
HPDrainRate:6
CircleSize:4
OverallDifficulty:8.7
ApproachRate:9.3
SliderMultiplier:2.1
SliderTickRate:0.5

[Events]
//Background and Video events
Video,135,"ED.mp4"
0,0,"BG.jpg",0,0
//Break Periods
//Storyboard Layer 0 (Background)
//Storyboard Layer 1 (Fail)
//Storyboard Layer 2 (Pass)
//Storyboard Layer 3 (Foreground)
//Storyboard Layer 4 (Overlay)
//Storyboard Sound Samples

[TimingPoints]
760,327.868852459016,4,2,1,40,1,0
760,-133.333333333333,4,2,1,40,0,0
4038,-114.942528735632,4,2,1,40,0,0
4694,-200,4,2,1,40,0,0
4967,-200,4,2,1,5,0,0
5022,-200,4,2,1,40,0,0
6005,-76.9230769230769,4,2,1,50,0,0
6087,-76.9230769230769,4,2,1,5,0,0
6333,-133.333333333333,4,2,1,50,0,0
6661,-76.9230769230769,4,2,1,50,0,0
6743,-76.9230769230769,4,2,1,5,0,0
6825,-133.333333333333,4,2,1,50,0,0
7071,-133.333333333333,4,2,1,5,0,0
7153,-100,4,2,1,50,0,0
7399,-100,4,2,1,5,0,0
7481,-100,4,2,1,50,0,0
8300,-66.6666666666667,4,2,1,60,0,0
8546,-66.6666666666667,4,2,1,5,0,0
8628,-100,4,2,1,60,0,1
19120,-100,4,2,1,50,0,0
28628,-200,4,2,1,50,0,0
29038,-200,4,2,1,5,0,0
29120,-76.9230769230769,4,2,1,50,0,0
29612,-100,4,2,1,55,0,0
29940,-66.6666666666667,4,2,1,55,0,0
30104,-100,4,2,1,55,0,0
32563,-66.6666666666667,4,2,1,55,0,0
32727,-100,4,2,1,55,0,0
39776,-200,4,2,1,55,0,0
40022,-200,4,2,1,5,0,0
40104,-76.9230769230769,4,2,1,55,0,0
44038,-133.333333333333,4,2,1,55,0,0
44694,-100,4,2,1,55,0,0
50322,-100,4,2,1,35,0,0
50596,-66.6666666666667,4,2,1,55,0,0
53546,-131.578947368421,4,2,1,55,0,0
53874,-66.6666666666667,4,2,1,55,0,0
54366,-100,4,2,1,55,0,0
54858,-50,4,2,1,55,0,0
55841,-100,4,2,1,70,0,1
59612,-76.9230769230769,4,2,1,70,0,1
59940,-100,4,2,1,70,0,1
61087,-100,4,2,1,70,0,0
64038,-57.1428571428571,4,2,1,70,0,0
65022,-100,4,2,1,70,0,0
66005,-66.6666666666667,4,2,1,60,0,0
66333,-133.333333333333,4,2,1,70,0,0
66661,-100,4,2,1,70,0,1
70104,-76.9230769230769,4,2,1,70,0,1
70432,-100,4,2,1,70,0,1
71579,-100,4,2,1,70,0,0
74202,-66.6666666666667,4,2,1,70,0,0
74776,-66.6666666666667,4,2,1,5,0,0
74858,-66.6666666666667,4,2,1,70,0,0
75432,-66.6666666666667,4,2,1,5,0,0
75514,-100,4,2,1,70,0,0
76497,-66.6666666666667,4,2,1,60,0,0
76825,-100,4,2,1,60,0,0
81087,-80,4,2,1,60,0,0
81415,-66.6666666666667,4,2,1,60,0,0
81743,-50,4,2,1,60,0,0
82071,-100,4,2,1,60,0,0
84694,-66.6666666666667,4,2,1,50,0,0
85841,-50,4,2,1,50,0,0
87153,-66.6666666666667,4,2,1,50,0,0

[Colours]
Combo1 : 237,218,214
Combo2 : 238,141,161
Combo3 : 193,152,128
Combo4 : 243,178,191
Combo5 : 151,109,119

[HitObjects]
0,188,760,6,0,P|19:179|118:165,1,105.000004005432,2|2,0:0|0:0,0:0:0:0:
164,112,1087,2,0,P|172:92|187:-6,1,105.000004005432,2|2,0:0|0:0,0:0:0:0:
216,172,1415,1,2,0:0:0:0:
240,220,1525,1,2,0:0:0:0:
236,272,1634,1,2,0:0:0:0:
208,316,1743,2,0,P|231:316|268:324,1,52.5000020027161,2|2,3:2|3:2,0:0:0:0:
372,372,1962,1,2,3:2:0:0:
404,300,2071,6,0,P|431:249|460:206,1,105.000004005432,2|2,0:0|0:0,0:0:0:0:
504,144,2399,1,2,0:0:0:0:
504,144,2617,1,2,0:0:0:0:
457,210,2727,2,0,P|401:230|341:178,1,105.000004005432,2|2,0:0|0:0,0:0:0:0:
296,160,3055,1,2,0:0:0:0:
292,164,3164,1,2,0:0:0:0:
288,160,3273,1,2,0:0:0:0:
332,72,3382,6,0,P|272:84|212:80,1,105.000004005432,2|2,0:0|0:0,0:0:0:0:
220,88,3710,1,2,0:0:0:0:
232,8,3820,1,2,0:0:0:0:
308,0,3929,1,2,0:0:0:0:
340,76,4038,6,0,P|280:76|208:92,1,121.800001022186,2|2,0:0|0:0,0:0:0:0:
200,176,4366,2,0,P|211:206|208:251,1,60.9000005110931,2|2,0:0|0:0,0:0:0:0:
160,308,4585,1,2,0:0:0:0:
72,336,4694,6,0,B|61:316|37:312|37:312|61:308|73:286,1,87.5,2|0,0:0|0:0,0:0:0:0:
76,316,5022,1,2,0:0:0:0:
76,316,5514,5,2,0:0:0:0:
128,320,5678,1,0,0:0:0:0:
180,324,5841,1,2,0:0:0:0:
232,328,6005,6,0,L|216:260,1,68.2499968757631,10|0,0:0|0:0,0:0:0:0:
204,271,6333,6,0,L|307:281,1,78.7500030040742,2|0,0:0|0:0,0:0:0:0:
280,56,6661,6,0,L|296:124,1,68.2499968757631,8|0,0:0|0:0,0:0:0:0:
308,112,6825,6,0,L|153:98,1,118.125004506111,2|0,0:0|0:0,0:0:0:0:
181,178,7153,6,0,B|249:184|249:184|264:201|264:201|332:207,1,157.5,10|0,0:0|0:0,0:0:0:0:
352,208,7481,1,10,0:0:0:0:
160,176,7645,1,2,0:0:0:0:
288,344,7809,5,10,0:0:0:0:
456,336,7973,1,2,1:2:0:0:
372,296,8137,1,0,1:2:0:0:
372,296,8300,2,0,B|391:229|380:196|315:191|366:124|432:184|372:296,1,236.250009012223,2|0,0:0|0:0,0:0:0:0:
376,376,8628,5,6,1:0:0:0:
64,284,8792,1,2,0:0:0:0:
100,256,8874,1,2,0:0:0:0:
144,260,8956,1,10,0:0:0:0:
172,292,9038,1,2,0:0:0:0:
176,336,9120,1,2,0:0:0:0:
208,364,9202,1,2,0:0:0:0:
252,368,9284,5,2,1:2:0:0:
288,344,9366,1,2,0:0:0:0:
300,300,9448,1,2,0:0:0:0:
272,264,9530,1,2,0:0:0:0:
276,220,9612,2,0,P|289:194|300:164,1,52.5,10|2,0:0|0:0,0:0:0:0:
300,12,9776,2,0,P|286:37|276:68,1,52.5,2|2,0:0|0:0,0:0:0:0:
203,151,9940,6,0,P|154:134|102:125,1,105,2|2,1:2|0:0,0:0:0:0:
80,128,10186,1,2,0:0:0:0:
155,55,10268,1,10,0:0:0:0:
199,67,10350,1,2,0:0:0:0:
215,107,10432,1,2,1:2:0:0:
203,151,10514,1,10,0:3:0:0:
163,175,10596,5,6,0:3:0:0:
155,239,10678,1,2,0:0:0:0:
147,303,10759,2,0,L|207:299,1,52.5,10|2,0:1|0:0,0:0:0:0:
372,244,10923,2,0,L|312:248,1,52.5,10|2,0:1|0:0,0:0:0:0:
72,252,11087,1,2,0:0:0:0:
96,296,11169,1,2,0:0:0:0:
140,308,11251,5,2,1:2:0:0:
456,272,11415,1,2,0:0:0:0:
420,244,11497,1,2,0:0:0:0:
376,248,11579,1,10,0:0:0:0:
348,280,11661,1,2,0:0:0:0:
344,324,11743,1,2,0:0:0:0:
312,352,11825,1,2,0:0:0:0:
268,356,11907,5,2,1:2:0:0:
232,332,11989,1,2,0:0:0:0:
220,288,12071,1,2,0:0:0:0:
248,252,12153,1,2,0:0:0:0:
244,208,12235,2,0,P|231:182|220:152,1,52.5,10|2,0:0|0:0,0:0:0:0:
56,128,12399,2,0,P|70:153|80:184,1,52.5,2|2,0:0|0:0,0:0:0:0:
152,40,12563,6,0,L|264:24,1,105,2|2,1:2|0:0,0:0:0:0:
276,32,12809,1,2,0:0:0:0:
368,40,12891,5,10,0:0:0:0:
352,72,12973,1,2,0:0:0:0:
380,48,13055,1,2,0:0:0:0:
364,80,13137,1,2,0:0:0:0:
392,56,13219,1,2,1:2:0:0:
416,168,13382,6,0,L|356:164,1,52.5,10|0,0:1|0:0,0:0:0:0:
208,160,13546,2,0,L|157:192,1,52.5,10|0,0:1|0:0,0:0:0:0:
92,328,13710,1,2,0:0:0:0:
84,336,13792,1,0,0:0:0:0:
92,316,13874,6,0,L|80:188,1,105,10|2,0:0|0:0,0:0:0:0:
64,176,14093,5,2,0:0:0:0:
28,172,14147,5,2,0:0:0:0:
8,204,14202,6,0,L|12:260,2,35,10|2|2,0:0|0:0|0:0,0:0:0:0:
0,324,14366,6,0,B|46:296|46:296|42:248|42:248|88:218,1,157.5,10|0,0:0|0:0,0:0:0:0:
105,205,14694,1,0,1:2:0:0:
292,112,14858,6,0,L|164:100,1,105,8|2,0:0|0:0,0:0:0:0:
144,84,15076,5,2,0:0:0:0:
139,40,15131,5,2,0:0:0:0:
177,16,15186,6,0,L|244:20,2,35,2|2|2,1:2|0:0|0:0,0:0:0:0:
300,20,15350,6,0,B|364:60|364:60|296:112,1,157.5,10|0,0:0|0:0,0:0:0:0:
236,212,15678,2,0,L|240:160,1,52.5,8|2,0:0|0:0,0:0:0:0:
444,60,15841,5,10,0:0:0:0:
448,120,15923,1,2,0:0:0:0:
452,180,16005,1,2,0:0:0:0:
456,240,16087,1,2,0:0:0:0:
416,284,16169,1,10,0:0:0:0:
412,224,16251,1,2,1:2:0:0:
408,164,16333,1,2,1:2:0:0:
404,104,16415,1,2,0:0:0:0:
364,60,16497,6,0,P|416:48|462:91,1,105,12|0,0:0|0:0,0:0:0:0:
148,324,16743,2,0,P|96:336|50:293,1,105,14|0,0:0|0:0,0:0:0:0:
336,188,16989,6,0,P|381:217|382:280,1,105,12|0,0:0|0:0,0:0:0:0:
176,196,17235,2,0,P|130:168|129:105,1,105,12|0,0:0|0:0,0:0:0:0:
256,260,17481,6,0,P|258:285|248:311,1,52.5,8|0,0:0|0:0,0:0:0:0:
256,124,17645,2,0,P|253:98|263:72,1,52.5,8|0,0:0|0:0,0:0:0:0:
448,44,17809,5,8,0:0:0:0:
484,68,17863,5,0,0:0:0:0:
492,112,17918,5,2,0:0:0:0:
472,152,17973,6,0,L|420:172,2,35,2|2|2,0:0|0:0|0:0,0:0:0:0:
428,252,18137,2,0,L|413:291,5,35,8|0|0|0|0|0,0:0|0:0|0:0|0:0|0:0|0:0,0:0:0:0:
420,372,18464,5,8,0:0:0:0:
368,360,18519,5,2,0:0:0:0:
316,348,18574,5,2,0:0:0:0:
264,332,18628,6,0,L|244:280,2,35,10|0|0,0:0|0:0|0:0,0:0:0:0:
160,220,18792,2,0,L|215:228,2,35,10|0|0,0:0|0:0|0:0,0:0:0:0:
296,184,18956,2,0,L|283:216,2,35,2|0|0,0:0|0:0|0:0,0:0:0:0:
330,102,19120,6,0,L|440:92,1,105,0|2,1:2|0:0,0:0:0:0:
216,100,19448,2,0,L|326:90,1,105,2|2,1:2|1:2,0:0:0:0:
40,124,19776,6,0,L|30:14,1,105,2|0,1:2|0:0,0:0:0:0:
23,136,20022,2,0,L|37:283,1,105,2|0,0:0|0:0,0:0:0:0:
56,116,20268,2,0,L|48:34,1,52.5,2|0,0:0|0:0,0:0:0:0:
128,264,20432,6,0,L|18:254,1,105,2|2,1:2|0:0,0:0:0:0:
242,262,20759,2,0,L|132:252,1,105,2|0,1:2|3:2,0:0:0:0:
232,276,21005,2,0,L|342:286,1,105,0|0,3:2|0:0,0:0:0:0:
224,288,21251,5,2,1:2:0:0:
432,184,21415,1,2,1:2:0:0:
272,352,21579,1,2,1:2:0:0:
348,276,21743,6,0,L|358:386,1,105,2|2,1:2|0:0,0:0:0:0:
350,162,22071,2,0,L|360:272,1,105,2|2,1:2|3:2,0:0:0:0:
304,60,22399,6,0,L|414:50,1,105,0|0,1:2|3:2,0:0:0:0:
292,48,22645,2,0,L|182:38,1,105,2|0,0:0|0:0,0:0:0:0:
312,76,22891,2,0,L|387:82,1,52.5,2|0,0:0|0:0,0:0:0:0:
484,124,23055,6,0,L|494:14,1,105,0|2,1:2|0:0,0:0:0:0:
486,238,23382,2,0,L|496:128,1,105,2|2,1:2|3:2,0:0:0:0:
504,364,23710,2,0,L|511:294,1,52.5,2|0,1:2|0:0,0:0:0:0:
476,228,23874,5,2,0:0:0:0:
364,112,24038,1,2,1:2:0:0:
332,304,24202,1,2,0:0:0:0:
220,188,24366,6,0,P|164:204|140:256,1,105,2|0,1:2|0:0,0:0:0:0:
300,320,24694,2,0,P|314:263|281:216,1,105,2|2,1:2|3:2,0:0:0:0:
141,242,25022,6,0,P|85:226|61:174,1,105,2|0,1:2|3:2,0:0:0:0:
68,108,25268,2,0,P|109:67|166:72,1,105,2|0,0:0|0:0,0:0:0:0:
204,132,25514,2,0,P|197:163|204:194,1,52.5,2|0,0:0|0:0,0:0:0:0:
360,92,25678,6,0,P|304:108|280:160,1,105,2|2,1:2|0:0,0:0:0:0:
432,128,26005,2,0,P|455:174|440:224,1,105,2|0,1:2|3:2,0:0:0:0:
372,268,26251,2,0,P|320:264|284:226,1,105,2|0,3:2|0:0,0:0:0:0:
363,182,26497,1,2,0:0:0:0:
484,380,26661,1,2,1:2:0:0:
363,182,26825,1,2,0:0:0:0:
236,292,26989,6,0,P|252:236|304:212,1,105,2|2,1:2|0:0,0:0:0:0:
368,372,27317,2,0,P|311:386|264:353,1,105,2|2,1:2|3:2,0:0:0:0:
290,214,27645,6,0,P|274:158|222:134,1,105,0|0,1:2|3:2,0:0:0:0:
156,140,27891,2,0,P|115:181|120:238,1,105,2|0,0:0|0:0,0:0:0:0:
180,276,28137,2,0,P|211:269|242:276,1,52.5,2|0,1:2|0:0,0:0:0:0:
231,272,28628,6,0,P|149:299|132:346,1,131.25,2|0,0:0|0:0,0:0:0:0:
140,320,29120,6,0,P|143:285|132:244,1,68.2499968757631,10|0,0:0|0:0,0:0:0:0:
140,80,29284,2,0,P|136:114|148:156,1,68.2499968757631,10|0,0:0|0:0,0:0:0:0:
231,272,29448,2,0,P|227:237|239:196,1,68.2499968757631,10|0,0:0|0:0,0:0:0:0:
372,172,29612,6,0,B|293:136|293:200|219:170,1,157.5,6|0,1:0|0:0,0:0:0:0:
228,88,29940,6,0,B|249:55|249:55|252:108,1,78.7500030040742,12|0,0:0|0:0,0:0:0:0:
220,170,30104,1,0,0:0:0:0:
184,12,30268,6,0,P|120:0|60:72,1,157.5,2|0,1:2|0:0,0:0:0:0:
60,84,30596,1,10,0:0:0:0:
156,252,30759,2,0,P|189:284|208:348,1,105,2|0,0:0|3:2,0:0:0:0:
8,240,31087,2,0,P|20:212|64:200,1,52.5,2|0,3:2|0:0,0:0:0:0:
116,157,31251,2,0,P|164:169|224:169,1,105,8|2,0:0|0:0,0:0:0:0:
241,130,31497,1,2,0:0:0:0:
224,88,31579,6,0,B|209:65|209:65|208:91,1,52.5,2|0,1:2|0:0,0:0:0:0:
240,248,31743,2,0,B|254:270|254:270|255:244,1,52.5,0|0,1:2|0:0,0:0:0:0:
324,84,31907,2,0,B|312:164,1,52.5,10|0,0:0|0:0,0:0:0:0:
164,224,32071,2,0,L|108:244,2,35,2|2|2,0:0|0:0|0:0,0:0:0:0:
228,172,32235,6,0,P|320:196|324:280,1,157.5,2|0,1:2|0:0,0:0:0:0:
408,288,32563,6,0,B|424:276|445:281|445:281|424:272|416:256,1,78.7500030040742,12|0,0:0|0:0,0:0:0:0:
264,328,32727,1,2,0:0:0:0:
440,360,32891,2,0,L|476:192,1,157.5,2|0,1:2|0:0,0:0:0:0:
478,184,33219,1,10,0:0:0:0:
252,128,33382,6,0,B|292:140|320:136|344:100|352:88|414:102,1,157.5,2|0,0:0|3:2,0:0:0:0:
424,108,33710,1,2,3:2:0:0:
327,4,33874,1,10,0:0:0:0:
360,218,34038,1,2,0:0:0:0:
308,16,34202,6,0,P|281:14|255:-4,1,52.5,2|0,1:2|0:0,0:0:0:0:
168,144,34366,2,0,P|195:146|220:136,1,52.5,0|0,1:2|0:0,0:0:0:0:
344,200,34530,2,0,P|296:212|277:266,1,105,10|0,0:0|0:0,0:0:0:0:
324,328,34776,1,0,0:0:0:0:
324,328,34858,5,2,1:2:0:0:
300,124,35022,1,2,0:0:0:0:
480,200,35186,2,0,P|480:228|452:260,1,52.5,12|0,0:0|0:0,0:0:0:0:
324,328,35350,1,0,0:0:0:0:
376,204,35514,6,0,P|376:108|352:32,1,157.5,0|0,1:2|0:0,0:0:0:0:
338,50,35841,1,10,0:0:0:0:
120,184,36005,2,0,P|88:217|24:236,1,105,2|0,0:0|3:2,0:0:0:0:
132,36,36333,2,0,P|160:48|172:92,1,52.5,2|0,3:2|0:0,0:0:0:0:
215,144,36497,2,0,P|203:192|203:252,1,105,10|2,0:0|0:0,0:0:0:0:
242,269,36743,1,2,0:0:0:0:
284,252,36825,6,0,B|307:237|307:237|281:236,1,52.5,0|0,1:2|0:0,0:0:0:0:
124,268,36989,2,0,B|102:282|102:282|128:283,1,52.5,0|0,1:2|0:0,0:0:0:0:
308,360,37153,2,0,B|228:348,1,52.5,10|0,0:0|0:0,0:0:0:0:
215,144,37317,1,2,0:0:0:0:
208,268,37481,6,0,B|136:276|136:276|128:292|128:292|60:300,1,157.5,2|0,1:2|0:0,0:0:0:0:
0,244,37809,2,0,B|-12:220|-12:220|4:200,1,52.5,12|0,0:0|0:0,0:0:0:0:
136,372,37973,1,0,0:0:0:0:
220,188,38137,5,2,1:2:0:0:
96,8,38300,1,8,0:0:0:0:
124,248,38464,1,8,0:0:0:0:
340,136,38628,2,0,L|496:228,1,157.5,2|0,1:2|3:2,0:0:0:0:
328,276,38956,1,2,3:2:0:0:
452,52,39120,5,8,0:0:0:0:
448,48,39202,1,8,0:0:0:0:
444,52,39284,1,8,0:0:0:0:
440,48,39366,1,8,0:0:0:0:
392,68,39448,5,10,0:0:0:0:
388,72,39612,2,0,B|408:88|408:88|412:116,1,52.5,8|0,0:1|0:0,0:0:0:0:
266,110,39776,6,0,L|280:13,1,78.75,10|0,0:1|0:0,0:0:0:0:
203,0,40104,6,0,P|142:17|148:157,1,204.749990627289,6|0,1:0|0:0,0:0:0:0:
206,176,40432,2,0,P|266:158|260:18,1,204.749990627289,10|0,0:0|0:0,0:0:0:0:
204,88,40759,5,10,0:0:0:0:
0,160,40923,1,0,1:2:0:0:
204,88,41087,1,10,0:0:0:0:
0,160,41251,1,0,1:2:0:0:
183,260,41415,6,0,B|226:165|226:165|325:186,1,204.749990627289,10|0,0:0|0:0,0:0:0:0:
360,263,41743,2,0,B|317:358|317:358|218:336,1,204.749990627289,10|0,0:0|0:0,0:0:0:0:
272,261,42070,5,10,0:0:0:0:
276,8,42234,1,0,1:2:0:0:
272,261,42398,1,10,0:0:0:0:
276,8,42562,1,0,1:2:0:0:
57,130,42727,6,0,B|72:196|72:196|136:228|136:228|198:204,1,204.749990627289,10|0,0:0|0:0,0:0:0:0:
236,128,43055,2,0,B|221:62|221:62|157:30|157:30|94:54,1,204.749990627289,10|0,0:0|0:0,0:0:0:0:
145,130,43382,5,10,0:0:0:0:
344,316,43546,1,0,1:2:0:0:
145,130,43710,1,10,0:0:0:0:
344,316,43874,1,0,1:2:0:0:
85,214,44038,6,0,P|89:256|87:292,2,78.7500030040742,10|0|10,0:0|0:0|0:0,0:0:0:0:
213,255,44530,1,2,1:2:0:0:
85,214,44694,5,10,0:0:0:0:
341,230,44858,1,0,1:2:0:0:
117,122,45022,1,8,0:0:0:0:
69,134,45104,1,8,0:0:0:0:
17,146,45186,1,8,0:0:0:0:
341,230,45350,6,0,P|369:226|421:222,1,52.5,2|0,1:2|0:0,0:0:0:0:
508,80,45514,1,8,0:0:0:0:
512,28,45596,1,0,0:0:0:0:
460,12,45678,2,0,P|455:41|452:72,1,52.5,2|0,1:2|0:0,0:0:0:0:
336,96,45841,2,0,P|339:125|343:156,1,52.5,8|0,0:0|0:0,0:0:0:0:
412,308,46005,6,0,P|408:280|404:228,1,52.5,2|0,1:2|0:0,0:0:0:0:
262,141,46169,1,8,0:0:0:0:
210,137,46251,1,0,0:0:0:0:
194,189,46333,2,0,P|223:194|254:197,1,52.5,2|0,1:2|0:0,0:0:0:0:
348,308,46496,2,0,P|377:305|408:301,1,52.5,8|0,0:0|0:0,0:0:0:0:
160,268,46661,6,0,P|132:264|80:260,1,52.5,2|0,1:2|0:0,0:0:0:0:
133,130,46825,1,8,0:0:0:0:
129,78,46907,1,0,0:0:0:0:
181,62,46989,2,0,P|186:91|189:122,1,52.5,0|0,1:2|0:0,0:0:0:0:
305,146,47152,2,0,P|302:175|298:206,1,52.5,10|0,0:0|0:0,0:0:0:0:
229,358,47316,6,0,P|233:330|237:278,1,52.5,2|0,1:2|0:0,0:0:0:0:
379,191,47480,1,8,0:0:0:0:
431,187,47562,1,0,0:0:0:0:
447,239,47644,2,0,P|418:244|387:247,1,52.5,10|8,0:0|0:0,0:0:0:0:
276,268,47809,1,10,0:0:0:0:
224,276,47891,1,8,0:0:0:0:
175,251,47973,5,4,0:0:0:0:
139,211,48055,1,2,0:0:0:0:
87,219,48137,1,2,0:0:0:0:
67,267,48219,1,2,0:0:0:0:
99,307,48300,2,0,P|131:299|159:299,1,52.5,8|0,0:0|0:0,0:0:0:0:
259,339,48464,5,2,0:0:0:0:
267,335,48546,1,2,0:0:0:0:
275,331,48628,1,8,0:0:0:0:
311,371,48710,1,2,0:0:0:0:
363,363,48792,1,2,3:2:0:0:
383,315,48874,1,2,0:0:0:0:
351,275,48956,2,0,P|319:283|291:283,1,52.5,8|2,0:0|0:0,0:0:0:0:
215,179,49120,1,2,0:0:0:0:
211,171,49202,1,2,0:0:0:0:
207,163,49284,6,0,L|223:107,1,52.5,8|0,0:0|0:0,0:0:0:0:
415,71,49448,2,0,L|399:127,1,52.5,8|0,0:0|0:0,0:0:0:0:
219,27,49612,2,0,P|242:33|287:35,1,52.5,8|0,0:0|0:0,0:0:0:0:
387,203,49776,2,0,P|363:196|319:195,1,52.5,8|0,0:0|0:0,0:0:0:0:
56,132,49940,5,10,0:0:0:0:
112,128,50022,1,8,0:0:0:0:
168,124,50104,1,8,0:0:0:0:
224,120,50186,1,8,0:0:0:0:
280,116,50268,2,0,L|268:157,4,35,10|8|8|8|8,1:2|1:2|1:2|1:2|1:2,0:0:0:0:
336,284,50596,6,0,L|179:273,1,157.500006008148,6|0,1:0|0:0,0:0:0:0:
420,290,50923,5,0,1:2:0:0:
336,284,51251,1,2,1:2:0:0:
179,273,51415,1,0,1:2:0:0:
94,266,51579,1,0,1:2:0:0:
183,277,51743,6,0,L|340:288,1,157.500006008148,2|0,0:0|1:2,0:0:0:0:
340,288,52071,2,0,L|183:277,1,157.500006008148,2|0,3:2|1:2,0:0:0:0:
228,104,52399,6,0,L|306:109,1,78.7500030040742,8|0,1:2|0:0,0:0:0:0:
228,96,52727,6,0,L|306:101,1,78.7500030040742,8|0,1:2|0:0,0:0:0:0:
306,109,52891,2,0,L|228:104,1,78.7500030040742,8|0,1:2|0:0,0:0:0:0:
228,96,53055,2,0,L|306:101,1,78.7500030040742,8|0,1:2|0:0,0:0:0:0:
224,188,53219,6,0,L|302:193,1,78.7500030040742,10|0,1:2|0:0,0:0:0:0:
200,220,53382,5,0,3:2:0:0:
260,224,53464,1,0,3:2:0:0:
320,228,53546,2,0,L|178:219,1,119.699998538818,10|0,0:0|3:2,0:0:0:0:
224,188,53874,6,0,L|302:193,1,78.7500030040742,10|0,0:0|0:0,0:0:0:0:
304,184,54038,2,0,L|226:179,1,78.7500030040742,10|0,0:0|3:2,0:0:0:0:
192,8,54202,1,0,3:2:0:0:
386,179,54366,6,0,P|369:93|308:188,1,262.5,10|0,0:0|0:0,0:0:0:0:
360,284,54858,6,0,B|348:272|348:251|348:251|358:346|280:378|280:378|241:368|235:329|235:329|213:363|174:359|174:359|114:302|156:218|156:218|151:236|135:243,1,525,14|0,0:0|0:0,0:0:0:0:
72,192,55350,5,10,0:0:0:0:
248,172,55514,1,10,0:0:0:0:
424,152,55678,1,10,0:0:0:0:
512,292,55841,6,0,P|476:356|396:352,1,157.5,4|0,1:0|0:0,0:0:0:0:
316,292,56169,2,0,P|320:340|272:388,1,105,8|0,0:0|0:0,0:0:0:0:
228,368,56415,1,2,0:0:0:0:
232,312,56497,1,2,1:2:0:0:
512,292,56661,6,0,P|508:264|464:244,1,52.5,10|0,0:1|0:0,0:0:0:0:
344,128,56825,2,0,P|340:156|296:176,1,52.5,10|0,0:1|0:0,0:0:0:0:
496,240,56989,2,0,L|408:248,1,52.5,2|0,0:0|0:0,0:0:0:0:
248,224,57153,6,0,P|284:288|340:296,1,105,0|2,1:2|0:0,0:0:0:0:
328,292,57399,1,2,0:0:0:0:
404,264,57481,5,8,0:0:0:0:
395,218,57563,1,2,0:0:0:0:
348,212,57645,1,2,0:0:0:0:
399,236,57727,1,2,0:0:0:0:
455,221,57809,1,0,1:0:0:0:
488,177,57891,1,2,0:0:0:0:
486,121,57973,2,0,P|470:84|430:56,1,52.5,8|2,0:1|0:0,0:0:0:0:
352,56,58137,5,8,0:0:0:0:
301,72,58219,1,2,0:0:0:0:
272,28,58300,1,2,0:0:0:0:
221,44,58382,1,2,0:0:0:0:
192,0,58464,2,0,P|140:52|64:27,1,157.5,2|0,1:2|0:0,0:0:0:0:
28,104,58792,2,0,P|0:144|20:220,1,105,8|2,0:0|0:0,0:0:0:0:
12,208,59038,1,2,0:0:0:0:
48,280,59120,5,0,1:0:0:0:
94,289,59202,1,2,0:0:0:0:
100,336,59284,1,2,0:0:0:0:
73,279,59366,1,2,0:0:0:0:
89,216,59448,1,8,0:0:0:0:
138,180,59530,1,2,0:0:0:0:
200,182,59612,6,0,P|301:188|246:106,1,204.749990627289,2|0,0:0|0:0,0:0:0:0:
344,172,59940,1,2,0:0:0:0:
336,214,60022,1,2,0:0:0:0:
372,236,60104,5,8,0:0:0:0:
402,190,60186,1,0,0:0:0:0:
390,134,60268,1,2,0:0:0:0:
341,105,60350,1,2,0:0:0:0:
286,117,60432,1,0,1:2:0:0:
292,112,60596,6,0,P|296:85|296:59,1,52.5,8|0,0:1|0:0,0:0:0:0:
500,76,60759,2,0,P|479:92|466:113,1,52.5,8|0,0:0|0:0,0:0:0:0:
476,292,60922,1,2,0:0:0:0:
452,344,61004,1,2,0:0:0:0:
396,360,61087,5,2,1:2:0:0:
196,228,61251,1,0,0:0:0:0:
356,220,61415,1,8,0:0:0:0:
164,376,61579,2,0,P|104:380|68:276,1,157.5,2|0,0:0|0:0,0:0:0:0:
180,368,61907,5,2,0:0:0:0:
88,148,62071,1,8,0:0:0:0:
44,296,62235,1,2,0:0:0:0:
200,108,62399,2,0,P|213:57|228:-4,1,105,0|2,1:2|0:0,0:0:0:0:
404,304,62727,2,0,P|390:253|376:192,1,105,8|2,0:0|0:0,0:0:0:0:
144,244,63055,1,0,1:2:0:0:
144,244,63382,2,0,P|204:256|268:192,1,157.5,10|0,0:0|0:0,0:0:0:0:
328,128,63710,5,2,1:2:0:0:
56,128,63874,1,0,1:0:0:0:
328,128,64038,2,0,B|267:127|255:64|255:64|220:60|192:72|192:72|196:136|137:151,1,275.625002628565,12|0,0:0|0:0,0:0:0:0:
68,212,64366,5,2,1:2:0:0:
332,272,64530,1,0,1:0:0:0:
68,212,64694,2,0,B|125:226|121:290|121:290|152:304|184:298|184:298|196:235|257:234,1,275.625002628565,12|0,0:0|0:0,0:0:0:0:
299,352,65022,5,8,0:0:0:0:
127,88,65186,1,8,0:0:0:0:
421,201,65350,1,8,0:0:0:0:
117,283,65514,1,2,0:0:0:0:
315,38,65678,5,10,0:0:0:0:
312,96,65759,1,8,0:0:0:0:
279,143,65841,1,8,0:0:0:0:
229,167,65923,1,8,0:0:0:0:
172,163,66005,2,0,P|192:169|208:200,2,52.5000020027161,8|8|8,1:2|0:0|0:0,0:0:0:0:
120,92,66169,2,0,P|100:85|85:56,2,52.5000020027161,8|8|8,1:2|0:0|0:0,0:0:0:0:
200,15,66333,5,2,1:2:0:0:
212,12,66414,1,0,1:0:0:0:
225,9,66496,1,0,1:0:0:0:
238,7,66578,1,0,1:0:0:0:
315,38,66661,6,0,P|348:77|320:181,1,157.5,12|0,0:0|0:0,0:0:0:0:
360,252,66989,1,0,1:2:0:0:
504,72,67153,6,0,P|500:100|456:120,1,52.5,8|0,0:1|0:0,0:0:0:0:
326,78,67317,2,0,P|319:50|273:34,1,52.5,8|0,0:1|0:0,0:0:0:0:
510,198,67481,2,0,L|422:190,1,52.5,2|0,0:2|0:2,0:0:0:0:
246,146,67645,6,0,P|282:82|338:74,1,105,0|0,1:2|0:0,0:0:0:0:
326,78,67891,1,2,0:0:0:0:
402,106,67973,5,8,0:0:0:0:
393,152,68055,1,2,0:0:0:0:
346,158,68137,1,2,0:0:0:0:
397,133,68219,1,2,0:0:0:0:
453,148,68301,1,0,1:2:0:0:
486,192,68383,1,0,0:0:0:0:
484,248,68464,2,0,P|468:285|428:313,1,52.5,10|2,0:1|0:0,0:0:0:0:
378,325,68629,5,8,0:1:0:0:
338,288,68711,1,2,0:0:0:0:
362,241,68792,1,2,0:0:0:0:
322,205,68874,1,2,0:0:0:0:
346,158,68956,2,0,P|274:138|258:60,1,157.5,0|0,1:2|0:0,0:0:0:0:
174,68,69284,2,0,P|125:63|69:119,1,105,8|2,0:0|0:0,0:0:0:0:
76,106,69530,1,2,0:0:0:0:
32,173,69612,5,0,1:2:0:0:
47,218,69694,1,2,0:0:0:0:
9,246,69776,1,2,0:0:0:0:
45,194,69858,1,2,0:0:0:0:
107,177,69940,1,8,0:0:0:0:
163,201,70022,1,2,0:0:0:0:
192,256,70104,6,0,P|208:324|300:272,1,204.749990627289,2|0,0:0|0:0,0:0:0:0:
283,200,70432,1,2,0:0:0:0:
242,186,70514,1,2,0:0:0:0:
241,144,70596,5,8,0:0:0:0:
296,141,70678,1,0,0:0:0:0:
338,180,70760,1,2,0:0:0:0:
339,236,70842,1,2,0:0:0:0:
300,278,70924,1,0,1:2:0:0:
292,272,71088,6,0,P|296:299|296:325,1,52.5,10|0,0:1|0:0,0:0:0:0:
500,308,71251,2,0,P|479:292|466:271,1,52.5,10|0,0:1|0:0,0:0:0:0:
476,92,71414,1,2,0:0:0:0:
452,40,71496,1,2,0:0:0:0:
396,24,71579,5,4,1:0:0:0:
196,156,71743,1,0,0:0:0:0:
356,164,71907,1,8,0:0:0:0:
164,8,72071,2,0,P|104:4|68:108,1,157.5,2|0,0:0|0:0,0:0:0:0:
180,16,72399,5,2,1:2:0:0:
88,236,72563,1,8,0:0:0:0:
44,88,72727,1,2,0:0:0:0:
248,348,72891,5,8,0:0:0:0:
264,36,73055,1,8,0:0:0:0:
412,200,73219,1,10,0:0:0:0:
100,184,73383,1,10,0:0:0:0:
100,184,73710,1,0,1:2:0:0:
412,200,73874,1,8,0:0:0:0:
456,168,73956,1,8,0:0:0:0:
468,116,74038,1,8,0:0:0:0:
444,68,74120,1,8,0:0:0:0:
396,48,74202,5,8,0:0:0:0:
188,188,74366,1,0,1:2:0:0:
396,48,74530,2,0,B|389:36|389:36|325:117|325:117|340:126|340:126|297:191|297:191|273:194,1,236.250009012223,12|0,0:0|0:0,0:0:0:0:
236,116,74858,5,2,1:2:0:0:
444,256,75022,1,0,1:2:0:0:
236,116,75186,2,0,B|244:104|244:104|308:185|308:185|293:194|293:194|336:259|336:259|360:262,1,236.250009012223,12|0,0:0|0:0,0:0:0:0:
396,184,75514,5,10,0:0:0:0:
82,228,75678,1,8,0:0:0:0:
309,9,75842,1,8,0:0:0:0:
256,320,76006,1,0,1:2:0:0:
117,36,76170,5,10,0:0:0:0:
168,64,76251,1,8,0:0:0:0:
197,114,76333,1,8,0:0:0:0:
197,168,76415,1,8,0:0:0:0:
170,218,76497,2,0,P|181:207|228:200,2,52.5000020027161,8|8|8,1:2|0:0|0:0,0:0:0:0:
148,296,76661,2,0,P|136:306|98:310,2,52.5000020027161,8|8|8,1:2|0:0|0:0,0:0:0:0:
23,317,76825,6,0,P|25:292|38:267,1,52.5,6|0,1:0|0:0,0:0:0:0:
1,189,76989,2,0,P|23:178|51:177,1,52.5,2|0,1:2|0:0,0:0:0:0:
89,101,77153,2,0,P|109:115|124:139,1,52.5,10|0,0:0|0:0,0:0:0:0:
276,236,77317,6,0,P|226:297|203:375,1,157.5,2|0,1:2|0:0,0:0:0:0:
188,384,77645,2,0,P|180:356|180:332,1,52.5,2|0,1:2|0:0,0:0:0:0:
224,240,77809,2,0,P|248:223|270:216,1,52.5,10|0,0:0|0:0,0:0:0:0:
416,356,77973,6,0,B|388:320|406:275|426:287|442:243|414:207,1,157.5,6|0,1:2|0:0,0:0:0:0:
396,212,78300,2,0,P|392:244|416:284,1,52.5,2|0,1:2|0:0,0:0:0:0:
436,352,78464,2,0,P|440:320|416:280,1,52.5,10|0,0:0|0:0,0:0:0:0:
359,131,78628,6,0,P|387:52|432:124,1,210,2|8,1:2|0:1,0:0:0:0:
394,99,79120,1,8,0:1:0:0:
272,4,79284,1,0,1:2:0:0:
264,20,79366,1,0,1:2:0:0:
264,40,79448,5,4,1:0:0:0:
140,100,79612,1,0,1:2:0:0:
264,40,79776,1,8,0:0:0:0:
292,220,79940,6,0,B|239:214|204:267|204:267|201:203|152:182,1,210,0|0,1:2|1:2,0:0:0:0:
240,140,80432,1,8,0:0:0:0:
28,128,80596,6,0,B|16:72|60:32|60:32|117:46|136:96,1,210,4|0,1:0|1:2,0:0:0:0:
116,264,81005,1,0,1:2:0:0:
60,324,81087,6,0,B|88:348|79:383|79:383|91:349|127:343,1,131.25,10|0,0:0|1:2,0:0:0:0:
220,240,81333,1,0,1:2:0:0:
160,180,81415,6,0,B|150:139|182:109|182:109|226:118|240:157,1,157.500006008148,10|0,0:0|1:2,0:0:0:0:
368,264,81661,1,0,1:2:0:0:
320,332,81743,6,0,B|342:351|335:378|335:378|344:351|373:347,1,105,10|0,0:0|0:0,0:0:0:0:
496,240,81907,1,8,0:0:0:0:
512,200,81989,1,8,0:0:0:0:
512,156,82071,6,0,P|487:158|462:171,1,52.5,6|0,1:0|0:0,0:0:0:0:
389,129,82235,2,0,P|378:151|377:179,1,52.5,2|0,1:2|0:0,0:0:0:0:
301,217,82399,2,0,P|315:237|339:252,1,52.5,10|0,0:0|0:0,0:0:0:0:
164,99,82563,6,0,P|103:49|25:26,1,157.5,2|0,1:2|0:0,0:0:0:0:
16,11,82891,2,0,P|44:3|68:3,1,52.5,2|0,1:2|0:0,0:0:0:0:
160,47,83055,2,0,P|177:71|184:93,1,52.5,10|0,0:0|0:0,0:0:0:0:
44,239,83219,6,0,B|80:211|125:229|113:249|157:265|193:237,1,157.5,6|0,1:2|0:0,0:0:0:0:
188,219,83546,2,0,P|156:215|116:239,1,52.5,2|0,1:2|0:0,0:0:0:0:
48,259,83710,2,0,P|80:263|120:239,1,52.5,10|0,0:0|0:0,0:0:0:0:
244,304,83874,6,0,P|323:332|251:377,1,210,2|10,1:2|0:1,0:0:0:0:
276,339,84366,1,10,0:1:0:0:
291,211,84694,6,0,L|205:173,1,78.7500030040742,10|0,0:0|0:0,0:0:0:0:
221,173,85350,2,0,L|307:211,1,78.7500030040742,10|0,0:0|0:0,0:0:0:0:
293,227,85841,6,0,L|210:148,1,105,10|0,0:0|0:0,0:0:0:0:
228,148,86169,2,0,L|289:245,1,105,10|0,0:0|0:0,0:0:0:0:
271,242,86497,6,0,L|240:142,1,105,10|0,0:0|0:0,0:0:0:0:
254,138,86661,2,0,L|257:243,1,105,10|0,0:0|0:0,0:0:0:0:
243,243,86825,2,0,L|267:141,1,105,10|0,0:0|0:0,0:0:0:0:
281,145,86989,2,0,L|231:237,1,105,10|0,0:0|0:0,0:0:0:0:
357,280,87153,6,0,B|399:287|414:327|414:327|403:285|436:257,1,157.500006008148,6|0,1:0|0:0,0:0:0:0:
264,20,87481,1,10,0:0:0:0:
188,320,87645,1,2,0:0:0:0:
376,204,87809,1,14,0:0:0:0:
76,128,87973,1,10,0:0:0:0:
496,320,88219,6,0,L|508:364,2,39.3750015020371,2|2|2,0:0|0:0|0:0,0:0:0:0:
