osu file format v14

[General]
AudioFilename: audio.mp3
AudioLeadIn: 0
PreviewTime: 55268
Countdown: 0
SampleSet: Soft
StackLeniency: 0.7
Mode: 0
LetterboxInBreaks: 0
WidescreenStoryboard: 1

[Editor]
DistanceSpacing: 0.5
BeatDivisor: 4
GridSize: 4
TimelineZoom: 2.5

[Metadata]
Title:Himegoto*Crisisters (TV Size)
TitleUnicode:ひめごと*クライシスターズ (TV Size)
Artist:ONIMAI SISTERS
ArtistUnicode:ONIMAI SISTERS
Creator:-Yua
Version:OnLoong's In*sane
Source:お兄ちゃんはおしまい!
Tags:anime japanese pop jpop j-pop ending ed oniichan wa oshimai i'm now your sister! おにまい onimai onii-chan もみじ momiji みはり mihari 高野麻里佳 kouno marika 石原夏織 ishihara kaori 金元寿子 kanemoto hisako 津田美波 tsuda minami 緒山まひろ mahiro oyama 穂月かえで hoduki kaede yua Malphs Kirishima- MeAqua tete Present Onloong yf yf_bmp wen
BeatmapID:3966129
BeatmapSetID:1911312

[Difficulty]
HPDrainRate:4.5
CircleSize:3.8
OverallDifficulty:8
ApproachRate:9
SliderMultiplier:1.62
SliderTickRate:1

[Events]
//Background and Video events
0,0,"BG.jpg",0,0
Video,135,"ED.mp4"
//Break Periods
//Storyboard Layer 0 (Background)
//Storyboard Layer 1 (Fail)
//Storyboard Layer 2 (Pass)
//Storyboard Layer 3 (Foreground)
//Storyboard Layer 4 (Overlay)
//Storyboard Sound Samples

[TimingPoints]
760,327.868852459016,4,2,1,40,1,0
760,-138.888888888889,4,2,1,40,0,0
3601,-121.951219512195,4,2,1,40,0,0
4257,-108.695652173913,4,2,1,40,0,0
5514,-138.888888888889,4,2,1,40,0,0
6005,-138.888888888889,4,2,1,50,0,0
7153,-108.695652173913,4,2,1,50,0,0
8300,-192.307692307692,4,2,1,60,0,0
8628,-98.0392156862745,4,2,1,60,0,0
16497,-81.9672131147541,4,2,1,60,0,0
16989,-89.2857142857143,4,2,1,60,0,0
17481,-98.0392156862745,4,2,1,60,0,0
17809,-108.695652173913,4,2,1,60,0,0
19120,-108.695652173913,4,2,1,50,0,0
28628,-192.307692307693,4,2,1,50,0,0
29612,-98.0392156862746,4,2,1,55,0,0
40104,-89.2857142857143,4,2,1,55,0,0
45350,-98.0392156862745,4,2,1,55,0,0
49612,-89.2857142857143,4,2,1,55,0,0
50268,-81.9672131147541,4,2,1,55,0,0
50596,-98.0392156862745,4,2,1,55,0,0
53219,-89.2857142857143,4,2,1,55,0,0
54366,-108.695652173913,4,2,1,55,0,0
54858,-89.2857142857143,4,2,1,55,0,0
55841,-81.9672131147541,4,2,1,70,0,0
66005,-81.9672131147541,4,2,1,60,0,0
66333,-81.9672131147541,4,2,1,70,0,0
76497,-81.9672131147541,4,2,1,60,0,0
76825,-89.2857142857143,4,2,1,60,0,0
81087,-98.0392156862745,4,2,1,60,0,0
81415,-89.2857142857143,4,2,1,60,0,0
81743,-81.9672131147541,4,2,1,60,0,0
82071,-89.2857142857143,4,2,1,60,0,0
84694,-89.2857142857143,4,2,1,50,0,0

[Colours]
Combo1 : 129,129,129
Combo2 : 241,234,224
Combo3 : 255,204,230

[HitObjects]
4,159,760,6,0,P|26:206|53:284,1,116.640002847656,2|2,0:0|0:0,0:0:0:0:
99,347,1306,1,2,0:0:0:0:
99,346,1415,2,0,P|81:355|60:363,3,38.8800009492188,2|2|2|2,0:0|0:0|0:0|3:2,0:0:0:0:
180,232,2071,6,0,P|240:237|264:282,1,116.640002847656,2|2,0:0|0:0,0:0:0:0:
335,373,2617,2,0,L|351:329,1,38.8800009492188,2|2,0:0|0:0,0:0:0:0:
464,337,2945,5,2,0:0:0:0:
464,337,3055,2,0,L|452:299,3,38.8800009492188,2|2|2|2,0:0|0:0|0:0|0:0,0:0:0:0:
375,228,3601,5,2,0:0:0:0:
375,228,3710,2,0,L|395:188,3,44.2800006756592,2|2|2|2,0:0|0:0|0:0|0:0,0:0:0:0:
464,101,4257,5,2,0:0:0:0:
464,101,4366,2,0,L|514:84,2,49.6799983322754,2|2|2,0:0|0:0|0:0,0:0:0:0:
310,0,5022,5,2,0:0:0:0:
354,106,5514,6,0,P|365:77|381:48,2,58.3200014238282,2|0|2,0:0|0:0|0:0,0:0:0:0:
276,182,6005,5,10,0:0:0:0:
173,19,6333,1,2,0:0:0:0:
173,19,6661,5,8,0:0:0:0:
276,182,6825,1,2,0:0:0:0:
276,182,7153,6,0,B|178:215|249:230|152:261,1,149.039994996826,10|10,0:0|0:0,0:0:0:0:
175,148,7645,1,2,0:0:0:0:
293,267,7809,1,10,0:0:0:0:
65,298,7973,2,0,B|139:321|90:337|170:360,1,111.77999624762,2|0,1:2|0:0,0:0:0:0:
237,381,8300,6,0,B|240:359|240:359|262:373,1,42.1199997429199,2|0,0:0|0:0,0:0:0:0:
414,375,8628,6,0,P|420:355|427:335,3,41.3100002521362,6|2|2|2,1:0|0:0|0:0|0:0,0:0:0:0:
366,271,8956,2,0,P|359:251|352:231,3,41.3100002521362,10|2|2|2,0:0|0:0|0:0|0:0,0:0:0:0:
437,199,9284,1,2,1:2:0:0:
443,179,9365,1,2,0:0:0:0:
450,159,9447,1,2,0:0:0:0:
457,140,9529,1,2,0:0:0:0:
464,121,9612,2,0,P|457:101|450:81,3,41.3100002521362,10|2|2|2,0:0|0:0|0:0|0:0,0:0:0:0:
380,30,9940,6,0,P|348:59|306:57,1,82.6200005042725,2|2,1:2|0:0,0:0:0:0:
244,19,10186,1,2,0:0:0:0:
244,19,10268,2,0,L|219:69,3,41.3100002521362,10|2|2|10,0:0|0:0|1:2|0:3,0:0:0:0:
162,118,10596,2,0,L|177:171,1,41.3100002521362,6|2,0:3|0:0,0:0:0:0:
151,308,10759,5,10,0:1:0:0:
11,133,10923,2,0,B|-24:174|-24:174|10:246,1,123.930000756409,10|2,0:1|0:0,0:0:0:0:
39,311,11251,6,0,P|47:329|55:348,3,41.3100002521362,2|2|2|2,1:2|0:0|0:0|0:0,0:0:0:0:
168,304,11579,2,0,P|187:311|206:319,3,41.3100002521362,10|2|2|2,0:0|0:0|0:0|0:0,0:0:0:0:
295,262,11907,1,2,1:2:0:0:
319,251,11988,1,2,0:0:0:0:
344,241,12070,1,2,0:0:0:0:
370,233,12152,1,2,0:0:0:0:
395,225,12235,2,0,P|431:211|454:204,1,41.3100002521362,10|2,0:0|0:0,0:0:0:0:
502,116,12399,2,0,P|466:102|443:95,1,41.3100002521362,2|2,0:0|0:0,0:0:0:0:
380,24,12563,6,0,P|365:65|351:108,1,82.6200005042725,2|2,1:2|0:0,0:0:0:0:
347,143,12809,1,2,0:0:0:0:
347,143,12891,1,10,0:0:0:0:
197,78,13055,2,0,P|191:59|183:39,2,41.3100002521362,2|0|2,0:0|0:0|1:2,0:0:0:0:
267,196,13382,5,10,0:1:0:0:
122,309,13546,2,0,B|162:282|162:282|229:325,1,123.930000756409,10|0,0:1|0:0,0:0:0:0:
292,372,13874,6,0,P|322:343|366:340,1,82.6200005042725,10|2,0:0|0:0,0:0:0:0:
440,369,14120,1,10,0:0:0:0:
215,318,14366,2,0,P|162:280|45:272,1,165.240001008545,10|0,0:0|1:2,0:0:0:0:
0,114,14858,6,0,P|40:112|74:85,1,82.6200005042725,8|2,0:0|0:0,0:0:0:0:
107,13,15104,1,8,0:0:0:0:
210,177,15350,6,0,B|233:107|233:107|242:101|242:101|270:21,1,165.240001008545,10|8,0:0|0:0,0:0:0:0:
351,122,15841,6,0,P|370:115|390:101,3,41.3100002521362,10|2|2|2,0:0|0:0|0:0|0:0,0:0:0:0:
421,29,16169,1,10,0:0:0:0:
441,33,16250,1,2,1:2:0:0:
460,38,16332,1,2,1:2:0:0:
479,43,16414,1,2,0:0:0:0:
501,47,16497,6,0,P|468:113|453:169,1,98.8199959287416,12|0,0:0|0:0,0:0:0:0:
505,209,16743,1,14,0:0:0:0:
386,367,16989,6,0,P|367:290|342:246,1,90.7200011074219,12|0,0:0|0:0,0:0:0:0:
295,228,17235,1,12,0:0:0:0:
505,209,17481,6,0,P|486:246|477:285,1,82.6200005042725,8|8,0:0|0:0,0:0:0:0:
386,367,17809,6,0,P|403:372|420:380,3,37.2599987492066,10|2|2|2,0:0|0:0|0:0|0:0,0:0:0:0:
268,315,18137,2,0,P|251:322|233:328,3,37.2599987492066,10|2|2|2,0:0|0:0|0:0|0:0,0:0:0:0:
367,253,18464,1,10,0:0:0:0:
370,243,18545,1,10,0:0:0:0:
373,233,18627,1,10,0:0:0:0:
377,223,18709,1,10,0:0:0:0:
381,213,18791,1,10,0:0:0:0:
507,70,19120,6,0,P|448:93|416:101,1,74.5199974984132,0|2,1:2|0:0,0:0:0:0:
322,51,19448,1,2,1:2:0:0:
408,16,19612,1,2,1:2:0:0:
355,137,19776,2,0,P|298:145|256:101,1,111.77999624762,2|0,1:2|0:0,0:0:0:0:
104,15,20268,5,2,0:0:0:0:
138,154,20432,2,0,P|161:125|165:89,1,74.5199974984132,2|2,1:2|0:0,0:0:0:0:
0,116,20759,2,0,P|37:150|20:211,1,111.77999624762,2|0,1:2|3:2,0:0:0:0:
81,383,21251,5,2,1:2:0:0:
0,337,21415,1,2,1:2:0:0:
81,383,21579,1,2,1:2:0:0:
151,317,21743,1,2,1:2:0:0:
229,370,21907,2,0,P|268:370|297:352,2,74.5199974984132,2|2|2,0:0|1:2|3:2,0:0:0:0:
283,258,22399,2,0,P|340:259|377:301,1,111.77999624762,0|2,1:2|0:0,0:0:0:0:
512,363,22891,6,0,B|482:359|464:383|464:383|501:286,1,149.039994996826,2|2,0:0|0:0,0:0:0:0:
439,218,23382,1,2,1:2:0:0:
510,152,23546,1,2,3:2:0:0:
446,86,23710,1,2,1:2:0:0:
370,143,23874,6,0,P|352:149|335:156,2,37.2599987492066,2|2|2,0:0|0:0|1:2,0:0:0:0:
256,107,24202,1,2,0:0:0:0:
256,107,24284,1,2,0:0:0:0:
256,107,24366,1,2,1:2:0:0:
278,227,24530,6,0,P|312:238|346:255,2,74.5199974984132,2|2|2,0:0|1:2|3:2,0:0:0:0:
168,306,25022,2,0,P|93:272|36:277,1,111.77999624762,2|2,1:2|0:0,0:0:0:0:
0,122,25514,5,2,0:0:0:0:
80,171,25678,1,2,1:2:0:0:
124,86,25841,1,2,0:0:0:0:
190,144,26005,2,0,P|236:120|271:110,1,74.5199974984132,2|0,1:2|3:2,0:0:0:0:
276,57,26251,2,0,P|325:88|396:101,1,111.77999624762,2|2,3:2|0:0,0:0:0:0:
503,64,26661,5,2,1:2:0:0:
416,20,26825,1,2,0:0:0:0:
463,148,26989,1,2,1:2:0:0:
376,100,27153,5,2,0:0:0:0:
463,148,27317,1,2,1:2:0:0:
411,227,27481,1,2,3:2:0:0:
497,290,27645,2,0,P|447:303|397:341,1,111.77999624762,0|2,1:2|0:0,0:0:0:0:
208,366,28137,5,2,1:2:0:0:
208,366,28628,2,0,P|176:342|117:346,1,84.2399994858398,2|2,0:0|0:0,0:0:0:0:
4,243,29120,5,10,0:0:0:0:
149,159,29284,1,10,0:0:0:0:
17,330,29448,1,10,0:0:0:0:
48,129,29612,6,0,P|64:167|81:214,1,82.6200005042725,6|0,1:0|0:0,0:0:0:0:
214,294,29940,2,0,P|228:255|244:217,1,82.6200005042725,10|0,0:0|0:0,0:0:0:0:
137,34,30268,2,0,B|240:74|165:92|270:134,1,165.240001008545,2|10,1:2|0:0,0:0:0:0:
356,17,30759,2,0,P|306:20|284:54,1,82.6200005042725,2|0,0:0|3:2,0:0:0:0:
433,143,31087,2,0,P|447:104|463:66,1,82.6200005042725,2|8,3:2|0:0,0:0:0:0:
324,201,31415,1,2,0:0:0:0:
436,292,31579,6,0,P|474:275|512:262,1,82.6200005042725,2|0,1:2|1:2,0:0:0:0:
301,189,31907,2,0,P|262:205|224:218,1,82.6200005042725,10|0,0:0|0:0,0:0:0:0:
311,380,32235,2,0,P|325:341|364:257,1,123.930000756409,2|0,1:2|0:0,0:0:0:0:
427,217,32563,5,10,0:0:0:0:
269,108,32727,1,2,0:0:0:0:
398,50,32891,2,0,P|381:88|365:126,1,82.6200005042725,2|0,1:2|0:0,0:0:0:0:
201,231,33219,1,10,0:0:0:0:
316,286,33382,2,0,P|290:207|258:131,1,165.240001008545,2|2,0:0|3:2,0:0:0:0:
132,0,33874,5,10,0:0:0:0:
293,59,34038,1,2,0:0:0:0:
159,160,34202,2,0,P|177:114|197:64,1,82.6200005042725,2|0,1:2|1:2,0:0:0:0:
11,3,34530,2,0,P|29:42|42:79,1,82.6200005042725,10|0,0:0|0:0,0:0:0:0:
144,251,34858,5,2,1:2:0:0:
0,166,35022,1,2,0:0:0:0:
135,91,35186,2,0,P|119:129|106:172,1,82.6200005042725,10|0,0:0|0:0,0:0:0:0:
31,348,35514,2,0,P|16:309|0:271,1,82.6200005042725,0|0,1:2|1:2,0:0:0:0:
200,353,35841,1,10,0:0:0:0:
238,254,36005,2,0,P|158:250|108:312,1,165.240001008545,2|2,0:0|3:2,0:0:0:0:
347,375,36497,2,0,P|381:354|392:306,1,82.6200005042725,10|2,0:0|0:0,0:0:0:0:
295,151,36825,5,0,1:2:0:0:
512,206,36989,1,0,1:2:0:0:
312,287,37153,1,10,0:0:0:0:
434,97,37317,1,2,0:0:0:0:
424,273,37481,6,0,P|407:232|393:196,1,82.6200005042725,2|0,1:2|0:0,0:0:0:0:
300,40,37809,2,0,P|287:79|273:118,1,82.6200005042725,10|0,0:0|0:0,0:0:0:0:
225,321,38137,5,2,1:2:0:0:
121,110,38300,1,8,0:0:0:0:
50,281,38464,1,8,0:0:0:0:
9,163,38628,6,0,P|86:191|160:232,1,165.240001008545,2|2,1:2|3:2,0:0:0:0:
314,187,39120,1,8,0:0:0:0:
327,171,39201,1,8,0:0:0:0:
336,153,39283,1,8,0:0:0:0:
339,132,39365,1,8,0:0:0:0:
335,112,39447,1,10,0:0:0:0:
244,27,39612,5,8,0:1:0:0:
335,112,39776,1,10,0:1:0:0:
512,5,40104,6,0,P|455:22|401:35,1,90.7200011074219,6|0,1:0|0:0,0:0:0:0:
322,127,40432,2,0,P|378:144|431:172,1,90.7200011074219,10|0,0:0|0:0,0:0:0:0:
511,264,40759,1,10,0:0:0:0:
475,102,40923,1,0,1:2:0:0:
364,236,41087,2,0,P|381:292|394:346,1,90.7200011074219,10|0,0:0|1:2,0:0:0:0:
237,380,41415,6,0,B|139:326|176:403|45:337,1,181.440002214844,10|10,0:0|0:0,0:0:0:0:
0,227,41907,1,2,0:0:0:0:
131,269,42071,2,0,P|175:265|206:233,1,90.7200011074219,10|0,0:0|1:2,0:0:0:0:
250,78,42399,1,10,0:0:0:0:
130,181,42563,1,0,1:2:0:0:
291,210,42727,6,0,P|307:162|335:98,1,90.7200011074219,10|0,0:0|0:0,0:0:0:0:
147,31,43055,2,0,P|165:73|179:116,1,90.7200011074219,10|0,0:0|0:0,0:0:0:0:
297,234,43382,2,0,P|313:186|341:122,1,90.7200011074219,10|0,0:0|1:2,0:0:0:0:
129,29,43710,2,0,P|147:71|161:114,1,90.7200011074219,10|0,0:0|1:2,0:0:0:0:
175,289,44038,6,0,B|68:239|102:307|-4:269,1,181.440002214844,10|10,0:0|0:0,0:0:0:0:
122,195,44530,1,2,1:2:0:0:
173,374,44694,2,0,P|223:364|254:327,1,90.7200011074219,10|0,0:0|1:2,0:0:0:0:
86,342,45022,1,8,0:0:0:0:
86,342,45104,1,8,0:0:0:0:
86,342,45186,1,8,0:0:0:0:
257,249,45350,6,0,P|299:257|327:296,1,82.6200005042725,2|8,1:2|0:0,0:0:0:0:
393,369,45678,2,0,P|401:349|409:331,2,41.3100002521362,2|2|10,1:2|0:0|0:0,0:0:0:0:
512,209,46005,2,0,P|485:239|445:246,1,82.6200005042725,2|8,1:2|0:0,0:0:0:0:
358,160,46333,2,0,P|366:178|374:197,2,41.3100002521362,2|2|10,1:2|0:0|0:0,0:0:0:0:
478,84,46661,6,0,P|493:45|512:9,1,82.6200005042725,2|8,1:2|0:0,0:0:0:0:
325,2,46989,1,0,1:2:0:0:
392,75,47153,1,10,0:0:0:0:
283,180,47317,2,0,P|268:141|248:105,1,82.6200005042725,2|8,1:2|0:0,0:0:0:0:
99,31,47645,1,10,0:0:0:0:
113,17,47726,1,8,0:0:0:0:
133,10,47808,1,10,0:0:0:0:
153,12,47890,1,8,0:0:0:0:
171,22,47973,6,0,P|152:86|112:197,1,165.240001008545,6|8,0:0|0:0,0:0:0:0:
13,220,48464,1,2,0:0:0:0:
184,285,48628,1,8,0:0:0:0:
114,368,48792,2,0,P|91:315|64:273,1,82.6200005042725,0|8,3:2|0:0,0:0:0:0:
200,201,49120,1,2,0:0:0:0:
241,350,49284,6,0,P|261:344|281:343,3,41.3100002521362,10|0|8|0,0:0|0:0|0:0|0:0,0:0:0:0:
319,260,49612,2,0,P|340:266|361:275,3,45.3600005537109,8|0|8|0,0:0|0:0|0:0|0:0,0:0:0:0:
446,243,49940,1,10,0:0:0:0:
461,258,50021,1,8,0:0:0:0:
473,277,50103,1,8,0:0:0:0:
484,297,50185,1,8,0:0:0:0:
490,319,50268,2,0,P|472:331|457:344,4,32.9399986429139,10|8|8|8|8,1:2|1:2|1:2|1:2|1:2,0:0:0:0:
444,190,50596,6,0,P|488:163|525:135,1,82.6200005042725,6|0,1:0|0:0,0:0:0:0:
444,7,50923,2,0,P|423:54|402:110,1,82.6200005042725,0|2,1:2|3:2,0:0:0:0:
297,207,51251,1,2,1:2:0:0:
312,63,51415,2,0,P|333:103|354:159,1,82.6200005042725,0|0,0:0|1:2,0:0:0:0:
300,315,51743,6,0,P|249:282|204:274,1,82.6200005042725,2|0,0:0|1:2,0:0:0:0:
62,365,52071,2,0,P|116:337|145:302,1,82.6200005042725,2|0,3:2|1:2,0:0:0:0:
135,142,52399,2,0,P|131:202|147:245,1,82.6200005042725,8|0,1:2|0:0,0:0:0:0:
208,365,52727,5,8,1:2:0:0:
225,182,52891,1,8,1:2:0:0:
57,265,53055,1,8,1:2:0:0:
258,273,53219,6,0,P|299:287|336:314,1,90.7200011074219,10|0,1:2|3:2,0:0:0:0:
507,146,53546,2,0,P|468:159|431:197,1,90.7200011074219,10|0,0:0|3:2,0:0:0:0:
439,354,53874,1,10,0:0:0:0:
326,201,54038,2,0,P|337:179|358:147,3,45.3600005537109,10|0|0|0,0:0|3:2|3:2|3:2,0:0:0:0:
339,69,54366,6,0,B|240:92|312:114|204:141,1,149.039994996826,10|0,0:0|0:0,0:0:0:0:
72,21,54858,6,0,B|101:48|102:90|102:90|115:98|127:72|127:72|104:119|115:185,1,226.800002768555,14|0,0:0|0:0,0:0:0:0:
66,250,55350,5,10,0:0:0:0:
208,151,55514,1,10,0:0:0:0:
16,122,55678,1,10,0:0:0:0:
176,251,55841,6,0,P|149:312|132:361,1,98.8199959287416,6|0,1:0|0:0,0:0:0:0:
338,384,56169,2,0,P|311:323|294:274,1,98.8199959287416,10|0,0:0|0:0,0:0:0:0:
408,200,56497,1,2,1:2:0:0:
505,329,56661,2,0,P|480:318|443:305,1,49.4099979643708,10|0,0:1|0:0,0:0:0:0:
458,354,56825,2,0,P|433:343|396:330,1,49.4099979643708,10|0,0:1|0:0,0:0:0:0:
313,194,56989,6,0,P|357:110|458:115,1,197.639991857483,2|0,0:0|0:0,0:0:0:0:
312,17,57481,2,0,P|252:48|192:62,1,98.8199959287416,10|0,0:0|0:0,0:0:0:0:
84,205,57809,1,2,1:2:0:0:
80,53,57973,2,0,P|98:85|110:104,1,49.4099979643708,10|0,0:1|0:0,0:0:0:0:
114,5,58137,2,0,P|132:37|162:103,1,98.8199959287416,10|0,0:1|0:0,0:0:0:0:
263,236,58464,6,0,P|237:195|185:198,1,98.8199959287416,2|0,1:2|0:0,0:0:0:0:
16,325,58792,2,0,P|64:345|108:374,1,98.8199959287416,10|0,0:0|0:0,0:0:0:0:
93,172,59120,2,0,P|45:192|1:221,1,98.8199959287416,2|0,1:2|0:0,0:0:0:0:
160,281,59448,1,10,0:0:0:0:
223,137,59612,6,0,P|293:144|328:207,1,148.229993893112,2|0,0:0|0:0,0:0:0:0:
279,270,59940,1,0,0:0:0:0:
410,354,60104,1,10,0:0:0:0:
411,158,60268,1,0,0:0:0:0:
262,285,60432,1,2,1:2:0:0:
512,230,60596,2,0,P|503:253|494:276,1,49.4099979643708,8|0,0:1|0:0,0:0:0:0:
415,281,60759,2,0,P|428:246|454:178,1,98.8199959287416,10|0,0:1|0:0,0:0:0:0:
435,30,61087,6,0,P|382:39|355:78,1,98.8199959287416,2|0,1:2|0:0,0:0:0:0:
366,152,61333,1,0,0:0:0:0:
366,152,61415,1,10,0:0:0:0:
204,182,61579,2,0,P|249:90|286:-27,1,197.639991857483,2|2,0:0|0:0,0:0:0:0:
165,55,62071,1,10,0:0:0:0:
296,180,62235,1,2,0:0:0:0:
133,227,62399,6,0,P|119:183|97:133,1,98.8199959287416,2|2,1:2|0:0,0:0:0:0:
0,27,62727,1,10,0:0:0:0:
0,242,62891,2,0,B|121:292|35:311|157:366,1,197.639991857483,2|0,0:0|0:0,0:0:0:0:
249,200,63382,2,0,P|200:211|173:251,1,98.8199959287416,10|0,0:0|0:0,0:0:0:0:
337,373,63710,5,6,1:2:0:0:
444,193,63874,1,0,0:0:0:0:
253,292,64038,2,0,P|303:308|355:326,1,98.8199959287416,10|0,0:0|0:0,0:0:0:0:
425,298,64284,1,0,0:0:0:0:
425,298,64366,5,2,1:2:0:0:
249,169,64530,1,0,0:0:0:0:
419,113,64694,2,0,P|469:97|521:79,1,98.8199959287416,10|0,0:0|0:0,0:0:0:0:
290,9,65022,5,10,0:0:0:0:
365,220,65186,1,8,0:0:0:0:
218,69,65350,5,8,0:0:0:0:
148,271,65514,1,2,0:0:0:0:
73,51,65678,6,0,P|62:21|52:-3,3,49.4099979643708,10|8|8|8,0:0|0:0|0:0|0:0,0:0:0:0:
141,107,66005,2,0,P|134:122|128:138,4,32.9399986429139,8|8|8|8|8,1:2|0:0|0:0|1:2|0:0,0:0:0:0:
50,167,66333,5,2,1:2:0:0:
52,172,66414,1,0,1:2:0:0:
55,178,66496,1,0,1:2:0:0:
57,183,66578,1,0,1:2:0:0:
60,189,66661,6,0,P|36:249|10:297,1,98.8199959287416,14|0,0:0|0:0,0:0:0:0:
143,384,66989,1,2,1:2:0:0:
198,218,67153,2,0,P|167:230|141:239,1,49.4099979643708,10|0,0:1|0:0,0:0:0:0:
171,274,67317,2,0,P|138:288|114:295,1,49.4099979643708,10|0,0:1|0:0,0:0:0:0:
288,345,67481,6,0,P|359:359|436:248,1,197.639991857483,2|0,1:2|0:0,0:0:0:0:
286,163,67973,2,0,P|319:224|333:258,1,98.8199959287416,10|0,0:0|0:0,0:0:0:0:
482,185,68300,1,2,1:2:0:0:
378,48,68464,2,0,P|369:76|357:105,1,49.4099979643708,10|0,0:1|0:0,0:0:0:0:
441,39,68628,2,0,P|427:71|401:144,1,98.8199959287416,10|0,0:1|0:0,0:0:0:0:
226,263,68956,6,0,P|164:230|177:166,1,98.8199959287416,2|0,1:2|0:0,0:0:0:0:
224,0,69284,2,0,P|226:69|164:89,1,98.8199959287416,10|0,0:0|0:0,0:0:0:0:
1,144,69612,2,0,P|59:107|108:150,1,98.8199959287416,2|0,1:2|0:0,0:0:0:0:
254,168,69940,1,10,0:0:0:0:
71,289,70104,6,0,P|139:316|263:395,1,197.639991857483,2|0,0:0|0:0,0:0:0:0:
422,282,70596,1,10,0:0:0:0:
220,255,70759,1,2,0:0:0:0:
360,162,70923,1,2,1:2:0:0:
284,322,71087,2,0,P|293:344|302:367,1,49.4099979643708,10|0,0:1|0:0,0:0:0:0:
381,365,71251,2,0,P|371:339|339:261,1,98.8199959287416,10|0,0:1|0:0,0:0:0:0:
398,69,71579,6,0,P|462:79|485:124,1,98.8199959287416,6|0,1:0|0:0,0:0:0:0:
282,206,71907,1,10,0:0:0:0:
281,29,72071,2,0,P|303:73|321:119,1,98.8199959287416,2|0,0:0|0:0,0:0:0:0:
168,253,72399,2,0,P|185:206|204:161,1,98.8199959287416,2|8,1:2|0:0,0:0:0:0:
81,40,72727,1,2,0:0:0:0:
0,261,72891,5,10,0:0:0:0:
157,99,73055,1,10,0:0:0:0:
80,337,73219,1,10,0:0:0:0:
0,116,73382,2,0,B|124:187|21:179|159:267,1,197.639991857483,10|0,0:0|1:2,0:0:0:0:
263,113,73874,5,10,0:0:0:0:
238,110,73955,1,8,0:0:0:0:
215,118,74037,1,8,0:0:0:0:
196,134,74119,1,8,0:0:0:0:
185,156,74201,5,8,0:0:0:0:
327,253,74366,1,0,1:2:0:0:
190,354,74530,2,0,P|207:312|236:252,1,98.8199959287416,14|0,0:0|0:0,0:0:0:0:
356,73,74858,5,2,1:2:0:0:
207,161,75023,1,0,1:2:0:0:
344,262,75187,2,0,P|327:220|298:160,1,98.8199959287416,14|0,0:0|0:0,0:0:0:0:
187,29,75514,5,10,0:0:0:0:
182,40,75596,1,8,0:0:0:0:
177,51,75678,1,8,0:0:0:0:
171,62,75760,1,8,0:0:0:0:
166,74,75841,2,0,P|176:98|187:120,3,49.4099979643708,8|8|8|8,0:2|0:0|0:2|0:0,0:0:0:0:
143,187,76169,2,0,P|133:209|124:235,3,49.4099979643708,10|0|0|0,1:2|1:0|1:0|1:0,0:0:0:0:
66,305,76497,1,8,1:2:0:0:
73,319,76578,1,0,1:0:0:0:
77,335,76660,1,0,1:0:0:0:
79,351,76742,1,0,1:0:0:0:
84,367,76825,6,0,P|44:345|0:335,1,90.7200011074219,6|2,1:0|1:2,0:0:0:0:
97,234,77153,1,10,0:0:0:0:
215,369,77317,2,0,P|269:325|391:317,1,181.440002214844,2|2,1:2|1:2,0:0:0:0:
512,218,77809,1,10,0:0:0:0:
504,380,77973,6,0,P|491:336|465:300,1,90.7200011074219,6|0,1:2|0:0,0:0:0:0:
366,132,78300,1,2,1:2:0:0:
512,220,78464,1,10,0:0:0:0:
398,239,78628,2,0,P|440:175|485:72,1,181.440002214844,2|8,1:2|0:1,0:0:0:0:
499,35,79038,1,0,0:0:0:0:
499,35,79120,1,8,0:1:0:0:
357,0,79284,1,0,1:2:0:0:
275,113,79448,6,0,P|218:138|181:123,1,90.7200011074219,4|0,1:0|1:2,0:0:0:0:
134,0,79776,1,8,0:0:0:0:
43,104,79940,2,0,P|22:162|-8:201,1,90.7200011074219,0|0,1:2|0:0,0:0:0:0:
158,277,80268,2,0,P|134:238|120:195,1,90.7200011074219,0|8,1:2|0:0,0:0:0:0:
36,374,80596,6,0,B|149:331|95:396|223:349,1,181.440002214844,4|0,1:0|1:2,0:0:0:0:
304,346,81005,1,0,1:2:0:0:
304,346,81087,2,0,P|317:370|327:397,1,41.3100002521362,10|0,0:0|0:0,0:0:0:0:
225,274,81251,5,0,1:2:0:0:
225,274,81333,1,0,1:2:0:0:
224,273,81415,2,0,P|199:272|175:268,1,45.3600005537109,10|0,0:0|0:0,0:0:0:0:
322,243,81579,5,0,1:2:0:0:
322,243,81661,1,0,1:2:0:0:
321,243,81743,2,0,P|332:223|348:195,1,49.4099979643708,10|0,0:0|0:0,0:0:0:0:
243,177,81907,5,8,0:0:0:0:
243,177,81989,1,8,0:0:0:0:
243,177,82071,2,0,P|225:125|207:90,1,90.7200011074219,6|2,1:0|1:2,0:0:0:0:
105,10,82399,1,10,0:0:0:0:
268,0,82563,2,0,P|306:23|350:35,1,90.7200011074219,2|0,1:2|0:0,0:0:0:0:
489,11,82891,5,2,1:2:0:0:
368,129,83055,1,10,0:0:0:0:
499,198,83219,2,0,P|478:152|461:106,1,90.7200011074219,6|0,1:2|0:0,0:0:0:0:
343,214,83546,5,2,1:2:0:0:
499,305,83710,1,10,0:0:0:0:
371,384,83874,2,0,P|392:338|409:292,1,90.7200011074219,2|0,1:2|0:0,0:0:0:0:
227,159,84202,5,10,0:1:0:0:
310,317,84366,1,10,0:1:0:0:
440,140,84530,1,2,0:0:0:0:
327,224,84694,5,10,0:0:0:0:
259,52,85022,1,2,0:0:0:0:
259,52,85350,5,10,0:0:0:0:
327,224,85514,1,2,0:0:0:0:
327,224,85841,6,0,B|213:254|289:281|169:313,1,181.440002214844,10|10,0:0|0:0,0:0:0:0:
219,190,86333,1,2,0:0:0:0:
326,315,86497,1,10,0:0:0:0:
394,131,86661,1,10,0:0:0:0:
228,365,86825,5,10,0:0:0:0:
359,222,86989,1,10,0:0:0:0:
213,383,87153,6,0,B|109:330|181:322|71:276,1,181.440002214844,6|10,1:0|0:0,0:0:0:0:
16,163,87645,1,2,0:0:0:0:
199,247,87809,1,14,0:0:0:0:
18,356,87973,1,10,0:0:0:0:
18,356,88219,6,0,L|38:366,2,22.6800002768555,2|2|2,0:0|0:0|0:0,0:0:0:0:
