osu file format v14

[General]
AudioFilename: audio.mp3
AudioLeadIn: 0
PreviewTime: 55268
Countdown: 0
SampleSet: Soft
StackLeniency: 0.4
Mode: 0
LetterboxInBreaks: 0
WidescreenStoryboard: 1

[Editor]
DistanceSpacing: 1.4
BeatDivisor: 4
GridSize: 4
TimelineZoom: 1.4

[Metadata]
Title:Himegoto*Crisisters (TV Size)
TitleUnicode:ひめごと*クライシスターズ (TV Size)
Artist:ONIMAI SISTERS
ArtistUnicode:ONIMAI SISTERS
Creator:-Yua
Version:MeAqua's Ha*rd
Source:お兄ちゃんはおしまい!
Tags:anime japanese pop jpop j-pop ending ed oniichan wa oshimai i'm now your sister! おにまい onimai onii-chan もみじ momiji みはり mihari 高野麻里佳 kouno marika 石原夏織 ishihara kaori 金元寿子 kanemoto hisako 津田美波 tsuda minami 緒山まひろ mahiro oyama 穂月かえで hoduki kaede yua Malphs Kirishima- MeAqua tete Present Onloong yf yf_bmp wen
BeatmapID:3956921
BeatmapSetID:1911312

[Difficulty]
HPDrainRate:4
CircleSize:3
OverallDifficulty:7
ApproachRate:8
SliderMultiplier:1.4
SliderTickRate:1

[Events]
//Background and Video events
0,0,"BG.jpg",0,0
Video,135,"ED.mp4"
//Break Periods
//Storyboard Layer 0 (Background)
//Storyboard Layer 1 (Fail)
//Storyboard Layer 2 (Pass)
//Storyboard Layer 3 (Foreground)
//Storyboard Layer 4 (Overlay)
//Storyboard Sound Samples

[TimingPoints]
760,327.868852459016,4,2,1,40,1,0
5022,-100,4,2,1,40,0,0
6005,-100,4,2,1,50,0,0
8300,-100,4,2,1,60,0,0
8628,-100,4,2,1,60,0,0
13874,-100,4,2,1,80,0,0
19120,-100,4,2,1,50,0,0
29612,-100,4,2,1,55,0,0
40104,-100,4,2,1,65,0,0
45350,-100,4,2,1,55,0,0
55841,-90.9090909090909,4,2,1,70,0,1
66005,-90.9090909090909,4,2,1,60,0,1
66333,-90.9090909090909,4,2,1,70,0,1
76497,-90.9090909090909,4,2,1,60,0,1
76825,-100,4,2,1,60,0,0
84694,-100,4,2,1,50,0,0

[Colours]
Combo1 : 129,129,129
Combo2 : 241,234,224
Combo3 : 255,204,230

[HitObjects]
80,61,6005,5,10,0:0:0:0:
80,61,6661,5,8,0:0:0:0:
173,168,7153,6,0,L|324:182,2,140,10|10|10,0:0|0:0|0:0,0:0:0:0:
71,195,7973,1,2,1:2:0:0:
154,371,8300,1,2,0:0:0:0:
337,301,8628,6,0,L|426:309,1,70,6|2,1:0|0:0,0:0:0:0:
454,220,8956,2,0,L|365:212,1,70,10|2,0:0|0:0,0:0:0:0:
303,157,9284,1,2,1:2:0:0:
293,142,9366,1,2,0:0:0:0:
290,124,9448,1,2,0:0:0:0:
292,106,9530,1,2,0:0:0:0:
295,88,9612,2,0,L|311:51,2,35,10|2|2,0:0|0:0|0:0,0:0:0:0:
202,122,9940,6,0,L|128:130,1,70,2|2,1:2|0:0,0:0:0:0:
38,160,10268,1,10,0:0:0:0:
31,143,10350,1,2,0:0:0:0:
32,125,10432,1,2,1:2:0:0:
37,108,10514,1,10,0:3:0:0:
50,97,10596,2,0,L|41:59,3,35,6|2|10|2,0:3|0:0|0:1|0:0,0:0:0:0:
80,33,10923,2,0,L|89:-5,2,35,10|2|2,0:1|0:0|0:0,0:0:0:0:
166,80,11251,6,0,L|235:87,1,70,2|2,1:2|0:0,0:0:0:0:
331,63,11579,1,10,0:0:0:0:
347,57,11661,1,2,0:0:0:0:
364,55,11743,1,2,0:0:0:0:
380,59,11825,1,2,0:0:0:0:
395,67,11907,2,0,L|439:73,3,35,2|2|2|2,1:2|0:0|0:0|0:0,0:0:0:0:
470,96,12235,2,0,L|514:90,2,35,10|2|2,0:0|0:0|0:0,0:0:0:0:
399,165,12563,6,0,L|385:259,1,70,2|2,1:2|0:0,0:0:0:0:
305,286,12891,2,0,L|291:192,1,70,10|2,0:0|0:0,0:0:0:0:
313,120,13219,5,2,1:2:0:0:
217,100,13382,1,10,0:1:0:0:
198,196,13546,1,10,0:1:0:0:
5,158,13874,6,0,L|17:262,1,105,10|10,0:0|0:0,0:0:0:0:
133,353,14366,2,0,L|115:202,1,140,10|0,0:0|1:2,0:0:0:0:
85,120,14858,6,0,L|189:107,1,105,8|8,0:0|0:0,0:0:0:0:
265,233,15350,2,0,L|404:249,1,140,10|8,0:0|0:0,0:0:0:0:
470,177,15841,2,0,L|512:172,2,35,8|0|2,0:0|0:0|0:0,0:0:0:0:
381,134,16169,2,0,L|339:129,2,35,10|0|2,0:0|1:2|1:2,0:0:0:0:
458,72,16497,5,12,0:0:0:0:
319,23,16743,1,14,0:0:0:0:
225,136,16989,1,12,0:0:0:0:
308,257,17235,1,12,0:0:0:0:
452,220,17481,2,0,L|475:307,1,70,8|8,0:0|0:0,0:0:0:0:
415,370,17809,6,0,L|293:359,1,105,8|0,0:0|0:0,0:0:0:0:
270,331,18137,2,0,L|148:342,1,105,8|0,0:0|0:0,0:0:0:0:
123,315,18464,1,8,0:0:0:0:
118,298,18546,1,8,0:0:0:0:
114,280,18628,2,0,L|123:235,2,35,8|8|10,0:0|0:0|0:0,0:0:0:0:
10,112,19120,5,0,1:2:0:0:
97,68,19284,2,0,L|107:-4,2,70,2|2|2,0:0|1:2|1:2,0:0:0:0:
152,149,19776,2,0,L|224:159,1,70,2|0,1:2|0:0,0:0:0:0:
264,183,20022,1,0,0:0:0:0:
392,111,20268,5,2,0:0:0:0:
438,198,20432,2,0,L|428:267,1,70,2|2,1:2|0:0,0:0:0:0:
355,332,20759,2,0,L|283:342,1,70,2|0,1:2|3:2,0:0:0:0:
252,378,21005,1,0,3:2:0:0:
133,291,21251,2,0,L|122:198,3,70,2|2|2|2,1:2|1:2|1:2|1:2,0:0:0:0:
223,205,21907,5,2,0:0:0:0:
161,129,22071,2,0,L|170:59,1,70,2|2,1:2|3:2,0:0:0:0:
268,44,22399,2,0,L|258:116,1,70,0|0,1:2|3:2,0:0:0:0:
293,148,22645,1,2,0:0:0:0:
399,190,22891,2,0,L|419:334,1,140,2|2,0:0|0:0,0:0:0:0:
334,380,23382,2,0,L|264:370,2,70,2|2|2,1:2|3:2|1:2,0:0:0:0:
418,328,23874,2,0,L|408:258,3,70,2|2|2|2,0:0|1:2|0:0|1:2,0:0:0:0:
309,252,24530,5,2,0:0:0:0:
236,186,24694,2,0,L|164:196,1,70,2|2,1:2|3:2,0:0:0:0:
116,280,25022,2,0,L|46:270,1,70,2|0,1:2|3:2,0:0:0:0:
13,241,25268,2,0,L|22:171,1,70,2|0,0:0|0:0,0:0:0:0:
66,149,25514,5,2,0:0:0:0:
66,149,25678,1,2,1:2:0:0:
60,51,25841,1,2,0:0:0:0:
147,94,26005,2,0,L|219:104,1,70,2|0,1:2|3:2,0:0:0:0:
257,76,26251,1,2,3:2:0:0:
403,93,26497,2,0,L|412:163,3,70,2|2|2|2,0:0|1:2|0:0|1:2,0:0:0:0:
406,261,27153,5,2,0:0:0:0:
374,353,27317,2,0,L|302:363,1,70,2|2,1:2|3:2,0:0:0:0:
209,338,27645,2,0,L|199:266,1,70,0|0,1:2|3:2,0:0:0:0:
161,236,27891,2,0,L|89:246,1,70,2|0,0:0|0:0,0:0:0:0:
48,221,28137,1,2,1:2:0:0:
48,221,29120,5,10,0:0:0:0:
3,118,29284,1,10,0:0:0:0:
106,73,29448,1,10,0:0:0:0:
151,176,29612,2,0,L|229:188,1,70,6|0,1:0|0:0,0:0:0:0:
316,209,29940,6,0,L|302:130,1,70,10|0,0:0|0:0,0:0:0:0:
266,48,30268,2,0,L|422:72,1,140,2|10,1:2|0:0,0:0:0:0:
461,148,30759,2,0,L|437:304,1,140,2|2,0:0|3:2,0:0:0:0:
500,363,31251,2,0,L|541:357,2,35,8|0|2,0:0|0:0|0:0,0:0:0:0:
402,377,31579,1,2,1:2:0:0:
402,377,31743,1,0,1:2:0:0:
340,300,31907,2,0,L|241:284,1,70,10|0,0:0|0:0,0:0:0:0:
190,346,32235,1,2,1:2:0:0:
24,252,32563,5,10,0:0:0:0:
24,252,32727,1,2,0:0:0:0:
90,180,32891,2,0,L|232:209,1,140,2|10,1:2|0:0,0:0:0:0:
304,147,33382,2,0,L|275:5,1,140,2|2,0:0|3:2,0:0:0:0:
373,27,33874,2,0,L|387:95,1,70,10|2,0:0|0:0,0:0:0:0:
470,43,34201,5,2,1:2:0:0:
456,239,34530,2,0,L|441:307,1,70,10|0,0:0|0:0,0:0:0:0:
359,363,34858,1,2,1:2:0:0:
285,298,35022,5,2,0:0:0:0:
285,298,35186,2,0,L|216:312,1,70,10|0,0:0|0:0,0:0:0:0:
141,248,35514,2,0,L|170:106,1,140,0|10,1:2|0:0,0:0:0:0:
254,61,36005,2,0,L|322:75,1,70,2|0,0:0|3:2,0:0:0:0:
384,158,36333,1,2,3:2:0:0:
384,158,36497,2,0,L|315:172,1,70,10|2,0:0|0:0,0:0:0:0:
262,246,36825,5,0,1:2:0:0:
181,222,36989,1,0,1:2:0:0:
178,134,37153,1,10,0:0:0:0:
257,105,37317,1,2,0:0:0:0:
315,172,37481,2,0,L|384:158,1,70,2|0,1:2|0:0,0:0:0:0:
454,227,37809,6,0,L|440:296,1,70,10|0,0:0|0:0,0:0:0:0:
359,352,38137,2,0,L|277:336,2,70,2|8|8,1:2|0:0|0:0,0:0:0:0:
349,254,38628,1,2,1:2:0:0:
157,296,38956,5,2,3:2:0:0:
99,216,39120,1,8,0:0:0:0:
91,200,39202,1,8,0:0:0:0:
88,182,39284,2,0,L|95:138,2,35,8|8|10,0:0|0:0|0:0,0:0:0:0:
247,68,39776,5,10,0:1:0:0:
319,2,39940,1,2,0:1:0:0:
382,77,40105,2,0,L|451:83,1,70,6|0,1:0|0:0,0:0:0:0:
409,171,40432,2,0,L|339:177,1,70,10|0,0:0|0:0,0:0:0:0:
253,142,40759,1,10,0:0:0:0:
253,142,40923,1,0,1:2:0:0:
218,228,41087,1,10,0:0:0:0:
218,228,41251,1,0,1:2:0:0:
304,263,41415,6,0,L|443:250,1,140,10|10,0:0|0:0,0:0:0:0:
464,346,41907,1,2,0:0:0:0:
372,381,42071,2,0,L|302:374,1,70,10|0,0:0|1:2,0:0:0:0:
222,316,42399,1,10,0:0:0:0:
304,263,42563,1,0,1:2:0:0:
224,206,42727,6,0,L|154:212,1,70,10|0,0:0|0:0,0:0:0:0:
58,236,43055,2,0,L|64:166,1,70,10|0,0:0|0:0,0:0:0:0:
111,82,43382,1,10,0:0:0:0:
111,82,43546,1,0,1:2:0:0:
198,125,43710,1,10,0:0:0:0:
198,125,43874,1,0,1:2:0:0:
255,45,44038,6,0,L|394:57,1,140,10|10,0:0|0:0,0:0:0:0:
430,149,44530,1,2,1:2:0:0:
341,189,44694,2,0,L|271:182,1,70,10|0,0:0|1:2,0:0:0:0:
195,120,45022,1,8,0:0:0:0:
35,217,45350,5,2,1:2:0:0:
1,309,45514,1,8,0:0:0:0:
83,361,45678,2,0,L|152:367,1,70,2|8,1:2|0:0,0:0:0:0:
243,331,46005,5,2,1:2:0:0:
280,240,46169,1,8,0:0:0:0:
213,168,46333,2,0,L|144:162,1,70,2|8,1:2|0:0,0:0:0:0:
97,76,46661,6,0,L|236:88,1,140,2|0,1:2|1:2,0:0:0:0:
319,35,47153,1,10,0:0:0:0:
377,113,47317,2,0,L|366:197,1,70,2|8,1:2|0:0,0:0:0:0:
448,249,47645,1,10,0:0:0:0:
448,249,47809,1,10,0:0:0:0:
412,338,47973,6,0,L|273:350,1,140,6|8,0:0|0:0,0:0:0:0:
205,278,48464,1,2,0:0:0:0:
260,196,48628,2,0,L|269:126,2,70,8|0|8,0:0|3:2|0:0,0:0:0:0:
89,110,49284,5,10,0:0:0:0:
89,110,49448,1,8,0:0:0:0:
124,206,49612,1,8,0:0:0:0:
124,206,49776,1,8,0:0:0:0:
33,254,49940,2,0,L|28:295,3,35,10|8|8|8,0:0|0:0|0:0|0:0,0:0:0:0:
65,321,50268,2,0,L|134:330,1,70,10|8,1:2|1:2,0:0:0:0:
222,286,50596,6,0,L|240:146,2,140,6|0|2,1:0|1:2|1:2,0:0:0:0:
400,367,51579,1,0,1:2:0:0:
383,270,51743,2,0,L|365:130,1,140,2|2,0:0|3:2,0:0:0:0:
170,103,52399,1,8,1:2:0:0:
188,297,52727,5,8,1:2:0:0:
101,343,52891,1,8,1:2:0:0:
57,255,53055,1,8,1:2:0:0:
142,207,53219,2,0,L|136:118,1,70,10|0,1:2|3:2,0:0:0:0:
224,92,53546,2,0,L|230:181,1,70,10|0,0:0|3:2,0:0:0:0:
295,234,53874,2,0,L|339:241,1,35,10|0,0:0|0:0,0:0:0:0:
375,220,54038,2,0,L|409:214,1,35,10|0,0:0|3:2,0:0:0:0:
381,359,54366,6,0,L|233:336,1,140,10|0,0:0|0:0,0:0:0:0:
145,321,54858,2,0,L|132:161,1,140,14|0,0:0|0:0,0:0:0:0:
206,114,55350,1,10,0:0:0:0:
206,114,55514,1,10,0:0:0:0:
156,29,55678,1,10,0:0:0:0:
83,96,55841,6,0,L|2:105,1,77.0000023498536,6|0,1:0|0:0,0:0:0:0:
57,189,56169,2,0,L|133:180,1,77.0000023498536,10|0,0:0|0:0,0:0:0:0:
231,228,56497,1,2,1:2:0:0:
318,164,56661,2,0,L|309:87,1,77.0000023498536,10|10,0:1|0:1,0:0:0:0:
404,36,56989,6,0,L|421:188,1,154.000004699707,2|0,0:0|0:0,0:0:0:0:
506,257,57481,2,0,L|497:334,1,77.0000023498536,10|0,0:0|0:0,0:0:0:0:
396,374,57809,1,2,1:2:0:0:
313,304,57973,2,0,L|236:295,1,77.0000023498536,10|10,0:1|0:1,0:0:0:0:
31,227,58464,6,0,L|25:150,1,77.0000023498536,2|0,1:2|0:0,0:0:0:0:
18,41,58792,2,0,L|94:35,1,77.0000023498536,10|0,0:0|0:0,0:0:0:0:
204,28,59120,2,0,L|209:104,1,77.0000023498536,2|0,1:2|0:0,0:0:0:0:
215,213,59448,1,10,0:0:0:0:
322,204,59612,6,0,L|311:50,1,154.000004699707,2|0,0:0|0:0,0:0:0:0:
410,5,60104,2,0,L|415:81,1,77.0000023498536,10|0,0:0|0:0,0:0:0:0:
486,163,60432,1,2,1:2:0:0:
452,265,60596,2,0,L|375:270,1,77.0000023498536,8|10,0:1|0:1,0:0:0:0:
176,353,61087,6,0,L|99:348,2,77.0000023498536,2|0|10,1:2|0:0|0:0,0:0:0:0:
263,288,61579,2,0,L|252:134,1,154.000004699707,2|2,0:0|0:0,0:0:0:0:
158,79,62071,2,0,L|153:156,1,77.0000023498536,10|2,0:0|0:0,0:0:0:0:
119,261,62399,1,2,1:2:0:0:
119,261,62563,1,2,0:0:0:0:
33,194,62727,1,10,0:0:0:0:
68,92,62891,2,0,L|73:15,1,77.0000023498536,2|0,0:0|1:2,0:0:0:0:
285,49,63382,6,0,L|374:58,1,77.0000023498536,10|0,0:0|0:0,0:0:0:0:
468,39,63710,1,6,1:2:0:0:
468,39,63874,1,0,0:0:0:0:
415,133,64038,2,0,L|407:209,1,77.0000023498536,10|0,0:0|0:0,0:0:0:0:
429,320,64366,1,2,1:2:0:0:
429,320,64530,1,0,0:0:0:0:
335,267,64694,2,0,L|258:259,1,77.0000023498536,10|0,0:0|0:0,0:0:0:0:
180,162,65022,6,0,L|257:154,1,77.0000023498536,10|8,0:0|0:0,0:0:0:0:
315,63,65350,2,0,L|238:55,1,77.0000023498536,8|2,0:0|0:0,0:0:0:0:
138,12,65678,1,10,0:0:0:0:
120,19,65759,1,8,0:0:0:0:
107,33,65841,1,8,0:0:0:0:
100,51,65923,1,8,0:0:0:0:
99,70,66005,2,0,L|89:193,1,115.50000352478,8|0,1:2|0:0,0:0:0:0:
62,232,66333,6,0,L|65:277,3,38.5000011749268,2|0|0|0,1:2|1:2|1:2|1:2,0:0:0:0:
101,310,66661,2,0,L|178:318,1,77.0000023498536,14|0,0:0|0:0,0:0:0:0:
275,364,66989,1,2,1:2:0:0:
332,272,67153,2,0,L|340:195,1,77.0000023498536,10|10,0:1|0:1,0:0:0:0:
247,139,67481,6,0,L|93:155,1,154.000004699707,2|0,1:2|0:0,0:0:0:0:
0,209,67973,2,0,L|8:132,1,77.0000023498536,10|0,0:0|0:0,0:0:0:0:
75,48,68300,1,2,1:2:0:0:
93,154,68464,2,0,L|85:231,1,77.0000023498536,10|10,0:1|0:1,0:0:0:0:
276,330,68956,6,0,L|372:320,1,77.0000023498536,2|0,1:2|0:0,0:0:0:0:
399,224,69284,2,0,L|342:145,1,77.0000023498536,10|0,0:0|0:0,0:0:0:0:
246,171,69612,2,0,L|206:259,1,77.0000023498536,2|0,1:2|0:0,0:0:0:0:
276,330,69940,1,10,0:0:0:0:
180,380,70104,6,0,L|18:363,1,154.000004699707,2|0,0:0|0:0,0:0:0:0:
6,257,70596,2,0,L|13:180,2,77.0000023498536,10|2|2,0:0|0:0|1:2,0:0:0:0:
110,285,71087,2,0,L|186:292,1,77.0000023498536,10|10,0:1|0:1,0:0:0:0:
391,224,71579,6,0,L|253:235,1,115.50000352478,6|0,1:0|0:0,0:0:0:0:
231,201,71907,1,10,0:0:0:0:
295,114,72071,2,0,L|387:125,1,77.0000023498536,2|0,0:0|0:0,0:0:0:0:
466,175,72399,2,0,L|475:98,1,77.0000023498536,2|8,1:2|0:0,0:0:0:0:
429,0,72727,1,2,0:0:0:0:
325,9,72891,5,10,0:0:0:0:
325,9,73055,1,10,0:0:0:0:
295,114,73219,1,10,0:0:0:0:
295,114,73382,2,0,L|313:266,1,154.000004699707,10|0,0:0|1:2,0:0:0:0:
400,331,73874,2,0,L|437:343,2,38.5000011749268,10|8|8,0:0|0:0|0:0,0:0:0:0:
298,370,74202,6,0,L|210:377,1,77.0000023498536,8|0,0:0|1:2,0:0:0:0:
138,304,74530,2,0,L|50:297,1,77.0000023498536,14|0,0:0|0:0,0:0:0:0:
5,205,74858,2,0,L|-2:117,1,77.0000023498536,2|0,1:2|1:2,0:0:0:0:
88,66,75186,2,0,L|95:154,1,77.0000023498536,14|0,0:0|0:0,0:0:0:0:
172,226,75514,5,10,0:0:0:0:
172,226,75678,1,8,0:0:0:0:
268,175,75841,1,8,0:0:0:0:
268,175,76005,1,0,1:2:0:0:
331,262,76169,2,0,L|326:307,3,38.5000011749268,10|8|8|8,0:0|0:0|0:0|0:0,0:0:0:0:
284,335,76497,2,0,L|138:343,1,115.50000352478,8|0,1:2|0:0,0:0:0:0:
127,364,76825,5,6,1:0:0:0:
127,364,76989,1,2,1:2:0:0:
51,301,77153,1,10,0:0:0:0:
94,213,77317,2,0,L|253:204,1,140,2|2,1:2|1:2,0:0:0:0:
325,168,77809,1,10,0:0:0:0:
246,109,77973,2,0,L|106:116,1,140,6|2,1:2|1:2,0:0:0:0:
32,52,78464,1,10,0:0:0:0:
125,22,78628,2,0,L|284:13,1,140,2|8,1:2|0:1,0:0:0:0:
360,38,79120,2,0,L|397:17,2,35,8|0|0,0:1|0:0|1:2,0:0:0:0:
293,110,79448,5,4,1:0:0:0:
293,110,79612,1,0,1:2:0:0:
374,164,79776,1,8,0:0:0:0:
289,212,79940,2,0,L|269:312,1,70,0|0,1:2|0:0,0:0:0:0:
195,338,80268,2,0,L|181:269,1,70,0|8,1:2|0:0,0:0:0:0:
83,283,80596,2,0,L|110:145,1,140,4|0,1:0|1:2,0:0:0:0:
172,69,81087,6,0,L|253:56,1,70,10|0,0:0|1:2,0:0:0:0:
293,141,81415,2,0,L|223:152,1,70,10|0,0:0|1:2,0:0:0:0:
179,240,81743,1,10,0:0:0:0:
266,305,81907,1,8,0:0:0:0:
266,305,81989,1,8,0:0:0:0:
266,305,82071,2,0,L|281:377,2,70,6|2|10,1:0|1:2|0:0,0:0:0:0:
355,263,82563,6,0,L|380:121,1,140,2|2,1:2|1:2,0:0:0:0:
375,26,83055,1,10,0:0:0:0:
291,77,83219,2,0,L|266:214,1,140,6|2,1:2|1:2,0:0:0:0:
182,265,83710,1,10,0:0:0:0:
177,165,83875,2,0,L|192:74,1,70,2|0,1:2|0:0,0:0:0:0:
140,12,84202,1,10,0:1:0:0:
144,16,84366,1,10,0:1:0:0:
46,26,84530,1,2,0:0:0:0:
18,120,84694,5,10,0:0:0:0:
224,317,85350,5,10,0:0:0:0:
348,223,85841,6,0,L|339:74,2,140,10|10|10,0:0|0:0|0:0,0:0:0:0:
405,302,86661,2,0,L|479:312,2,70,10|10|10,0:0|0:0|0:0,0:0:0:0:
330,366,87153,2,0,L|163:379,1,140,6|10,1:0|0:0,0:0:0:0:
139,292,87645,1,2,0:0:0:0:
198,215,87809,1,14,0:0:0:0:
198,215,87973,1,10,0:0:0:0:
12,277,88300,5,2,0:0:0:0:
