osu file format v14

[General]
AudioFilename: audio.mp3
AudioLeadIn: 0
PreviewTime: 32312
Countdown: 0
SampleSet: Soft
StackLeniency: 0.7
Mode: 0
LetterboxInBreaks: 0
WidescreenStoryboard: 0

[Editor]
DistanceSpacing: 1.4
BeatDivisor: 4
GridSize: 4
TimelineZoom: 1

[Metadata]
Title:The Way Back
TitleUnicode:The Way Back
Artist:ONE OK ROCK
ArtistUnicode:ONE OK ROCK
Creator:Hazu-
Version:Expert
Source:
Tags:
BeatmapID:1582097
BeatmapSetID:751515

[Difficulty]
HPDrainRate:7
CircleSize:4
OverallDifficulty:8
ApproachRate:9
SliderMultiplier:1.8
SliderTickRate:1

[Events]
//Background and Video events
0,0,"The Way Back.jpg",0,0
//Break Periods
2,2412,4412
2,5612,6612
//Storyboard Layer 0 (Background)
//Storyboard Layer 1 (Fail)
//Storyboard Layer 2 (Pass)
//Storyboard Layer 3 (Foreground)
//Storyboard Sound Samples

[TimingPoints]
1812,400,4,2,1,60,1,0
1812,-133.333333333333,4,2,1,60,0,0
8212,-125,4,2,1,60,0,0
21012,-125,4,2,1,65,0,0
32412,-111.111111111111,4,2,1,70,0,0
33812,-100,4,2,1,80,0,1
46612,-125,4,2,1,65,0,0
72212,-100,4,2,1,80,0,1
97812,400,4,1,0,80,1,0
101012,396.039603960396,4,1,0,80,1,0
104180,392.156862745098,4,1,0,80,1,0
107317,390.879478827362,4,1,0,80,1,0
110444,389.61038961039,4,1,0,80,1,0
122911,400,4,1,0,80,1,0
138911,-100,4,1,0,80,0,1
164511,387.096774193548,4,1,0,80,1,0

[Colours]
Combo1 : 86,165,228
Combo2 : 255,219,145
Combo3 : 196,152,231
Combo4 : 255,138,180
Combo5 : 238,159,81
Combo6 : 231,99,99

[HitObjects]
196,220,1812,5,8,0:0:0:0:
440,148,2212,1,8,0:0:0:0:
132,128,5012,5,8,0:0:0:0:
400,244,5412,1,8,0:0:0:0:
188,140,7212,5,8,0:3:0:0:
188,140,7312,1,8,0:3:0:0:
188,140,7412,2,0,P|192:172|196:224,1,67.5000025749208,8|8,0:3|0:3,0:0:0:0:
272,96,7812,2,0,P|276:128|280:180,1,67.5000025749208,8|8,0:3|0:3,0:0:0:0:
352,264,8212,6,0,B|440:248|404:300|496:284,2,144,4|0|8,0:0|3:0|3:1,0:0:0:0:
256,304,9212,1,0,0:0:0:0:
256,304,9412,1,0,3:0:0:0:
272,136,9612,6,0,P|276:164|280:236,1,72,0|0,0:0|3:0,0:0:0:0:
352,96,10012,2,0,P|356:124|360:196,1,72,0|0,0:0|3:0,0:0:0:0:
104,112,10412,2,0,P|108:140|112:212,1,72,0|8,0:0|3:1,0:0:0:0:
184,72,10812,2,0,P|188:100|192:172,1,72,0|0,0:0|3:0,0:0:0:0:
176,280,11212,1,0,0:0:0:0:
180,292,11312,1,8,0:1:0:0:
184,304,11412,6,0,P|132:288|48:348,2,144,8|0|8,3:1|3:0|3:1,0:0:0:0:
272,360,12412,1,0,0:0:0:0:
272,360,12612,1,0,3:0:0:0:
268,200,12812,6,0,P|272:232|276:288,1,72,0|0,0:0|3:0,0:0:0:0:
352,164,13212,2,0,P|356:196|360:252,1,72,0|0,0:0|3:0,0:0:0:0:
184,212,13612,2,0,P|180:180|176:124,1,72,0|8,0:0|3:1,0:0:0:0:
100,248,14012,2,0,P|96:216|92:160,1,72,0|0,0:0|3:0,0:0:0:0:
180,52,14412,1,0,0:0:0:0:
188,44,14512,1,8,0:1:0:0:
196,36,14612,6,0,B|251:32|251:32|285:49|285:49|360:44,2,144,8|0|8,3:1|3:0|3:1,0:0:0:0:
112,92,15612,1,0,0:0:0:0:
112,92,15812,1,0,3:0:0:0:
264,148,16012,6,0,P|228:150|192:155,1,72,0|0,0:0|3:0,0:0:0:0:
300,228,16412,2,0,P|264:230|228:235,1,72,0|0,0:0|3:0,0:0:0:0:
444,160,16812,2,0,P|408:162|372:167,1,72,0|8,0:0|3:1,0:0:0:0:
480,240,17212,2,0,P|444:242|408:247,1,72,0|0,0:0|3:0,0:0:0:0:
264,168,17612,1,0,0:0:0:0:
260,180,17712,1,8,0:1:0:0:
256,192,17812,6,0,P|264:232|276:344,2,144,8|0|8,0:1|3:0|3:1,0:0:0:0:
164,180,18812,1,0,0:0:0:0:
164,180,19012,2,0,P|172:208|180:268,1,72,0|0,3:0|0:0,0:0:0:0:
352,136,19412,6,0,P|292:96|216:116,1,144,0|0,3:0|3:0,0:0:0:0:
144,168,20012,1,8,0:3:0:0:
148,156,20112,1,8,0:3:0:0:
152,144,20212,2,0,P|152:104|144:64,1,72,8|8,0:3|0:3,0:0:0:0:
56,120,20612,2,0,P|56:160|64:200,1,72,8|0,0:3|3:0,0:0:0:0:
168,276,21012,6,0,B|256:288|224:236|308:248,1,144,4|0,0:0|3:0,0:0:0:0:
408,288,21612,1,0,0:0:0:0:
368,132,21812,2,0,P|372:164|376:216,1,72,8|0,3:2|0:0,0:0:0:0:
424,300,22212,1,0,3:0:0:0:
296,264,22412,6,0,P|272:260|212:256,1,72,0|0,0:0|3:0,0:0:0:0:
156,340,22812,2,0,P|191:342|227:347,1,72,0|0,0:0|3:0,0:0:0:0:
80,216,23212,2,0,P|68:246|76:292,1,72,0|8,0:0|3:2,0:0:0:0:
163,152,23612,2,0,P|141:126|99:110,1,72,0|0,0:0|3:0,0:0:0:0:
181,242,24012,1,2,0:3:0:0:
184,255,24112,1,0,0:0:0:0:
187,267,24212,6,0,P|257:282|318:244,1,144,0|0,3:0|3:0,0:0:0:0:
408,196,24812,2,0,P|400:228|396:284,1,72,0|8,0:0|3:2,0:0:0:0:
336,128,25212,1,0,0:0:0:0:
336,128,25412,1,0,3:0:0:0:
232,224,25612,6,0,P|272:216|312:212,1,72,0|0,0:0|3:0,0:0:0:0:
228,312,26012,2,0,P|268:304|308:300,1,72,0|0,0:0|3:0,0:0:0:0:
84,176,26412,2,0,P|124:168|164:164,1,72,0|8,0:0|3:2,0:0:0:0:
80,264,26812,2,0,P|120:256|160:252,1,72,0|0,0:0|3:0,0:0:0:0:
260,120,27212,1,2,0:3:0:0:
256,104,27312,1,0,0:0:0:0:
252,88,27412,6,0,P|204:48|120:64,1,144,0|0,3:0|3:0,0:0:0:0:
60,124,28012,1,0,0:0:0:0:
160,216,28212,2,0,P|156:172|144:128,1,72,8|0,3:2|0:0,0:0:0:0:
44,116,28612,1,0,3:0:0:0:
24,256,28812,6,0,P|32:296|36:340,1,72,0|0,0:0|3:0,0:0:0:0:
128,352,29212,2,0,P|123:316|116:280,1,72,0|0,0:0|3:0,0:0:0:0:
276,184,29612,2,0,P|283:219|287:255,1,72,0|8,0:0|3:2,0:0:0:0:
195,231,30012,2,0,P|191:195|184:160,1,72,0|0,0:0|3:0,0:0:0:0:
360,76,30412,1,2,0:3:0:0:
364,88,30512,1,0,0:0:0:0:
368,100,30612,5,0,3:0:0:0:
296,224,30812,2,0,P|291:188|284:152,1,72,0|0,0:0|3:0,0:0:0:0:
448,220,31212,1,0,0:0:0:0:
448,220,31412,2,0,P|452:255|459:291,1,72,8|0,3:2|0:0,0:0:0:0:
368,96,31812,1,0,3:0:0:0:
368,178,32012,1,0,0:0:0:0:
439,137,32212,1,0,3:0:0:0:
232,128,32412,5,8,0:0:0:0:
448,220,32612,1,8,0:0:0:0:
100,248,33012,5,8,0:0:0:0:
392,96,33412,5,8,0:0:0:0:
184,40,33812,6,0,P|192:100|204:236,2,180,6|8|2,0:0|0:0|3:2,0:0:0:0:
292,172,34812,1,2,0:0:0:0:
92,120,35012,1,8,0:0:0:0:
392,72,35212,6,0,P|384:116|380:172,1,90,2|0,0:0|3:0,0:0:0:0:
172,316,35612,2,0,P|180:272|184:216,1,90,2|8,0:0|0:0,0:0:0:0:
416,276,36012,2,0,P|384:296|316:288,1,90,2|0,0:0|3:0,0:0:0:0:
232,116,36412,1,2,0:0:0:0:
240,356,36612,1,8,0:0:0:0:
380,184,36812,1,2,0:0:0:0:
132,88,37012,6,0,P|96:156|148:248,2,180,2|8|2,3:2|0:0|3:2,0:0:0:0:
236,224,38012,1,2,0:0:0:0:
8,184,38212,1,8,0:0:0:0:
264,108,38412,6,0,P|312:112|372:124,1,90,2|0,0:0|3:0,0:0:0:0:
124,216,38812,1,2,0:0:0:0:
176,48,39012,1,8,0:0:0:0:
248,252,39212,2,0,P|240:284|232:348,1,90,2|0,0:0|3:0,0:0:0:0:
108,120,39612,1,2,0:0:0:0:
40,296,39812,2,0,P|83:286|128:282,1,90,8|0,0:0|0:0,0:0:0:0:
316,152,40212,5,2,3:2:0:0:
352,340,40412,1,0,0:0:0:0:
212,196,40612,1,10,0:0:0:0:
440,112,40812,2,0,P|432:152|428:212,1,90,2|0,0:0|3:0,0:0:0:0:
260,32,41212,1,2,0:0:0:0:
320,236,41412,1,8,0:0:0:0:
388,28,41612,1,2,0:0:0:0:
232,148,41812,5,0,3:2:0:0:
440,120,42012,1,2,0:0:0:0:
168,72,42212,1,8,0:0:0:0:
360,200,42412,2,0,P|356:156|352:96,1,90,2|0,0:0|3:0,0:0:0:0:
296,328,42812,1,2,0:0:0:0:
480,216,43012,1,8,0:0:0:0:
256,168,43212,1,2,0:0:0:0:
412,380,43412,6,0,P|416:316|420:288,1,90,2|0,3:2|0:0,0:0:0:0:
352,140,43812,1,10,0:0:0:0:
220,276,44012,2,0,P|272:264|320:260,1,90,2|0,0:0|3:0,0:0:0:0:
176,148,44412,2,0,P|124:160|76:164,1,90,2|8,0:0|0:0,0:0:0:0:
312,176,44812,1,2,0:0:0:0:
264,72,45012,1,2,3:2:0:0:
212,224,45212,5,8,0:0:0:0:
416,80,45412,1,8,0:0:0:0:
76,48,45812,5,8,0:0:0:0:
244,124,46012,1,8,0:3:0:0:
244,124,46112,1,0,3:0:0:0:
244,124,46212,1,0,3:0:0:0:
104,168,46412,1,0,3:0:0:0:
240,32,46612,6,0,B|328:20|288:68|380:56,1,144,4|0,0:0|3:0,0:0:0:0:
