osu file format v14

[General]
AudioFilename: audio.mp3
AudioLeadIn: 0
PreviewTime: 84223
Countdown: 0
SampleSet: Soft
StackLeniency: 0.3
Mode: 0
LetterboxInBreaks: 0
WidescreenStoryboard: 1

[Editor]
Bookmarks: 8297,49676,52435,84159,85538,155883,158642,160021,161400,186228
DistanceSpacing: 1.1
BeatDivisor: 4
GridSize: 32
TimelineZoom: 4.299998

[Metadata]
Title:Start Again
TitleUnicode:Start Again
Artist:ONE OK ROCK
ArtistUnicode:ONE OK ROCK
Creator:Stixy
Version:Shady's Insane
Source:
Tags:japanese band male vocal rock english full ver version ambitions -[shady]- shady
BeatmapID:2229286
BeatmapSetID:1062516

[Difficulty]
HPDrainRate:5
CircleSize:4
OverallDifficulty:8
ApproachRate:9
SliderMultiplier:1.6
SliderTickRate:1

[Events]
//Background and Video events
0,0,"bg.jpg",0,0
//Break Periods
2,49940,51899
2,155883,158106
//Storyboard Layer 0 (Background)
//Storyboard Layer 1 (Fail)
//Storyboard Layer 2 (Pass)
//Storyboard Layer 3 (Foreground)
//Storyboard Layer 4 (Overlay)
//Storyboard Sound Samples

[TimingPoints]
2844,344.827586206897,4,2,1,50,1,0
8361,-166.666666666667,4,2,1,50,0,0
19395,-133.333333333333,4,2,1,60,0,0
25861,-133.333333333333,4,2,1,5,0,0
25947,-133.333333333333,4,2,1,60,0,0
26206,-133.333333333333,4,2,1,5,0,0
26292,-133.333333333333,4,2,1,60,0,0
27240,-133.333333333333,4,2,1,5,0,0
27326,-133.333333333333,4,2,1,60,0,0
27671,-111.111111111111,4,2,1,60,0,0
29050,-99.9999999999999,4,2,1,60,0,0
29740,-90.9090909090909,4,2,1,60,0,0
30430,-83.3333333333333,4,2,1,80,0,1
32585,-83.3333333333333,4,2,1,5,0,1
32671,-83.3333333333333,4,2,1,80,0,1
33447,-83.3333333333333,4,2,1,5,0,1
33533,-83.3333333333333,4,2,1,80,0,1
43619,-83.3333333333333,4,2,1,5,0,1
43706,-83.3333333333333,4,2,1,80,0,1
49740,-100,4,2,1,80,0,0
52499,-100,4,2,1,70,0,0
63533,-125,4,2,1,60,0,0
76206,-125,4,2,1,5,0,0
76292,-125,4,2,1,60,0,0
85602,-83.3333333333333,4,2,1,80,0,1
92412,-83.3333333333333,4,2,1,5,0,1
92499,-83.3333333333333,4,2,1,80,0,1
98792,-83.3333333333333,4,2,1,5,0,1
98878,-83.3333333333333,4,2,1,80,0,1
107671,-100,4,2,1,70,0,0
118706,-125,4,2,1,60,0,0
124137,-125,4,2,1,5,0,0
124223,-125,4,2,1,60,0,0
128016,-166.666666666667,4,2,1,50,0,0
139309,-166.666666666667,4,2,1,5,0,0
139395,-142.857142857143,4,2,1,60,0,0
143102,-142.857142857143,4,2,1,5,0,0
143188,-142.857142857143,4,2,1,60,0,0
146723,-142.857142857143,4,2,1,5,0,0
146809,-142.857142857143,4,2,1,60,0,0
147671,-111.111111111111,4,2,1,60,0,0
149050,-100,4,2,1,60,0,0
149740,-90.9090909090909,4,2,1,60,0,0
150430,-166.666666666667,4,2,1,50,0,0
161464,-83.3333333333334,4,2,1,80,0,1
163619,-83.3333333333334,4,2,1,5,0,1
163706,-83.3333333333334,4,2,1,80,0,1
166981,-76.9230769230769,4,2,1,80,0,1
172499,-100,4,2,1,70,0,0
182930,-100,4,2,1,5,0,0
183016,-100,4,2,1,70,0,0
183533,-111.111111111111,4,2,1,60,0,0

[Colours]
Combo1 : 219,176,210
Combo2 : 253,203,150
Combo3 : 140,54,23
Combo4 : 72,68,142

[HitObjects]
104,67,8361,6,0,L|161:62,1,47.9999985351563
201,124,8706,2,0,L|258:129,1,47.9999985351563
341,127,9050,2,0,P|328:156|344:218,1,95.9999970703126,2|2,0:2|0:2,0:0:0:0:
401,265,9568,1,0,0:0:0:0:
401,265,9740,6,0,L|455:257,1,47.9999985351563,2|0,0:2|0:0,0:0:0:0:
399,346,10085,2,0,L|345:338,1,47.9999985351563,2|0,0:2|0:0,0:0:0:0:
264,240,10430,2,0,P|277:269|261:331,1,95.9999970703126,2|2,0:2|0:2,0:0:0:0:
190,364,10947,1,2,0:2:0:0:
190,364,11119,6,0,L|186:307,1,47.9999985351563
110,281,11464,2,0,L|114:224,1,47.9999985351563
211,142,11809,2,0,B|179:138|179:138|136:155|136:155|99:151,1,95.9999970703126,2|2,0:2|0:2,0:0:0:0:
62,91,12326,1,0,0:0:0:0:
62,91,12499,6,0,P|60:43|89:-6,1,95.9999970703126,2|2,0:2|0:2,0:0:0:0:
139,56,13016,2,0,P|176:60|194:54,1,47.9999985351563,2|0,0:2|0:0,0:0:0:0:
256,16,13361,2,0,P|293:12|311:18,1,47.9999985351563,2|0,0:2|0:0,0:0:0:0:
367,66,13706,1,2,0:2:0:0:
309,173,13878,6,0,L|305:109,1,47.9999985351563
385,188,14223,2,0,L|381:252,1,47.9999985351563
305,321,14568,2,0,P|341:309|398:319,1,95.9999970703126,2|2,0:2|0:2,0:0:0:0:
457,370,15085,1,0,0:0:0:0:
457,370,15257,6,0,P|448:344|466:264,1,95.9999970703126,2|2,0:2|0:2,0:0:0:0:
504,213,15775,2,0,P|505:177|501:155,1,47.9999985351563,2|0,0:2|0:0,0:0:0:0:
433,84,16119,2,0,P|432:120|436:142,1,47.9999985351563,2|0,0:2|0:0,0:0:0:0:
503,165,16464,1,2,0:2:0:0:
502,43,16637,6,0,P|477:19|409:10,1,95.9999970703126,2|2,0:2|0:2,0:0:0:0:
354,58,17154,1,2,0:2:0:0:
354,58,17326,2,0,P|327:61|286:59,1,47.9999985351563,2|2,0:2|0:2,0:0:0:0:
202,133,17671,2,0,P|229:130|270:132,1,47.9999985351563,2|0,0:2|0:0,0:0:0:0:
134,80,18016,5,2,0:2:0:0:
88,196,18188,2,0,L|83:136,1,47.9999985351563,2|0,0:2|0:0,0:0:0:0:
179,254,18533,2,0,B|147:255|147:255|113:274|113:274|79:276,1,95.9999970703126,2|0,0:2|0:0,0:0:0:0:
263,253,19050,2,0,L|266:202,1,47.9999985351563,2|0,0:2|0:0,0:0:0:0:
205,43,19395,5,4,1:2:0:0:
205,43,19568,1,0,0:0:0:0:
180,171,19740,1,0,0:0:0:0:
180,171,19912,1,0,0:0:0:0:
304,133,20085,2,0,L|366:118,1,60.0000022888184,2|0,0:2|0:0,0:0:0:0:
440,244,20430,2,0,L|378:229,1,60.0000022888184,2|0,0:2|0:0,0:0:0:0:
437,95,20775,6,0,L|453:156,1,60.0000022888184,2|0,0:2|0:0,0:0:0:0:
309,223,21119,2,0,L|293:284,1,60.0000022888184,2|0,0:2|0:0,0:0:0:0:
419,346,21464,2,0,P|382:337|332:339,1,60.0000022888184,2|0,0:2|0:0,0:0:0:0:
285,361,21809,2,0,P|254:374|173:363,1,90.0000034332277,2|2,0:2|0:0,0:0:0:0:
173,356,22154,5,0,0:0:0:0:
173,356,22326,1,0,0:0:0:0:
225,238,22499,1,0,0:0:0:0:
225,238,22671,1,0,0:0:0:0:
95,292,22844,2,0,B|89:246|89:246|102:220|102:220|94:156,1,120.000004577637,2|2,0:2|0:2,0:0:0:0:
70,97,23361,1,2,0:2:0:0:
70,97,23533,6,0,L|134:87,1,60.0000022888184
234,64,23878,1,0,0:0:0:0:
197,167,24050,2,0,P|189:200|192:237,1,60.0000022888184,2|0,0:2|0:0,0:0:0:0:
327,231,24395,2,0,P|286:225|264:231,1,60.0000022888184,2|0,0:2|0:0,0:0:0:0:
227,294,24740,1,2,0:2:0:0:
413,253,24912,5,0,0:0:0:0:
413,253,25085,1,0,0:0:0:0:
404,369,25257,1,0,0:0:0:0:
404,369,25430,1,0,0:0:0:0:
486,297,25602,2,0,P|501:257|483:201,1,90.0000034332277,2|0,0:2|0:0,0:0:0:0:
477,184,25947,2,0,P|460:146|467:85,1,90.0000034332277,2|0,0:2|0:0,0:0:0:0:
472,70,26292,6,0,L|406:53,1,60.0000022888184,2|0,0:2|0:0,0:0:0:0:
307,185,26637,2,0,L|373:168,1,60.0000022888184,2|0,0:2|0:0,0:0:0:0:
227,24,26981,2,0,P|216:57|226:120,1,90.0000034332277,2|0,0:2|0:0,0:0:0:0:
240,135,27326,1,2,0:2:0:0:
296,70,27499,1,2,0:2:0:0:
134,29,27671,6,0,L|98:22,3,35.9999989013672,0|0|0|0,1:2|1:2|1:2|1:2,0:0:0:0:
35,105,28016,2,0,L|71:98,3,35.9999989013672,0|0|0|0,1:2|1:2|1:2|1:2,0:0:0:0:
161,163,28361,2,0,L|125:156,3,35.9999989013672,0|0|0|0,1:2|1:2|1:2|1:2,0:0:0:0:
62,239,28706,2,0,L|98:232,3,35.9999989013672,0|0|0|0,1:2|1:2|1:2|1:2,0:0:0:0:
165,278,29050,6,0,L|214:289,1,40,2|0,1:2|1:2,0:0:0:0:
278,303,29223,2,0,L|327:314,1,40,2|0,1:2|1:2,0:0:0:0:
441,254,29395,2,0,L|392:243,1,40,0|0,1:2|1:2,0:0:0:0:
328,229,29568,2,0,L|279:218,1,40,2|0,1:2|1:2,0:0:0:0:
239,135,29740,5,8,0:2:0:0:
243,92,29826,1,8,0:2:0:0:
277,66,29912,1,10,0:2:0:0:
319,74,29999,1,8,0:2:0:0:
355,100,30085,1,8,0:2:0:0:
388,127,30171,1,8,0:2:0:0:
431,131,30257,1,8,0:2:0:0:
469,110,30344,1,8,0:2:0:0:
488,71,30430,6,0,L|479:179,1,95.9999970703126,6|0,1:2|1:2,0:0:0:0:
458,338,30775,2,0,P|408:319|355:323,1,95.9999970703126,8|0,0:2|0:0,0:0:0:0:
237,362,31119,1,2,0:0:0:0:
330,162,31292,1,0,1:2:0:0:
175,285,31464,2,0,L|157:169,1,95.9999970703126,8|2,0:2|0:0,0:0:0:0:
172,114,31723,1,2,0:0:0:0:
172,114,31809,5,2,1:2:0:0:
330,162,31981,2,0,P|276:171|224:164,1,95.9999970703126,2|8,1:2|0:2,0:0:0:0:
85,91,32326,2,0,P|117:45|207:36,1,143.999995605469,2|0,1:2|0:0,0:0:0:0:
257,91,32671,1,2,1:2:0:0:
164,286,32844,2,0,L|160:185,1,95.9999970703126,8|2,0:2|1:2,0:0:0:0:
34,334,33188,6,0,B|113:322|94:377|185:365,1,143.999995605469,4|0,1:2|0:0,0:0:0:0:
242,317,33533,1,8,0:2:0:0:
160,190,33706,2,0,P|220:179|263:192,1,95.9999970703126
360,264,34050,1,0,1:2:0:0:
316,8,34223,1,8,0:2:0:0:
283,111,34395,1,2,0:0:0:0:
397,80,34568,5,2,1:2:0:0:
234,35,34740,2,0,L|125:21,1,95.9999970703126,2|8,1:2|0:2,0:0:0:0:
66,200,35085,2,0,L|175:186,1,95.9999970703126,2|0,1:2|0:0,0:0:0:0:
283,111,35430,1,2,1:2:0:0:
259,297,35602,1,8,0:2:0:0:
395,208,35775,1,8,0:2:0:0:
395,208,35861,1,8,0:2:0:0:
395,208,35947,6,0,L|295:191,1,95.9999970703126,6|0,1:2|1:2,0:0:0:0:
63,118,36292,1,8,0:2:0:0:
137,272,36464,1,0,1:2:0:0:
207,118,36637,2,0,P|220:69|209:20,1,95.9999970703126,2|0,0:0|1:2,0:0:0:0:
82,208,36981,2,0,P|133:192|198:210,1,95.9999970703126,8|0,0:2|0:0,0:0:0:0:
256,284,37326,5,2,0:0:0:0:
207,118,37499,2,0,P|258:134|323:116,1,95.9999970703126,0|8,1:2|0:2,0:0:0:0:
372,41,37844,2,0,P|330:123|384:226,1,191.999994140625,2|2,0:0|1:2,0:0:0:0:
502,134,38361,2,0,P|451:120|403:126,1,95.9999970703126,8|0,0:2|1:2,0:0:0:0:
309,303,38706,5,14,0:2:0:0:
265,85,38878,1,0,1:2:0:0:
265,85,39050,1,0,1:2:0:0:
64,175,39223,5,12,0:2:0:0:
307,164,39395,1,0,1:2:0:0:
307,164,39568,1,0,1:2:0:0:
113,39,39740,5,8,0:2:0:0:
138,231,39912,1,0,1:2:0:0:
340,52,40085,5,14,0:2:0:0:
287,256,40257,2,0,L|270:363,1,95.9999970703126,2|0,1:2|1:2,0:0:0:0:
459,280,40602,1,10,0:2:0:0:
459,280,40688,1,8,0:2:0:0:
459,280,40775,2,0,P|411:266|350:270,1,95.9999970703126,0|2,1:2|1:2,0:0:0:0:
174,303,41119,1,12,0:2:0:0:
209,128,41292,1,8,0:2:0:0:
209,128,41378,1,8,0:2:0:0:
209,128,41464,6,0,L|218:235,1,95.9999970703126,6|0,1:2|1:2,0:0:0:0:
30,150,41809,2,0,L|139:135,1,95.9999970703126,8|0,0:2|0:0,0:0:0:0:
270,317,42154,2,0,L|161:302,1,95.9999970703126,2|0,0:0|1:2,0:0:0:0:
289,170,42499,1,8,0:2:0:0:
121,224,42671,1,2,0:0:0:0:
270,317,42844,5,2,1:2:0:0:
211,204,43016,2,0,P|208:153|223:107,1,95.9999970703126,2|8,1:2|0:2,0:0:0:0:
434,65,43361,2,0,B|356:63|368:105|290:92,1,143.999995605469,2|0,1:2|0:0,0:0:0:0:
241,38,43706,1,2,1:2:0:0:
407,151,43878,2,0,P|421:204|403:261,1,95.9999970703126,8|2,0:2|0:0,0:0:0:0:
211,204,44223,6,0,P|268:193|329:214,1,95.9999970703126,6|0,1:2|1:2,0:0:0:0:
360,384,44568,2,0,P|346:331|364:274,1,95.9999970703126,8|0,0:2|0:0,0:0:0:0:
490,170,44912,1,0,0:0:0:0:
426,332,45085,1,0,1:2:0:0:
326,124,45257,2,0,L|339:29,1,95.9999970703126,8|0,0:2|0:0,0:0:0:0:
212,202,45602,5,0,1:2:0:0:
192,51,45775,1,0,1:2:0:0:
271,262,45947,2,0,P|211:283|151:253,1,95.9999970703126,8|0,0:2|0:0,0:0:0:0:
62,162,46292,2,0,L|72:59,1,95.9999970703126,2|0,0:0|1:2,0:0:0:0:
271,262,46637,2,0,L|281:365,1,95.9999970703126,10|0,0:2|1:2,0:0:0:0:
379,94,46981,6,0,L|268:80,1,95.9999970703126,6|0,1:2|0:0,0:0:0:0:
397,122,47326,2,0,L|286:108,1,95.9999970703126,0|0,1:2|0:0,0:0:0:0:
414,153,47671,2,0,L|303:139,1,95.9999970703126,0|0,1:2|0:0,0:0:0:0:
433,192,48016,2,0,L|322:178,1,95.9999970703126,2|2,1:2|0:0,0:0:0:0:
100,244,48361,6,0,L|211:258,1,95.9999970703126,0|0,1:2|0:0,0:0:0:0:
82,216,48706,2,0,L|193:230,1,95.9999970703126,2|2,1:2|0:0,0:0:0:0:
65,185,49050,2,0,L|176:199,1,95.9999970703126,0|0,1:2|0:0,0:0:0:0:
46,146,49395,2,0,L|157:160,1,95.9999970703126,2|2,1:2|0:0,0:0:0:0:
104,67,49740,5,0,0:0:0:0:
368,100,52499,6,0,L|269:89,1,80,14|0,0:2|1:2,0:0:0:0:
203,77,52844,1,2,1:2:0:0:
231,229,53016,2,0,P|241:180|233:137,2,80,14|2|2,0:2|1:2|1:2,0:0:0:0:
98,291,53533,2,0,P|139:279|183:286,1,80,10|2,0:2|1:2,0:0:0:0:
297,360,53878,5,14,0:2:0:0:
231,228,54050,2,0,P|272:240|316:233,1,80,2|0,1:2|1:2,0:0:0:0:
401,117,54395,2,0,B|405:167|405:167|381:219|381:219|391:289,1,160,14|0,0:2|1:2,0:0:0:0:
477,113,54912,2,0,L|463:24,1,80,10|0,0:2|1:2,0:0:0:0:
324,139,55257,6,0,P|283:151|239:144,1,80,14|0,0:2|1:2,0:0:0:0:
164,89,55602,1,2,1:2:0:0:
157,250,55775,2,0,L|173:167,2,80,14|2|2,0:2|1:2|1:2,0:0:0:0:
286,322,56292,2,0,P|247:311|207:310,1,80,10|0,0:2|1:2,0:0:0:0:
56,323,56637,5,14,0:2:0:0:
87,161,56809,2,0,L|71:239,1,80,2|0,1:2|1:2,0:0:0:0:
250,179,57154,2,0,P|212:169|153:176,1,80,14|0,0:2|1:2,0:0:0:0:
71,238,57499,1,0,1:2:0:0:
206,256,57671,1,8,0:3:0:0:
135,91,57844,1,0,1:2:0:0:
169,329,58016,6,0,P|214:336|258:325,1,80,14|0,0:2|1:2,0:0:0:0:
320,268,58361,1,2,1:2:0:0:
249,101,58533,2,0,P|241:143|253:185,2,80,14|2|2,0:2|1:2|1:2,0:0:0:0:
401,125,59050,2,0,P|353:137|311:131,1,80,10|2,0:2|1:2,0:0:0:0:
174,60,59395,5,14,0:2:0:0:
249,178,59568,2,0,P|201:166|159:172,1,80,2|0,1:2|1:2,0:0:0:0:
101,284,59912,2,0,B|111:223|111:223|88:190|88:190|99:126,1,160,14|0,0:2|1:2,0:0:0:0:
249,50,60430,2,0,L|342:38,1,80,10|0,0:2|1:2,0:0:0:0:
460,203,60775,6,0,L|367:191,1,80,14|0,0:2|1:2,0:0:0:0:
249,178,61119,1,2,1:2:0:0:
298,310,61292,2,0,P|313:264|313:224,2,80,14|2|2,0:2|1:2|1:2,0:0:0:0:
156,246,61809,2,0,L|255:257,1,80,10|0,0:2|1:2,0:0:0:0:
304,116,62154,5,14,0:2:0:0:
111,182,62326,2,0,L|101:90,1,80,2|0,1:2|1:2,0:0:0:0:
151,33,62671,1,14,0:2:0:0:
34,135,62844,1,0,1:2:0:0:
34,135,63016,1,8,0:2:0:0:
48,3,63188,1,8,0:2:0:0:
48,3,63361,1,8,0:2:0:0:
205,113,63533,6,0,L|274:119,1,64,4|0,1:2|0:0,0:0:0:0:
423,131,63878,1,8,0:2:0:0:
423,131,64050,1,0,0:0:0:0:
331,221,64223,2,0,P|330:186|341:150,1,64,2|0,1:2|0:0,0:0:0:0:
452,248,64568,2,0,P|459:278|458:310,1,64,10|0,0:2|0:0,0:0:0:0:
301,337,64912,6,0,B|260:335|260:335|215:309|215:309|175:309,1,128,2|8,1:2|0:2,0:0:0:0:
102,343,65430,2,0,P|98:302|101:270,1,64,2|0,0:0|1:2,0:0:0:0:
174,223,65775,2,0,P|178:182|175:150,1,64,2|8,0:0|0:2,0:0:0:0:
123,87,66119,1,2,0:0:0:0:
254,159,66292,6,0,P|298:162|340:154,1,64,0|0,1:2|0:0,0:0:0:0:
436,95,66637,2,0,P|392:92|350:100,1,64,8|0,0:2|0:0,0:0:0:0:
325,238,66981,2,0,L|339:308,1,64,2|0,1:2|0:0,0:0:0:0:
484,212,67326,2,0,L|498:142,1,64,10|0,0:2|0:0,0:0:0:0:
377,17,67671,6,0,B|306:12|337:60|241:45,1,128,2|8,1:2|0:2,0:0:0:0:
173,21,68188,2,0,P|181:59|171:95,1,64,2|0,0:0|1:2,0:0:0:0:
68,150,68533,2,0,P|106:142|142:152,1,64,2|8,0:0|0:2,0:0:0:0:
273,261,68878,1,10,0:2:0:0:
238,126,69050,6,0,P|230:164|240:200,1,64,0|0,1:2|0:0,0:0:0:0:
350,294,69395,2,0,P|358:256|348:220,1,64,8|0,0:2|0:0,0:0:0:0:
192,251,69740,2,0,L|125:258,1,64,2|0,1:2|0:0,0:0:0:0:
309,367,70085,2,0,L|376:374,1,64,10|0,0:2|0:0,0:0:0:0:
489,217,70430,6,0,P|447:228|416:224,1,64,2|0,1:2|0:0,0:0:0:0:
233,184,70775,1,8,0:2:0:0:
309,90,70947,2,0,L|315:167,1,64,2|0,0:0|1:2,0:0:0:0:
159,97,71292,2,0,L|236:91,1,64,2|8,0:0|0:2,0:0:0:0:
389,82,71637,1,2,0:0:0:0:
233,184,71809,6,0,P|225:222|230:269,1,64,2|0,1:2|0:0,0:0:0:0:
312,364,72154,1,10,0:2:0:0:
353,276,72326,2,0,P|312:289|290:288,2,64,2|2|2,0:0|1:2|0:0,0:0:0:0:
422,166,72844,2,0,L|413:91,1,64,10|0,0:2|0:0,0:0:0:0:
374,15,73188,5,2,1:2:0:0:
276,82,73361,2,0,P|315:88|339:86,1,64,2|8,0:0|0:2,0:0:0:0:
224,18,73706,2,0,P|198:53|213:139,1,128,2|0,0:0|0:0,0:0:0:0:
295,255,74223,1,10,0:2:0:0:
276,82,74395,1,12,0:2:0:0:
125,183,74568,6,0,P|85:185|41:184,1,64,0|0,1:2|0:0,0:0:0:0:
150,311,74912,2,0,P|190:309|234:310,1,64,8|0,0:2|0:0,0:0:0:0:
295,255,75257,2,0,P|283:217|284:183,1,64,2|0,1:2|0:0,0:0:0:0:
414,85,75602,2,0,P|426:123|425:157,1,64,10|0,0:2|0:0,0:0:0:0:
295,255,75947,6,0,P|344:243|406:256,1,96,2|0,1:2|0:0,0:0:0:0:
412,265,76292,1,10,0:2:0:0:
354,384,76464,2,0,L|348:309,1,64,2|0,0:0|1:2,0:0:0:0:
499,211,76809,2,0,L|493:286,1,64,2|8,0:0|0:2,0:0:0:0:
438,159,77154,1,2,0:0:0:0:
295,255,77326,6,0,P|253:260|224:257,1,64,0|0,1:2|0:0,0:0:0:0:
256,62,77671,2,0,P|261:104|258:133,1,64,8|0,0:2|0:0,0:0:0:0:
183,161,78016,1,2,1:2:0:0:
150,24,78188,2,0,P|145:66|148:95,1,64,2|8,0:0|0:2,0:0:0:0:
268,133,78533,1,2,0:0:0:0:
268,133,78619,1,2,0:0:0:0:
268,133,78706,6,0,P|303:143|397:126,1,128,0|8,1:2|0:2,0:0:0:0:
462,18,79223,2,0,P|450:55|452:90,1,64,2|0,0:0|1:2,0:0:0:0:
499,141,79568,2,0,P|511:178|509:213,1,64,2|8,0:0|0:2,0:0:0:0:
466,322,79912,1,2,0:0:0:0:
369,221,80085,6,0,L|435:214,1,64,0|0,1:2|0:0,0:0:0:0:
392,360,80430,1,8,0:2:0:0:
297,271,80602,2,0,P|286:216|328:140,1,128
204,223,81119,2,0,L|138:216,1,64,8|2,0:2|0:0,0:0:0:0:
32,196,81464,5,2,1:2:0:0:
90,87,81637,2,0,P|103:122|99:155,1,64,2|8,0:0|0:2,0:0:0:0:
74,268,81981,2,0,P|66:299|74:339,1,64,2|0,0:0|1:2,0:0:0:0:
210,311,82326,2,0,P|173:301|133:303,2,64,2|8|0,0:0|0:2|0:0,0:0:0:0:
323,362,82844,6,0,P|357:369|392:367,1,64,2|0,1:2|0:0,0:0:0:0:
498,284,83188,1,10,0:2:0:0:
366,223,83361,2,0,P|361:261|366:296,2,64,2|2|2,0:0|1:2|0:0,0:0:0:0:
466,104,83878,2,0,P|432:117|394:115,1,64,10|0,0:2|0:0,0:0:0:0:
331,73,84223,5,2,0:0:0:0:
376,275,85602,6,0,L|272:265,1,95.9999970703126,6|0,1:2|1:2,0:0:0:0:
87,256,85947,2,0,P|102:209|94:149,1,95.9999970703126,8|0,0:2|0:0,0:0:0:0:
56,21,86292,1,2,0:0:0:0:
23,195,86464,1,0,1:2:0:0:
125,83,86637,2,0,P|178:73|234:95,1,95.9999970703126,8|2,0:2|0:0,0:0:0:0:
283,129,86895,1,2,0:0:0:0:
283,129,86981,1,2,1:2:0:0:
216,261,87154,6,0,L|208:154,1,95.9999970703126,2|8,1:2|0:2,0:0:0:0:
290,42,87499,2,0,B|346:41|346:41|403:71|403:71|483:73,1,191.999994140625,2|2,1:2|1:2,0:0:0:0:
325,219,88016,2,0,P|319:164|332:113,1,95.9999970703126,8|2,0:2|1:2,0:0:0:0:
485,281,88361,6,0,P|399:274|356:282,1,95.9999970703126,4|0,1:2|1:0,0:0:0:0:
215,346,88706,1,8,0:2:0:0:
325,219,88878,2,0,B|211:209|262:284|139:271,1,191.999994140625,0|0,0:0|1:2,0:0:0:0:
22,141,89395,1,8,0:2:0:0:
177,196,89568,1,2,0:0:0:0:
73,298,89740,5,2,1:2:0:0:
114,141,89912,2,0,P|164:119|212:121,1,95.9999970703126,2|8,1:2|0:2,0:0:0:0:
326,221,90257,2,0,L|314:124,1,95.9999970703126,2|0,1:2|0:0,0:0:0:0:
297,27,90602,1,2,1:2:0:0:
424,209,90775,1,8,0:2:0:0:
243,246,90947,1,8,0:2:0:0:
243,246,91033,1,8,0:2:0:0:
243,246,91119,6,0,P|256:295|247:343,1,95.9999970703126,6|0,1:2|1:2,0:0:0:0:
20,264,91464,1,8,0:2:0:0:
181,297,91637,1,0,1:2:0:0:
121,146,91809,2,0,P|116:89|130:53,1,95.9999970703126,2|0,0:0|1:2,0:0:0:0:
327,128,92154,2,0,B|239:125|281:183|166:167,1,143.999995605469,8|0,0:2|0:0,0:0:0:0:
121,146,92499,5,2,0:0:0:0:
311,209,92671,2,0,L|305:312,1,95.9999970703126,0|8,1:2|0:2,0:0:0:0:
121,268,93016,2,0,B|224:255|183:315|310:304,1,191.999994140625,2|2,0:0|1:2,0:0:0:0:
481,199,93533,1,8,0:2:0:0:
388,356,93706,1,0,1:2:0:0:
234,182,93878,5,14,0:2:0:0:
439,284,94050,1,0,1:2:0:0:
439,284,94223,1,0,1:2:0:0:
192,276,94395,5,12,0:2:0:0:
397,174,94568,1,0,1:2:0:0:
397,174,94740,1,0,1:2:0:0:
160,133,94912,5,8,0:2:0:0:
208,355,95085,1,0,1:2:0:0:
300,115,95257,5,14,0:2:0:0:
126,220,95430,2,0,P|76:229|7:217,1,95.9999970703126,2|0,1:2|1:2,0:0:0:0:
63,23,95775,1,10,0:2:0:0:
63,23,95861,1,8,0:2:0:0:
63,23,95947,2,0,L|68:135,1,95.9999970703126,0|2,1:2|1:2,0:0:0:0:
251,275,96292,2,0,L|256:163,1,95.9999970703126,12|8,0:2|0:2,0:0:0:0:
299,113,96550,1,8,0:2:0:0:
299,113,96637,6,0,P|359:127|405:116,1,95.9999970703126,6|0,1:2|1:2,0:0:0:0:
494,288,96981,2,0,P|434:274|388:285,1,95.9999970703126,8|0,0:2|0:0,0:0:0:0:
299,376,97326,1,2,0:0:0:0:
348,204,97499,1,0,1:2:0:0:
212,337,97671,2,0,L|201:218,1,95.9999970703126,8|2,0:2|0:0,0:0:0:0:
192,101,98016,5,2,1:2:0:0:
51,168,98188,2,0,P|105:176|166:167,1,95.9999970703126,2|8,1:2|0:2,0:0:0:0:
265,36,98533,2,0,B|276:97|276:97|265:139|265:139|274:184,1,143.999995605469,2|0,1:2|0:0,0:0:0:0:
292,251,98878,1,2,1:2:0:0:
441,80,99050,2,0,L|429:202,1,95.9999970703126,8|0,0:2|0:0,0:0:0:0:
301,346,99395,6,0,L|289:224,1,95.9999970703126,6|0,1:2|1:2,0:0:0:0:
89,134,99740,2,0,B|184:133|160:197|296:173,1,191.999994140625,8|0,0:2|0:0,0:0:0:0:
368,41,100257,1,0,1:2:0:0:
366,242,100430,2,0,L|380:359,1,95.9999970703126,8|0,0:2|0:0,0:0:0:0:
494,175,100775,5,0,1:2:0:0:
470,352,100947,1,0,1:2:0:0:
291,250,101119,2,0,P|237:243|169:264,1,95.9999970703126,8|0,0:2|1:0,0:0:0:0:
105,362,101464,2,0,P|121:315|118:260,1,95.9999970703126,2|0,0:0|1:2,0:0:0:0:
31,25,101809,2,0,P|15:72|18:127,1,95.9999970703126,10|0,0:2|1:2,0:0:0:0:
239,77,102154,6,0,L|143:93,1,95.9999970703126,6|0,1:2|0:0,0:0:0:0:
264,98,102499,2,0,L|168:114,1,95.9999970703126,0|0,1:2|0:0,0:0:0:0:
292,124,102844,2,0,L|196:140,1,95.9999970703126,0|0,1:2|0:0,0:0:0:0:
319,152,103188,2,0,L|223:168,1,95.9999970703126,2|2,1:2|0:0,0:0:0:0:
119,319,103533,6,0,L|215:303,1,95.9999970703126,0|0,1:2|0:0,0:0:0:0:
94,298,103878,2,0,L|190:282,1,95.9999970703126,2|2,1:2|0:0,0:0:0:0:
66,272,104223,2,0,L|162:256,1,95.9999970703126,0|0,1:2|0:0,0:0:0:0:
39,244,104568,2,0,L|135:228,1,95.9999970703126,2|2,1:2|0:0,0:0:0:0:
313,336,104912,6,0,P|305:284|321:234,1,95.9999970703126,4|0,1:2|0:0,0:0:0:0:
319,149,105257,2,0,P|327:201|311:251,1,95.9999970703126,0|0,1:0|0:0,0:0:0:0:
222,238,105602,2,0,P|274:230|324:246,1,95.9999970703126,0|0,1:0|1:0,0:0:0:0:
408,244,105947,2,0,P|356:252|306:236,1,95.9999970703126,0|0,1:0|1:0,0:0:0:0:
216,140,106292,5,8,0:0:0:0:
216,140,106464,1,8,0:0:0:0:
237,332,106637,1,8,0:0:0:0:
237,332,106809,1,8,0:0:0:0:
382,146,106981,5,8,0:0:0:0:
370,335,107154,1,8,0:0:0:0:
216,140,107326,1,8,0:0:0:0:
237,332,107499,1,8,0:0:0:0:
446,203,107671,6,0,P|465:150|455:110,1,80,14|0,0:2|1:2,0:0:0:0:
435,50,108016,1,2,1:2:0:0:
302,138,108188,2,0,P|366:147|412:140,2,80,14|2|2,0:2|1:2|1:2,0:0:0:0:
212,54,108706,2,0,P|224:101|213:144,1,80,10|2,0:2|1:2,0:0:0:0:
156,262,109050,5,14,0:2:0:0:
252,198,109223,2,0,P|240:245|251:288,1,80,2|0,1:2|1:2,0:0:0:0:
362,312,109568,2,0,B|278:311|309:367|194:344,1,160,14|0,0:2|1:2,0:0:0:0:
441,315,110085,2,0,L|433:222,1,80,10|0,0:2|1:2,0:0:0:0:
419,51,110430,6,0,P|370:66|330:63,1,80,14|0,0:2|1:2,0:0:0:0:
223,16,110775,1,2,1:2:0:0:
262,177,110947,2,0,L|269:90,2,80,14|2|2,0:2|1:2|1:2,0:0:0:0:
105,94,111464,2,0,P|145:87|200:93,1,80,10|0,0:2|1:2,0:0:0:0:
254,258,111809,5,14,0:2:0:0:
90,171,111981,2,0,P|82:222|91:263,1,80,2|0,1:2|1:2,0:0:0:0:
226,335,112326,2,0,B|175:335|175:335|119:362|119:362|52:364,1,160,14|0,0:2|1:2,0:0:0:0:
20,296,112844,1,8,0:3:0:0:
20,296,113016,1,0,1:2:0:0:
177,160,113188,6,0,L|181:246,1,80,14|0,0:2|1:2,0:0:0:0:
108,114,113533,1,2,1:2:0:0:
261,194,113706,2,0,P|301:199|363:190,2,80,14|2|2,0:2|1:2|1:2,0:0:0:0:
284,44,114223,2,0,P|303:90|302:140,1,80,10|2,0:2|1:2,0:0:0:0:
248,275,114568,5,14,0:2:0:0:
340,195,114740,2,0,P|384:186|429:189,1,80,2|0,1:2|1:2,0:0:0:0:
471,383,115085,2,0,B|466:331|466:331|489:291|489:291|480:219,1,160,14|0,0:2|1:2,0:0:0:0:
454,47,115602,2,0,P|413:60|369:60,1,80,10|0,0:2|1:2,0:0:0:0:
194,22,115947,6,0,L|199:118,1,80,14|0,0:2|1:2,0:0:0:0:
203,184,116292,1,2,1:2:0:0:
52,153,116464,2,0,P|100:140|135:142,2,80,14|2|2,0:2|1:2|1:2,0:0:0:0:
102,294,116981,2,0,P|109:249|103:213,1,80,10|0,0:2|1:2,0:0:0:0:
41,70,117326,5,14,0:2:0:0:
204,100,117499,2,0,P|246:109|299:97,1,80,2|0,1:2|1:2,0:0:0:0:
356,57,117844,1,14,0:2:0:0:
334,258,118016,1,0,1:2:0:0:
334,258,118188,1,8,0:2:0:0:
495,200,118361,1,8,0:2:0:0:
495,200,118533,1,8,0:2:0:0:
356,57,118706,6,0,L|352:-13,1,64,10|2,0:3|1:2,0:0:0:0:
448,52,119050,2,0,L|444:122,1,64,10|2,0:3|1:2,0:0:0:0:
428,292,119395,2,0,P|390:266|305:267,1,128,10|10,0:2|0:3,0:0:0:0:
248,316,119912,1,10,0:3:0:0:
300,183,120085,6,0,P|259:190|228:184,1,64,2|10,1:2|0:3,0:0:0:0:
136,121,120430,2,0,P|177:114|208:120,1,64,10|2,0:3|1:2,0:0:0:0:
376,160,120775,1,10,0:2:0:0:
376,160,121464,6,0,L|369:93,1,64,10|2,0:3|1:2,0:0:0:0:
293,246,121809,2,0,L|300:179,1,64,10|2,0:3|1:2,0:0:0:0:
346,335,122154,2,0,B|300:329|300:329|254:343|254:343|211:337,1,128,10|10,0:2|0:3,0:0:0:0:
155,291,122671,6,0,P|170:258|158:164,1,128,10|10,0:3|0:3,0:0:0:0:
38,217,123188,2,0,P|72:227|111:222,1,64,10|2,0:3|1:2,0:0:0:0:
230,121,123533,1,10,0:2:0:0:
230,121,123706,1,2,1:2:0:0:
115,0,123878,2,0,L|93:103,1,96,10|0,0:2|0:0,0:0:0:0:
87,125,124223,6,0,P|127:118|154:119,1,64,10|2,0:3|1:2,0:0:0:0:
184,194,124568,1,10,0:3:0:0:
184,194,124740,2,0,P|219:201|255:194,1,64,2|8,1:2|0:2,0:0:0:0:
323,142,125085,1,2,1:2:0:0:
318,229,125257,1,10,0:3:0:0:
395,184,125430,1,10,0:3:0:0:
386,324,125602,6,0,L|310:309,1,64,0|8,1:2|0:3,0:0:0:0:
449,261,125947,2,0,L|525:246,1,64,8|0,0:3|1:2,0:0:0:0:
323,142,126292,1,8,0:2:0:0:
318,229,126464,1,0,1:2:0:0:
491,122,126637,1,8,0:2:0:0:
483,34,126809,1,0,1:2:0:0:
410,81,126981,5,2,0:2:0:0:
88,219,128016,6,0,B|156:213|154:262|234:251,1,143.999995605469,4|0,1:2|0:0,0:0:0:0:
292,205,128706,2,0,L|284:100,1,95.9999970703126,2|0,0:0|0:0,0:0:0:0:
438,171,129395,2,0,L|430:276,1,95.9999970703126,2|0,0:0|0:0,0:0:0:0:
278,189,130085,2,0,L|270:84,1,95.9999970703126,2|0,0:0|0:0,0:0:0:0:
399,81,130775,2,0,L|340:87,1,47.9999985351563,2|2,0:0|0:0,0:0:0:0:
186,102,131119,6,0,L|190:154,1,47.9999985351563,2|2,0:0|0:0,0:0:0:0:
198,231,131464,1,2,0:0:0:0:
82,193,131637,2,0,B|83:222|83:222|104:257|104:257|106:296,1,95.9999970703126,2|2,0:0|0:0,0:0:0:0:
106,363,132154,2,0,P|134:357|163:359,1,47.9999985351563,2|2,0:0|0:0,0:0:0:0:
269,378,132499,6,0,P|261:348|270:279,1,95.9999970703126,0|2,0:0|0:0,0:0:0:0:
334,143,133188,2,0,P|342:173|333:242,1,95.9999970703126,0|2,0:0|0:0,0:0:0:0:
268,284,133706,1,2,0:0:0:0:
339,330,133878,6,0,P|368:333|392:327,1,47.9999985351563,2|0,0:0|0:0,0:0:0:0:
443,274,134223,1,2,0:0:0:0:
335,143,134395,2,0,B|377:143|366:172|434:167,1,95.9999970703126,2|2,0:0|0:0,0:0:0:0:
479,109,134912,2,0,L|471:56,1,47.9999985351563,2|2,0:0|0:0,0:0:0:0:
394,16,135257,6,0,B|366:17|366:17|326:31|326:31|296:31,1,95.9999970703126,0|2,0:0|0:0,0:0:0:0:
138,82,135947,2,0,B|166:83|166:83|206:97|206:97|236:97,1,95.9999970703126,0|2,0:0|0:0,0:0:0:0:
246,299,136637,6,0,L|243:248,1,47.9999985351563,2|0,0:0|0:0,0:0:0:0:
235,171,136981,1,0,0:0:0:0:
166,300,137154,2,0,P|136:310|64:299,1,95.9999970703126,2|2,0:0|0:0,0:0:0:0:
26,244,137671,1,2,0:0:0:0:
117,139,137844,6,0,P|125:185|113:232,1,95.9999970703126,2|2,0:0|0:0,0:0:0:0:
72,303,138361,1,2,0:0:0:0:
34,152,138533,2,0,P|45:103|82:67,1,95.9999970703126,2|2,0:0|0:0,0:0:0:0:
203,103,139050,2,0,L|285:125,1,71.9999978027344,2|0,0:0|0:0,0:0:0:0:
299,131,139395,5,6,1:2:0:0:
299,131,139568,2,0,L|297:207,1,55.9999982910157,2|0,0:0|1:2,0:0:0:0:
387,245,139912,1,2,0:0:0:0:
387,245,140085,2,0,L|388:189,1,55.9999982910157,2|0,1:2|0:0,0:0:0:0:
470,134,140430,1,2,1:2:0:0:
470,134,140602,2,0,L|468:210,1,55.9999982910157,2|0,0:0|1:2,0:0:0:0:
470,271,140947,1,2,0:0:0:0:
387,338,141119,6,0,P|352:345|326:340,1,55.9999982910157,2|0,1:2|0:0,0:0:0:0:
270,292,141464,2,0,P|235:285|209:290,1,55.9999982910157,2|0,1:2|0:0,0:0:0:0:
157,337,141809,2,0,P|122:344|96:339,1,55.9999982910157,2|0,1:2|0:0,0:0:0:0:
74,257,142154,6,0,B|71:223|71:223|86:195|86:195|81:146,1,111.999996582031,0|2,1:2|1:2,0:0:0:0:
72,69,142671,1,2,0:0:0:0:
150,108,142844,2,0,P|177:115|249:106,1,83.9999974365235,2|0,1:2|0:0,0:0:0:0:
254,93,143188,1,2,1:2:0:0:
237,211,143361,6,0,P|267:198|354:216,1,111.999996582031,2|2,0:0|0:0,0:0:0:0:
293,362,144050,2,0,L|292:302,1,55.9999982910157,2|0,0:0|1:2,0:0:0:0:
385,320,144395,2,0,L|361:318,4,13.9999995727539,2|2|2|2|2,0:0|0:0|0:0|0:0|1:2,0:0:0:0:
133,308,144912,5,2,1:2:0:0:
133,308,145085,2,0,L|130:249,1,55.9999982910157,2|0,0:0|1:2,0:0:0:0:
199,160,145430,1,2,0:0:0:0:
199,160,145602,2,0,L|202:219,1,55.9999982910157,2|0,1:2|0:0,0:0:0:0:
286,301,145947,1,2,1:2:0:0:
286,301,146119,6,0,L|283:242,1,55.9999982910157,2|0,0:0|1:2,0:0:0:0:
334,128,146464,2,0,B|366:126|366:126|395:140|395:140|421:140,1,83.9999974365235,2|0,0:0|0:0,0:0:0:0:
440,129,146809,2,0,L|433:74,1,55.9999982910157,2|0,0:0|1:2,0:0:0:0:
264,21,147154,2,0,L|255:150,1,111.999996582031,2|0,0:0|0:0,0:0:0:0:
78,128,147671,6,0,L|120:130,3,35.9999989013672,2|0|0|0,1:2|1:2|1:2|1:2,0:0:0:0:
166,183,148016,2,0,L|172:231,1,35.9999989013672,0|0,1:2|1:2,0:0:0:0:
101,240,148188,2,0,L|95:288,1,35.9999989013672,0|0,1:2|1:2,0:0:0:0:
103,353,148361,2,0,L|143:348,3,35.9999989013672,0|0|0|0,1:2|1:2|1:2|1:2,0:0:0:0:
209,307,148706,2,0,L|249:312,3,35.9999989013672,0|0|0|0,1:2|1:2|1:2|1:2,0:0:0:0:
326,329,149050,6,0,L|320:273,1,40,2|0,1:2|1:2,0:0:0:0:
403,277,149223,2,0,L|397:221,1,40,2|0,1:2|1:2,0:0:0:0:
318,206,149395,2,0,L|312:150,1,40,0|0,1:2|1:2,0:0:0:0:
388,143,149568,2,0,L|382:87,1,40,2|0,1:2|1:2,0:0:0:0:
311,56,149740,1,0,1:2:0:0:
267,51,149826,1,0,1:2:0:0:
226,66,149912,1,2,1:2:0:0:
194,97,149999,1,0,1:2:0:0:
172,135,150085,2,0,L|168:183,1,44.0000013427735,8|8,0:0|0:0,0:0:0:0:
111,277,150257,2,0,L|107:229,1,44.0000013427735,8|8,0:0|0:0,0:0:0:0:
100,81,150430,5,6,1:2:0:0:
363,275,153188,5,4,1:2:0:0:
256,192,158706,12,2,160085,0:0:0:0:
93,74,161464,6,0,L|203:65,1,95.9999970703126,6|0,1:2|1:2,0:0:0:0:
382,283,161809,2,0,L|272:274,1,95.9999970703126,8|0,0:2|1:2,0:0:0:0:
112,255,162154,1,2,1:2:0:0:
270,162,162326,1,0,1:2:0:0:
213,330,162499,2,0,L|207:229,1,95.9999970703126,8|2,0:2|1:2,0:0:0:0:
188,66,162844,5,2,1:2:0:0:
61,165,163016,2,0,P|109:176|162:171,1,95.9999970703126,2|8,1:2|0:2,0:0:0:0:
269,22,163361,2,0,B|279:83|279:83|263:116|263:116|275:196,1,143.999995605469,2|0,1:2|0:0,0:0:0:0:
287,235,163706,1,2,1:2:0:0:
443,108,163878,2,0,P|387:125|329:117,1,95.9999970703126,8|0,0:2|1:2,0:0:0:0:
116,268,164223,6,0,P|172:251|230:259,1,95.9999970703126,6|0,1:2|1:2,0:0:0:0:
367,303,164568,1,8,0:2:0:0:
269,161,164740,2,0,P|266:106|383:45,1,191.999994140625,0|0,1:2|1:2,0:0:0:0:
449,203,165257,2,0,L|341:181,1,95.9999970703126,8|0,0:2|1:2,0:0:0:0:
179,54,165602,6,0,P|183:108|165:153,1,95.9999970703126,0|0,1:2|1:2,0:0:0:0:
46,299,165947,1,8,0:2:0:0:
103,92,166119,1,0,1:2:0:0:
204,259,166292,2,0,L|91:245,1,95.9999970703126,2|0,0:0|1:2,0:0:0:0:
261,36,166637,2,0,L|374:22,1,95.9999970703126,10|0,0:2|1:2,0:0:0:0:
290,238,166981,6,0,P|278:177|294:111,1,103.999995239258,14|0,0:2|1:2,0:0:0:0:
506,9,167326,2,0,P|518:70|502:136,1,103.999995239258,8|0,0:2|1:2,0:0:0:0:
433,313,167671,5,8,0:2:0:0:
428,165,167844,1,0,1:2:0:0:
333,375,168016,5,10,0:2:0:0:
348,226,168188,1,2,1:2:0:0:
508,358,168361,6,0,L|523:249,1,103.999995239258,8|0,0:2|1:2,0:0:0:0:
245,243,168706,2,0,L|260:352,1,103.999995239258,10|2,0:2|1:2,0:0:0:0:
323,149,169050,5,8,0:2:0:0:
178,187,169223,1,0,1:2:0:0:
390,281,169395,5,10,0:2:0:0:
245,243,169568,1,2,1:2:0:0:
335,73,169740,5,12,0:2:0:0:
307,297,169912,1,0,1:2:0:0:
307,297,170085,1,0,1:2:0:0:
257,13,170257,5,12,0:2:0:0:
319,209,170430,1,0,1:2:0:0:
319,209,170602,1,0,1:2:0:0:
430,64,170775,5,8,0:2:0:0:
231,127,170947,1,0,1:2:0:0:
392,262,171119,6,0,P|401:210|380:145,1,103.999995239258,8|0,0:2|1:2,0:0:0:0:
256,16,171464,1,0,1:2:0:0:
220,236,171637,1,8,0:2:0:0:
174,56,171809,1,8,0:0:0:0:
174,56,171981,1,8,0:0:0:0:
146,179,172154,1,8,0:0:0:0:
146,179,172326,1,8,0:0:0:0:
342,109,172499,6,0,L|346:189,1,80,14|0,0:2|1:2,0:0:0:0:
392,262,172844,1,2,1:2:0:0:
433,120,173016,2,0,L|428:29,2,80,14|2|2,0:2|1:2|1:2,0:0:0:0:
468,280,173533,2,0,P|421:262|367:266,1,80,10|2,0:2|1:2,0:0:0:0:
265,342,173878,5,14,0:2:0:0:
299,196,174050,2,0,L|310:279,1,80,2|0,1:2|1:2,0:0:0:0:
116,297,174395,2,0,B|198:291|159:354|290:340,1,160,14|0,0:2|1:2,0:0:0:0:
299,196,174912,2,0,L|285:107,1,80,10|0,0:2|1:2,0:0:0:0:
456,176,175257,6,0,P|408:191|366:187,1,80,14|0,0:2|1:2,0:0:0:0:
286,116,175602,1,2,1:2:0:0:
377,36,175775,2,0,P|391:80|393:120,2,80,14|2|2,0:2|1:2|1:2,0:0:0:0:
215,57,176292,2,0,L|113:69,1,80,10|0,0:2|1:2,0:0:0:0:
208,209,176637,5,14,0:2:0:0:
292,117,176809,2,0,P|304:162|301:211,1,80,2|0,1:2|1:2,0:0:0:0:
167,325,177154,2,0,P|239:295|321:347,1,160,14|0,0:2|1:2,0:0:0:0:
438,376,177671,2,0,P|391:386|334:369,1,80,8|0,0:3|1:2,0:0:0:0:
385,217,178016,6,0,L|395:122,1,80,14|0,0:2|1:2,0:0:0:0:
403,44,178361,1,2,1:2:0:0:
237,116,178533,2,0,P|281:126|323:122,2,80,14|2|2,0:2|1:2|1:2,0:0:0:0:
88,54,179050,2,0,P|102:102|99:135,1,80,10|2,0:2|1:2,0:0:0:0:
82,267,179395,5,14,0:2:0:0:
173,174,179568,2,0,P|159:222|162:255,1,80,2|0,1:2|1:2,0:0:0:0:
301,296,179912,2,0,B|250:301|250:301|201:330|201:330|146:335,1,160,14|0,0:2|1:2,0:0:0:0:
268,378,180430,2,0,L|357:368,1,80,10|0,0:2|1:2,0:0:0:0:
394,216,180775,6,0,P|379:265|381:298,1,80,14|0,0:2|1:2,0:0:0:0:
443,353,181119,1,2,1:2:0:0:
463,158,181292,2,0,P|478:207|476:240,2,80,14|2|2,0:2|1:2|1:2,0:0:0:0:
325,97,181809,2,0,L|243:91,1,80,10|0,0:2|1:2,0:0:0:0:
51,73,182154,5,14,0:2:0:0:
165,173,182326,2,0,P|173:129|169:92,1,80,2|0,1:2|1:2,0:0:0:0:
20,259,182671,2,0,P|60:239|147:257,1,120,14|0,0:2|0:0,0:0:0:0:
162,274,183016,1,8,0:2:0:0:
84,158,183188,1,8,0:2:0:0:
84,158,183361,1,8,0:2:0:0:
255,144,183533,6,0,P|268:177|272:228,2,71.9999978027344,14|0|2,0:2|1:2|1:2,0:0:0:0:
160,74,184050,2,0,P|146:40|143:-10,2,71.9999978027344,14|2|2,0:2|1:2|1:2,0:0:0:0:
334,124,184568,2,0,L|406:104,1,71.9999978027344,10|2,0:2|1:2,0:0:0:0:
435,89,184826,1,0,1:0:0:0:
435,89,184912,5,14,0:2:0:0:
425,214,185085,2,0,L|421:291,1,71.9999978027344,2|0,1:2|1:2,0:0:0:0:
279,299,185430,2,0,P|317:288|361:293,2,71.9999978027344,14|0|0,0:2|1:2|1:2,0:0:0:0:
151,348,185947,2,0,P|103:356|75:349,1,71.9999978027344,14|0,0:2|1:2,0:0:0:0:
42,153,186292,5,6,1:2:0:0:
