osu file format v14

[General]
AudioFilename: audio.mp3
AudioLeadIn: 0
PreviewTime: 84223
Countdown: 0
SampleSet: Soft
StackLeniency: 0.3
Mode: 0
LetterboxInBreaks: 0
WidescreenStoryboard: 1

[Editor]
DistanceSpacing: 1.2
BeatDivisor: 4
GridSize: 32
TimelineZoom: 2.699999

[Metadata]
Title:Start Again
TitleUnicode:Start Again
Artist:ONE OK ROCK
ArtistUnicode:ONE OK ROCK
Creator:Stixy
Version:Hard
Source:
Tags:japanese band male vocal rock english full ver version ambitions -[shady]- shady
BeatmapID:2239250
BeatmapSetID:1062516

[Difficulty]
HPDrainRate:4
CircleSize:3.5
OverallDifficulty:7
ApproachRate:8
SliderMultiplier:1.5
SliderTickRate:1

[Events]
//Background and Video events
0,0,"bg.jpg",0,0
//Break Periods
2,128297,138645
2,156147,157956
//Storyboard Layer 0 (Background)
//Storyboard Layer 1 (Fail)
//Storyboard Layer 2 (Pass)
//Storyboard Layer 3 (Foreground)
//Storyboard Layer 4 (Overlay)
//Storyboard Sound Samples

[TimingPoints]
2844,344.827586206897,4,2,1,50,1,0
8361,-125,4,2,1,50,0,0
19309,-125,4,2,1,5,0,0
19395,-111.111111111111,4,2,1,60,0,0
30430,-90.9090909090908,4,2,1,80,0,1
33447,-90.9090909090908,4,2,1,5,0,1
33533,-90.9090909090908,4,2,1,80,0,1
44481,-90.9090909090908,4,2,1,5,0,1
44568,-90.9090909090908,4,2,1,80,0,1
52499,-100,4,2,1,70,0,0
63533,-111.111111111111,4,2,1,60,0,0
85602,-90.9090909090908,4,2,1,80,0,1
107671,-100,4,2,1,70,0,0
118706,-111.111111111111,4,2,1,60,0,0
123792,-111.111111111111,4,2,1,5,0,0
123878,-111.111111111111,4,2,1,60,0,0
126550,-111.111111111111,4,2,1,5,0,0
126637,-111.111111111111,4,2,1,60,0,0
127412,-111.111111111111,4,2,1,5,0,0
127499,-111.111111111111,4,2,1,60,0,0
127930,-111.111111111111,4,2,1,5,0,0
128016,-100,4,2,1,50,0,0
139395,-125,4,2,1,60,0,0
150430,-166.666666666667,4,2,1,50,0,0
161464,-90.9090909090909,4,2,1,80,0,1
172499,-100,4,2,1,70,0,0
183533,-111.111111111111,4,2,1,60,0,0

[Colours]
Combo1 : 219,176,210
Combo2 : 253,203,150
Combo3 : 140,54,23
Combo4 : 72,68,142

[HitObjects]
37,50,8361,6,0,L|96:60,1,60
163,110,8706,2,0,L|222:99,1,60
280,38,9050,2,0,L|413:55,1,120,2|2,0:2|0:2,0:0:0:0:
472,91,9568,1,0,0:0:0:0:
422,165,9740,6,0,P|423:221|469:268,1,120,2|2,0:0|0:0,0:0:0:0:
377,367,10430,2,0,B|336:380|336:380|262:356,1,120,2|2,0:2|0:2,0:0:0:0:
186,323,10947,1,2,0:2:0:0:
103,377,11119,6,0,P|73:383|45:374,1,60
12,296,11464,2,0,L|22:220,1,60
88,183,11809,2,0,P|143:165|198:186,1,120,2|2,0:2|0:2,0:0:0:0:
264,239,12326,1,0,0:0:0:0:
340,295,12499,6,0,P|369:303|399:299,1,60,2|0,0:2|0:0,0:0:0:0:
462,243,12844,1,2,0:2:0:0:
462,243,13016,2,0,L|468:105,1,120,2|2,0:2|0:2,0:0:0:0:
410,60,13533,1,0,0:0:0:0:
340,122,13706,6,0,P|283:139|227:113,1,120,2|0,0:2|0:0,0:0:0:0:
169,48,14223,1,0,0:0:0:0:
43,127,14568,2,0,B|34:213|34:213|55:238,1,120,2|2,0:2|0:2,0:0:0:0:
125,285,15085,1,0,0:0:0:0:
70,352,15257,6,0,P|125:332|183:355,1,120,2|2,0:2|0:2,0:0:0:0:
252,306,15775,2,0,L|265:225,1,60,2|0,0:2|0:0,0:0:0:0:
328,195,16119,2,0,P|357:191|390:207,1,60,2|0,0:2|0:0,0:0:0:0:
458,247,16464,1,2,0:2:0:0:
497,162,16637,6,0,P|503:103|469:56,1,120,2|2,0:2|0:2,0:0:0:0:
384,71,17154,1,2,0:2:0:0:
384,71,17326,2,0,P|354:76|325:71,1,60,2|2,0:2|0:2,0:0:0:0:
253,27,17671,2,0,P|223:21|194:27,1,60,2|0,0:2|0:0,0:0:0:0:
120,92,18016,5,2,0:2:0:0:
120,92,18188,2,0,L|133:160,1,60,2|0,0:2|0:0,0:0:0:0:
63,200,18533,2,0,L|51:258,1,60,2|0,0:2|0:0,0:0:0:0:
87,335,18878,1,0,0:0:0:0:
147,272,19050,2,0,P|190:263|230:280,1,90,2|0,0:2|0:0,0:0:0:0:
269,303,19395,6,0,B|296:267|296:267|283:155,1,134.999995880127,4|0,1:2|0:0,0:0:0:0:
317,24,20085,2,0,P|350:20|380:34,1,67.4999979400635,2|0,0:2|0:0,0:0:0:0:
433,109,20430,2,0,L|420:175,1,67.4999979400635,2|0,0:2|0:0,0:0:0:0:
473,253,20775,6,0,L|485:319,1,67.4999979400635,2|0,0:2|0:0,0:0:0:0:
409,362,21119,2,0,P|376:370|343:365,1,67.4999979400635,2|0,0:2|0:0,0:0:0:0:
274,311,21464,2,0,P|240:305|208:314,1,67.4999979400635,2|0,0:2|0:0,0:0:0:0:
135,363,21809,1,2,0:2:0:0:
135,363,21981,1,2,0:2:0:0:
49,310,22154,6,0,B|21:276|21:276|41:183,1,134.999995880127
88,32,22844,2,0,P|119:23|152:29,1,67.4999979400635,2|2,0:2|0:0,0:0:0:0:
218,86,23188,1,2,0:2:0:0:
279,23,23361,6,0,L|412:44,1,134.999995880127,2|0,0:2|0:0,0:0:0:0:
426,172,24050,2,0,P|417:203|427:244,1,67.4999979400635,2|0,0:2|0:0,0:0:0:0:
485,299,24395,2,0,P|494:331|487:364,1,67.4999979400635,2|0,0:2|0:0,0:0:0:0:
404,335,24740,1,2,0:2:0:0:
320,291,24912,6,0,L|248:302,1,67.4999979400635
181,352,25257,2,0,L|114:341,1,67.4999979400635
50,280,25602,2,0,P|43:247|51:214,1,67.4999979400635,2|0,0:2|0:0,0:0:0:0:
127,169,25947,2,0,P|133:136|125:103,1,67.4999979400635,2|0,0:2|0:0,0:0:0:0:
70,23,26292,6,0,L|136:13,1,67.4999979400635,2|0,0:2|0:0,0:0:0:0:
207,66,26637,2,0,L|273:75,1,67.4999979400635,2|0,0:2|0:0,0:0:0:0:
345,24,26981,2,0,L|411:14,1,67.4999979400635,2|0,0:2|0:0,0:0:0:0:
475,75,27326,1,2,0:2:0:0:
475,75,27499,1,2,0:2:0:0:
423,145,27671,6,0,L|432:194,3,33.7499989700318,0|0|0|0,1:2|1:2|1:2|1:2,0:0:0:0:
463,206,28016,2,0,L|453:255,3,33.7499989700318,0|0|0|0,1:2|1:2|1:2|1:2,0:0:0:0:
425,270,28361,2,0,L|434:319,3,33.7499989700318,0|0|0|0,1:2|1:2|1:2|1:2,0:0:0:0:
463,334,28706,2,0,L|453:383,3,33.7499989700318,0|0|0|0,1:2|1:2|1:2|1:2,0:0:0:0:
414,380,29050,6,0,P|397:383|380:381,3,33.7499989700318,2|0|2|0,1:2|1:2|1:2|1:2,0:0:0:0:
346,353,29395,2,0,P|329:351|312:355,3,33.7499989700318,0|0|2|0,1:2|1:2|1:2|1:2,0:0:0:0:
274,377,29740,2,0,P|257:378|238:374,3,33.7499989700318,8|8|10|8,0:2|0:2|0:2|0:2,0:0:0:0:
196,368,30085,2,0,L|189:332,1,33.7499989700318,8|8,0:0|0:0,0:0:0:0:
212,297,30257,2,0,L|219:261,1,33.7499989700318,8|8,0:0|0:0,0:0:0:0:
228,212,30430,6,0,B|269:126|191:132|230:54,1,165.000005035401,6|8,1:2|0:2,0:0:0:0:
136,23,30947,1,0,0:0:0:0:
67,93,31119,2,0,L|83:177,1,82.5000025177003,2|0,0:0|1:2,0:0:0:0:
57,269,31464,1,8,0:2:0:0:
130,335,31637,1,2,0:0:0:0:
201,257,31809,6,0,P|240:247|279:259,1,82.5000025177003,2|2,1:2|1:2,0:0:0:0:
364,311,32154,1,8,0:2:0:0:
454,270,32326,2,0,L|467:182,1,82.5000025177003,2|0,1:2|0:0,0:0:0:0:
394,120,32671,2,0,L|380:32,1,82.5000025177003,2|8,1:2|0:2,0:0:0:0:
286,8,33016,1,2,1:2:0:0:
212,80,33188,6,0,P|153:95|94:77,1,123.75000377655,4|0,1:2|0:0,0:0:0:0:
46,65,33533,2,0,L|64:169,1,82.5000025177003,8|0,0:2|0:0,0:0:0:0:
81,243,33878,1,0,0:0:0:0:
146,317,34050,2,0,P|186:329|239:310,1,82.5000025177003,0|8,1:2|0:2,0:0:0:0:
301,257,34395,1,2,0:0:0:0:
377,333,34568,5,2,1:2:0:0:
439,256,34740,2,0,L|448:169,1,82.5000025177003,2|8,1:2|0:2,0:0:0:0:
452,73,35085,2,0,P|414:61|373:67,1,82.5000025177003,2|0,1:2|0:0,0:0:0:0:
289,121,35430,2,0,P|248:127|209:114,1,82.5000025177003,2|8,1:2|0:2,0:0:0:0:
111,56,35775,1,8,0:2:0:0:
111,56,35861,1,8,0:2:0:0:
111,56,35947,6,0,B|86:98|86:98|109:211,1,165.000005035401,6|8,1:2|0:2,0:0:0:0:
132,308,36464,1,0,1:2:0:0:
200,235,36637,2,0,P|239:224|279:234,1,82.5000025177003,2|0,0:0|1:2,0:0:0:0:
362,287,36981,2,0,P|401:296|441:286,1,82.5000025177003,8|0,0:2|0:0,0:0:0:0:
491,187,37326,5,2,0:0:0:0:
491,187,37499,2,0,L|481:95,1,82.5000025177003,0|8,1:2|0:2,0:0:0:0:
412,33,37844,2,0,P|371:24|332:37,1,82.5000025177003,2|0,0:0|0:0,0:0:0:0:
234,48,38188,2,0,P|246:86|277:115,1,82.5000025177003,2|8,1:2|0:2,0:0:0:0:
374,132,38533,1,0,1:2:0:0:
406,225,38706,6,0,L|390:322,1,82.5000025177003,14|0,0:2|1:2,0:0:0:0:
310,360,39050,1,0,1:2:0:0:
227,304,39223,2,0,P|188:292|148:301,1,82.5000025177003,12|0,0:2|1:2,0:0:0:0:
69,361,39568,1,0,1:2:0:0:
48,264,39740,2,0,L|35:175,1,82.5000025177003,8|0,0:2|1:2,0:0:0:0:
58,76,40085,5,14,0:2:0:0:
57,76,40257,2,0,P|97:63|137:70,1,82.5000025177003,2|0,1:2|1:2,0:0:0:0:
228,106,40602,2,0,L|269:99,2,41.2500012588501,10|8|0,0:2|0:2|1:2,0:0:0:0:
168,185,40947,1,2,1:2:0:0:
251,238,41119,2,0,L|346:221,1,82.5000025177003,12|8,0:2|0:2,0:0:0:0:
380,216,41378,1,8,0:2:0:0:
380,216,41464,6,0,P|419:285|397:363,1,165.000005035401,6|8,1:2|0:2,0:0:0:0:
303,333,41981,1,0,0:0:0:0:
211,371,42154,2,0,L|128:359,1,82.5000025177003,2|0,0:0|1:2,0:0:0:0:
61,286,42499,1,8,0:2:0:0:
117,205,42671,1,2,0:0:0:0:
45,127,42844,6,0,P|41:86|55:47,1,82.5000025177003,2|2,1:2|1:2,0:0:0:0:
149,18,43188,1,8,0:2:0:0:
229,76,43361,2,0,P|269:84|308:73,1,82.5000025177003,2|0,1:2|0:0,0:0:0:0:
392,20,43706,2,0,P|431:9|471:17,1,82.5000025177003,2|8,1:2|0:2,0:0:0:0:
506,110,44050,1,2,0:0:0:0:
489,222,44223,6,0,B|480:310|480:310|469:286|440:266,1,123.75000377655,6|0,1:2|0:0,0:0:0:0:
416,253,44568,2,0,P|377:244|337:254,1,82.5000025177003,8|0,0:2|0:0,0:0:0:0:
260,316,44912,1,0,0:0:0:0:
181,376,45085,1,0,1:2:0:0:
181,376,45257,2,0,P|141:385|101:375,1,82.5000025177003,8|0,0:2|0:0,0:0:0:0:
43,295,45602,6,0,L|65:180,1,82.5000025177003,0|0,1:2|1:2,0:0:0:0:
128,143,45947,2,0,P|167:131|206:139,1,82.5000025177003,8|0,0:2|0:0,0:0:0:0:
294,185,46292,1,2,0:0:0:0:
294,185,46464,2,0,P|333:194|374:185,1,82.5000025177003,0|10,1:2|0:2,0:0:0:0:
454,122,46809,1,0,1:2:0:0:
486,225,46981,6,0,B|504:338|504:338|452:382,1,165.000005035401,6|0,1:2|1:2,0:0:0:0:
465,370,47671,2,0,P|399:323|320:339,1,165.000005035401,0|2,1:2|1:2,0:0:0:0:
320,337,48361,6,0,P|241:352|176:307,1,165.000005035401,0|2,1:2|1:2,0:0:0:0:
175,306,49050,2,0,L|202:144,1,165.000005035401,0|2,1:2|1:2,0:0:0:0:
256,192,49740,12,2,52068,0:0:0:0:
424,57,52499,6,0,L|411:158,1,75,14|0,0:2|1:2,0:0:0:0:
458,218,52844,1,2,1:2:0:0:
458,218,53016,1,14,0:2:0:0:
419,307,53188,2,0,P|383:317|347:308,1,75,2|2,1:2|1:2,0:0:0:0:
259,265,53533,2,0,P|222:256|187:266,1,75,10|2,0:2|1:2,0:0:0:0:
99,324,53878,5,14,0:2:0:0:
99,324,54050,2,0,L|80:231,1,75,2|0,1:2|1:2,0:0:0:0:
39,163,54395,2,0,L|57:70,1,75,14|0,0:2|1:2,0:0:0:0:
133,32,54740,1,0,1:2:0:0:
218,77,54912,2,0,P|258:84|294:71,1,75,10|0,0:2|1:2,0:0:0:0:
374,13,55257,6,0,L|388:86,1,75,14|0,0:2|1:2,0:0:0:0:
458,154,55602,1,2,1:2:0:0:
458,154,55775,1,14,0:2:0:0:
401,235,55947,2,0,P|359:245|305:220,1,75,2|2,1:2|1:2,0:0:0:0:
247,183,56292,2,0,P|210:175|174:185,1,75,10|0,0:2|1:2,0:0:0:0:
95,256,56637,5,14,0:2:0:0:
95,256,56809,2,0,L|106:334,1,75,2|0,1:2|1:2,0:0:0:0:
192,374,57154,2,0,P|228:381|271:367,1,75,14|0,0:2|1:2,0:0:0:0:
341,310,57499,1,0,1:2:0:0:
432,343,57671,2,0,L|528:366,1,75,8|0,0:3|1:2,0:0:0:0:
512,254,58016,6,0,P|515:216|503:181,1,75,14|0,0:2|1:2,0:0:0:0:
443,104,58361,1,2,1:2:0:0:
443,104,58533,1,14,0:2:0:0:
374,173,58706,2,0,P|337:182|302:171,1,75,2|2,1:2|1:2,0:0:0:0:
238,97,59050,2,0,L|251:4,1,75,10|2,0:2|1:2,0:0:0:0:
150,20,59395,5,14,0:2:0:0:
150,20,59568,2,0,P|113:16|78:30,1,75,2|0,1:2|1:2,0:0:0:0:
21,106,59912,2,0,L|39:197,1,75,14|0,0:2|1:2,0:0:0:0:
114,245,60257,1,0,1:2:0:0:
41,310,60430,2,0,L|59:401,1,75,10|0,0:2|1:2,0:0:0:0:
150,330,60775,6,0,P|186:319|222:329,1,75,14|0,0:2|1:2,0:0:0:0:
313,364,61119,1,2,1:2:0:0:
313,364,61292,1,14,0:2:0:0:
297,267,61464,2,0,L|283:170,1,75,2|2,1:2|1:2,0:0:0:0:
207,134,61809,2,0,L|221:37,1,75,10|0,0:2|1:2,0:0:0:0:
316,17,62154,5,14,0:2:0:0:
316,17,62326,2,0,P|354:9|390:22,1,75,2|0,1:2|1:2,0:0:0:0:
461,82,62671,1,14,0:2:0:0:
388,147,62844,1,0,1:2:0:0:
388,147,63016,1,8,0:2:0:0:
456,215,63188,1,8,0:2:0:0:
456,215,63361,1,8,0:2:0:0:
380,287,63533,6,0,B|331:279|331:279|305:294|305:294|227:277,1,134.999995880127,4|8,1:2|0:2,0:0:0:0:
109,296,64223,2,0,L|98:377,1,67.4999979400635,2|0,1:2|0:0,0:0:0:0:
19,308,64568,2,0,L|13:241,1,67.4999979400635,10|0,0:2|0:0,0:0:0:0:
3,144,64912,6,0,P|65:120|127:143,1,134.999995880127,2|8,1:2|0:2,0:0:0:0:
209,111,65430,2,0,L|225:21,1,67.4999979400635,2|0,0:0|1:2,0:0:0:0:
304,15,65775,2,0,P|336:8|373:20,1,67.4999979400635,2|8,0:0|0:2,0:0:0:0:
445,74,66119,6,0,B|470:115|470:115|447:221,1,134.999995880127,2|0,0:0|0:0,0:0:0:0:
502,272,66637,1,8,0:0:0:0:
390,363,66981,2,0,P|359:372|326:365,1,67.4999979400635,2|0,1:2|0:0,0:0:0:0:
256,312,67326,2,0,P|223:304|191:314,1,67.4999979400635,10|0,0:2|0:0,0:0:0:0:
112,379,67671,6,0,P|135:315|99:257,1,134.999995880127,2|8,1:2|0:2,0:0:0:0:
20,230,68188,2,0,L|3:151,1,67.4999979400635,2|0,0:0|1:2,0:0:0:0:
75,110,68533,2,0,L|91:31,1,67.4999979400635,2|8,0:0|0:2,0:0:0:0:
173,17,68878,1,10,0:2:0:0:
243,87,69050,6,0,P|305:108|367:84,1,134.999995880127,0|8,1:2|0:2,0:0:0:0:
499,153,69740,2,0,L|480:248,1,67.4999979400635,2|0,1:2|0:0,0:0:0:0:
392,215,70085,2,0,L|410:310,1,67.4999979400635,10|0,0:2|0:0,0:0:0:0:
477,340,70430,6,0,B|440:322|440:322|332:346,1,134.999995880127,2|8,1:2|0:2,0:0:0:0:
271,298,70947,2,0,L|191:315,1,67.4999979400635,2|0,0:0|1:2,0:0:0:0:
124,348,71292,2,0,L|57:333,1,67.4999979400635,2|8,0:0|0:2,0:0:0:0:
10,260,71637,1,2,0:0:0:0:
56,176,71809,6,0,P|62:143|52:110,1,67.4999979400635,2|0,1:2|0:0,0:0:0:0:
5,37,72154,2,0,L|96:22,1,67.4999979400635,10|2,0:2|0:0,0:0:0:0:
138,83,72499,2,0,L|204:72,1,67.4999979400635,2|2,1:2|0:0,0:0:0:0:
281,115,72844,2,0,L|347:104,1,67.4999979400635,10|0,0:2|0:0,0:0:0:0:
432,59,73188,5,2,1:2:0:0:
432,59,73361,2,0,P|444:91|441:124,1,67.4999979400635,2|8,0:0|0:2,0:0:0:0:
384,190,73706,2,0,P|381:223|393:254,1,67.4999979400635,2|0,0:0|1:2,0:0:0:0:
452,318,74050,1,0,0:0:0:0:
383,373,74223,2,0,L|316:361,1,67.4999979400635,10|12,0:2|0:2,0:0:0:0:
251,288,74568,6,0,L|279:124,1,134.999995880127,0|8,1:2|0:2,0:0:0:0:
221,20,75257,2,0,P|189:11|157:19,1,67.4999979400635,2|0,1:2|0:0,0:0:0:0:
68,14,75602,2,0,P|70:48|89:78,1,67.4999979400635,10|0,0:0|0:0,0:0:0:0:
175,103,75947,6,0,L|159:192,1,67.4999979400635,2|0,1:2|0:0,0:0:0:0:
91,216,76292,1,10,0:2:0:0:
91,216,76464,2,0,L|106:305,1,67.4999979400635,2|0,0:0|1:2,0:0:0:0:
161,343,76809,2,0,P|194:346|225:334,1,67.4999979400635,2|8,0:0|0:2,0:0:0:0:
296,277,77154,6,0,B|388:253|388:253|431:276,1,134.999995880127,2|0,0:0|0:0,0:0:0:0:
493,218,77671,2,0,L|480:135,1,67.4999979400635,8|0,0:2|0:0,0:0:0:0:
419,90,78016,1,2,1:2:0:0:
419,90,78188,2,0,P|387:82|354:87,1,67.4999979400635,2|8,0:0|0:2,0:0:0:0:
273,127,78533,6,0,B|200:141|221:92|144:107,1,134.999995880127,2|0,0:0|0:0,0:0:0:0:
75,161,79050,1,8,0:2:0:0:
45,243,79223,2,0,L|63:334,1,67.4999979400635,2|0,0:0|1:2,0:0:0:0:
136,270,79568,2,0,P|168:262|206:277,1,67.4999979400635,2|8,0:0|0:2,0:0:0:0:
271,324,79912,1,2,0:0:0:0:
335,254,80085,6,0,B|357:218|357:218|303:129,1,134.999995880127,0|8,1:2|0:0,0:0:0:0:
343,13,80775,2,0,P|407:-3|466:25,1,134.999995880127,0|8,1:2|0:2,0:0:0:0:
510,101,81292,1,2,0:0:0:0:
501,195,81464,6,0,L|488:288,1,67.4999979400635,2|2,1:2|0:0,0:0:0:0:
422,315,81809,1,8,0:2:0:0:
345,271,81981,2,0,P|313:262|278:272,1,67.4999979400635,2|0,0:0|1:2,0:0:0:0:
210,323,82326,2,0,P|177:331|145:322,1,67.4999979400635,2|8,0:0|0:2,0:0:0:0:
72,272,82671,1,0,0:0:0:0:
37,186,82844,6,0,L|51:111,1,67.4999979400635,2|0,1:2|0:0,0:0:0:0:
113,60,83188,2,0,P|145:51|185:66,1,67.4999979400635,10|2,0:2|0:0,0:0:0:0:
227,133,83533,2,0,L|214:199,1,67.4999979400635,2|2,1:2|0:0,0:0:0:0:
262,272,83878,2,0,P|294:280|326:272,1,67.4999979400635,10|0,0:2|0:0,0:0:0:0:
410,223,84223,5,2,0:0:0:0:
410,223,84395,2,0,L|420:130,1,67.4999979400635,2|0,0:0|0:0,0:0:0:0:
486,102,84740,2,0,L|478:34,1,67.4999979400635,2|0,0:0|0:0,0:0:0:0:
396,2,85085,2,0,P|331:-13|270:13,1,134.999995880127,2|0,0:0|0:0,0:0:0:0:
191,78,85602,6,0,B|92:97|139:29|36:45,1,165.000005035401,6|8,1:2|0:2,0:0:0:0:
10,140,86119,1,0,0:0:0:0:
78,212,86292,2,0,P|85:252|72:290,1,82.5000025177003,2|0,0:0|1:2,0:0:0:0:
12,370,86637,1,8,0:2:0:0:
114,384,86809,1,2,0:0:0:0:
199,314,86981,6,0,P|239:305|279:317,1,82.5000025177003,2|2,1:2|1:2,0:0:0:0:
369,357,87326,1,8,0:2:0:0:
437,285,87499,2,0,P|453:247|448:206,1,82.5000025177003,2|0,1:2|0:0,0:0:0:0:
447,107,87844,2,0,P|406:111|373:135,1,82.5000025177003,2|8,1:2|0:2,0:0:0:0:
354,232,88188,1,2,1:2:0:0:
282,129,88361,6,0,L|300:29,1,82.5000025177003,4|0,1:2|1:0,0:0:0:0:
203,15,88706,2,0,P|163:4|124:16,1,82.5000025177003,8|0,0:2|0:0,0:0:0:0:
44,73,89050,1,0,0:0:0:0:
67,169,89223,2,0,L|50:264,1,82.5000025177003,0|8,1:2|0:2,0:0:0:0:
36,348,89568,1,2,0:0:0:0:
143,289,89740,5,2,1:2:0:0:
143,288,89912,2,0,P|182:279|221:292,1,82.5000025177003,2|8,1:2|0:2,0:0:0:0:
301,351,90257,2,0,P|340:360|379:347,1,82.5000025177003,2|0,1:2|0:0,0:0:0:0:
463,295,90602,2,0,L|471:201,1,82.5000025177003,2|8,1:2|0:2,0:0:0:0:
442,108,90947,1,8,0:2:0:0:
442,108,91033,1,8,0:2:0:0:
442,107,91119,6,0,P|367:138|294:104,1,165.000005035401,6|8,1:2|0:2,0:0:0:0:
224,34,91637,1,0,1:2:0:0:
144,92,91809,2,0,L|129:173,1,82.5000025177003,2|0,0:0|1:2,0:0:0:0:
57,241,92154,2,0,L|71:322,1,82.5000025177003,8|0,0:2|0:0,0:0:0:0:
170,367,92499,5,2,0:0:0:0:
170,367,92671,2,0,P|210:375|249:362,1,82.5000025177003,0|8,1:2|0:2,0:0:0:0:
346,345,93016,2,0,P|332:306|302:278,1,82.5000025177003,2|0,0:0|0:0,0:0:0:0:
239,201,93361,2,0,P|212:231|203:271,1,82.5000025177003,2|8,1:2|0:2,0:0:0:0:
302,278,93706,1,0,1:2:0:0:
329,175,93878,6,0,L|347:80,1,82.5000025177003,14|0,0:2|1:2,0:0:0:0:
439,64,94223,1,0,1:2:0:0:
469,157,94395,2,0,L|450:251,1,82.5000025177003,12|0,0:2|1:2,0:0:0:0:
426,333,94740,1,0,1:2:0:0:
338,285,94912,2,0,P|298:275|259:286,1,82.5000025177003,8|0,0:2|1:2,0:0:0:0:
181,348,95257,5,14,0:2:0:0:
181,348,95430,2,0,L|165:258,1,82.5000025177003,2|0,1:2|1:2,0:0:0:0:
83,212,95775,2,0,L|76:162,2,41.2500012588501,10|8|0,0:2|0:2|1:2,0:0:0:0:
144,106,96119,1,2,1:2:0:0:
224,48,96292,2,0,P|263:37|302:47,1,82.5000025177003,12|8,0:2|0:2,0:0:0:0:
347,69,96550,1,8,0:2:0:0:
347,69,96637,6,0,B|446:95|413:23|504:54,1,165.000005035401,6|8,1:2|0:2,0:0:0:0:
494,152,97154,1,0,0:0:0:0:
472,248,97326,2,0,L|455:340,1,82.5000025177003,2|0,0:0|1:2,0:0:0:0:
368,372,97671,1,8,0:2:0:0:
281,323,97844,1,2,0:0:0:0:
188,369,98016,6,0,P|149:378|109:367,1,82.5000025177003,2|2,1:2|1:2,0:0:0:0:
40,307,98361,1,8,0:2:0:0:
53,209,98533,2,0,L|71:121,1,82.5000025177003,2|0,1:2|0:0,0:0:0:0:
133,49,98878,2,0,P|173:43|212:55,1,82.5000025177003,2|8,1:2|0:2,0:0:0:0:
297,107,99223,1,0,0:0:0:0:
374,34,99395,6,0,B|394:148|394:148|349:199,1,165.000005035401,6|8,1:2|0:2,0:0:0:0:
272,228,99912,2,0,P|265:272|286:320,1,82.5000025177003
370,343,100257,1,0,1:2:0:0:
370,343,100430,2,0,L|461:336,1,82.5000025177003,8|0,0:2|0:0,0:0:0:0:
498,248,100775,6,0,P|508:208|493:170,1,82.5000025177003,0|0,1:2|1:2,0:0:0:0:
419,106,101119,2,0,L|328:113,1,82.5000025177003,8|0,0:2|1:0,0:0:0:0:
246,153,101464,1,2,0:0:0:0:
246,153,101637,2,0,L|161:143,1,82.5000025177003,0|10,1:2|0:2,0:0:0:0:
79,92,101981,1,0,1:2:0:0:
95,213,102154,6,0,L|117:384,1,165.000005035401,6|0,1:2|1:2,0:0:0:0:
116,375,102844,2,0,P|186:336|262:360,1,165.000005035401,0|2,1:2|1:2,0:0:0:0:
262,360,103533,6,0,B|303:254|303:254|272:210,1,165.000005035401,0|2,1:2|1:2,0:0:0:0:
272,211,104223,2,0,P|251:135|298:71,1,165.000005035401,0|2,1:2|1:2,0:0:0:0:
298,71,104912,6,0,L|484:102,1,165.000005035401,4|0,1:2|1:0,0:0:0:0:
460,98,105602,2,0,P|470:137|461:177,1,82.5000025177003,0|8,1:0|0:0,0:0:0:0:
371,217,105947,2,0,P|362:257|372:296,1,82.5000025177003,0|8,1:0|0:0,0:0:0:0:
433,375,106292,5,8,0:0:0:0:
433,375,106464,1,8,0:0:0:0:
333,375,106637,2,0,L|251:362,1,82.5000025177003,8|8,0:0|0:0,0:0:0:0:
186,300,106981,1,8,0:0:0:0:
186,300,107154,1,8,0:0:0:0:
101,350,107326,1,8,0:0:0:0:
101,350,107499,1,8,0:0:0:0:
28,274,107671,6,0,P|22:237|35:202,1,75,14|0,0:2|1:2,0:0:0:0:
119,152,108016,1,2,1:2:0:0:
119,152,108188,1,14,0:2:0:0:
201,204,108361,2,0,L|303:187,1,75,2|2,1:2|1:2,0:0:0:0:
349,255,108706,2,0,L|423:266,1,75,10|2,0:2|1:2,0:0:0:0:
499,191,109050,5,14,0:2:0:0:
499,190,109223,2,0,P|507:155|497:119,1,75,2|0,1:2|1:2,0:0:0:0:
427,51,109568,2,0,L|352:39,1,75,14|0,0:2|1:2,0:0:0:0:
267,85,109912,1,0,1:2:0:0:
181,37,110085,2,0,L|106:48,1,75,10|0,0:2|1:2,0:0:0:0:
38,131,110430,6,0,P|28:166|39:202,1,75,14|0,0:2|1:2,0:0:0:0:
105,273,110775,1,2,1:2:0:0:
105,273,110947,1,14,0:2:0:0:
186,325,111119,2,0,P|226:318|273:339,1,75,2|2,1:2|1:2,0:0:0:0:
345,370,111464,2,0,P|380:380|417:372,1,75,10|0,0:2|1:2,0:0:0:0:
478,283,111809,5,14,0:2:0:0:
478,283,111981,2,0,L|462:190,1,75,2|0,1:2|1:2,0:0:0:0:
388,148,112326,2,0,P|352:137|310:148,1,75,14|0,0:2|1:2,0:0:0:0:
234,198,112671,1,0,1:2:0:0:
234,198,112844,2,0,P|197:206|162:195,1,75,8|0,0:3|1:2,0:0:0:0:
80,130,113188,6,0,L|87:33,1,75,14|0,0:2|1:2,0:0:0:0:
170,6,113533,1,2,1:2:0:0:
170,6,113706,1,14,0:2:0:0:
251,58,113878,2,0,P|290:68|328:57,1,75,2|2,1:2|1:2,0:0:0:0:
405,7,114223,2,0,P|441:-1|476:8,1,75,10|2,0:2|1:2,0:0:0:0:
503,112,114568,5,14,0:2:0:0:
503,112,114740,2,0,L|493:189,1,75,2|0,1:2|1:2,0:0:0:0:
396,202,115085,2,0,L|406:279,1,75,14|0,0:2|1:2,0:0:0:0:
420,373,115430,1,0,1:2:0:0:
331,329,115602,2,0,P|295:321|260:332,1,75,10|0,0:2|1:2,0:0:0:0:
168,377,115947,6,0,P|178:341|168:305,1,75,14|0,0:2|1:2,0:0:0:0:
104,231,116292,1,2,1:2:0:0:
104,231,116464,1,14,0:2:0:0:
47,151,116637,2,0,P|36:115|47:79,1,75,2|2,1:2|1:2,0:0:0:0:
133,35,116981,2,0,L|222:42,1,75,10|0,0:2|1:2,0:0:0:0:
273,128,117326,5,14,0:2:0:0:
273,128,117499,2,0,P|280:167|265:203,1,75,2|0,1:2|1:2,0:0:0:0:
219,292,117844,2,0,L|229:353,2,37.5,14|0|0,0:2|1:0|1:2,0:0:0:0:
328,274,118188,1,8,0:2:0:0:
309,377,118361,1,8,0:2:0:0:
309,377,118533,1,8,0:2:0:0:
420,307,118706,6,0,P|429:271|420:239,1,67.4999979400635,10|2,0:3|1:2,0:0:0:0:
375,167,119050,2,0,P|367:134|376:102,1,67.4999979400635,10|2,0:3|1:2,0:0:0:0:
420,26,119395,2,0,L|353:16,1,67.4999979400635,10|2,0:2|1:2,0:0:0:0:
266,2,119740,1,10,0:3:0:0:
266,2,119912,1,10,0:3:0:0:
200,67,120085,6,0,P|167:75|134:67,1,67.4999979400635,2|10,1:2|0:3,0:0:0:0:
55,29,120430,2,0,L|42:128,1,67.4999979400635,10|2,0:3|1:2,0:0:0:0:
74,179,120775,2,0,B|76:227|76:227|102:256|102:256|106:303,1,134.999995880127,10|2,0:2|0:0,0:0:0:0:
105,303,121464,6,0,P|143:295|179:305,1,67.4999979400635,10|2,0:3|1:2,0:0:0:0:
250,339,121809,2,0,P|282:345|315:337,1,67.4999979400635,10|2,0:3|1:2,0:0:0:0:
392,293,122154,2,0,L|375:204,1,67.4999979400635,10|2,0:2|1:2,0:0:0:0:
416,146,122499,1,10,0:3:0:0:
416,146,122671,1,10,0:3:0:0:
338,87,122844,6,0,L|355:-2,1,67.4999979400635,2|10,1:2|0:3,0:0:0:0:
264,3,123188,2,0,P|230:-2|198:6,1,67.4999979400635,10|2,0:3|1:2,0:0:0:0:
134,67,123533,2,0,P|89:86|40:77,1,101.249996910095,10|0,0:2|0:0,0:0:0:0:
2,54,123878,2,0,L|16:143,1,67.4999979400635,10|0,0:2|0:0,0:0:0:0:
87,180,124223,6,0,L|164:165,1,67.4999979400635,10|2,0:3|1:2,0:0:0:0:
233,203,124568,1,10,0:3:0:0:
233,203,124740,2,0,L|299:190,1,67.4999979400635,2|8,1:2|0:2,0:0:0:0:
385,206,125085,1,2,1:2:0:0:
462,272,125257,1,10,0:3:0:0:
462,272,125430,6,0,P|461:305|444:334,1,67.4999979400635,10|0,0:3|1:2,0:0:0:0:
362,374,125775,1,8,0:3:0:0:
362,374,125947,2,0,L|291:382,1,67.4999979400635,8|0,0:3|1:2,0:0:0:0:
217,339,126292,2,0,B|180:320|180:320|97:331,1,101.249996910095,8|0,0:2|0:0,0:0:0:0:
77,336,126637,2,0,L|70:268,1,67.4999979400635,8|0,0:2|1:2,0:0:0:0:
0,190,126981,6,0,P|93:163|167:225,1,168.749994850159,2|0,0:2|0:0,0:0:0:0:
184,227,127499,2,0,B|224:254|224:254|335:209,1,168.749994850159,2|0,0:2|0:0,0:0:0:0:
377,184,128016,5,4,1:2:0:0:
76,81,139395,5,6,1:2:0:0:
76,81,139568,2,0,L|89:163,1,60,2|0,0:0|1:2,0:0:0:0:
141,210,139912,1,2,0:0:0:0:
141,210,140085,2,0,L|127:292,1,60,2|0,1:2|0:0,0:0:0:0:
93,351,140430,1,2,1:2:0:0:
93,351,140602,6,0,P|121:360|150:355,1,60,2|0,0:0|1:2,0:0:0:0:
222,311,140947,1,2,0:0:0:0:
222,311,141119,2,0,P|250:301|279:306,1,60,2|0,1:2|0:0,0:0:0:0:
347,352,141464,2,0,P|334:296|365:246,1,120,2|2,1:2|1:2,0:0:0:0:
365,246,142154,6,0,P|393:255|421:247,1,60,0|0,1:2|0:0,0:0:0:0:
485,187,142499,2,0,P|490:158|482:130,1,60,2|2,1:2|0:0,0:0:0:0:
443,55,142844,2,0,P|387:39|331:59,1,120,2|2,1:2|1:2,0:0:0:0:
253,105,143361,6,0,P|225:112|194:106,1,60,2|0,0:0|1:2,0:0:0:0:
121,65,143706,2,0,P|91:59|62:66,1,60,2|0,0:0|1:2,0:0:0:0:
16,136,144050,2,0,B|3:179|3:179|33:272,1,120,2|2,0:0|0:0,0:0:0:0:
59,277,144481,1,2,0:0:0:0:
59,277,144568,1,2,0:0:0:0:
164,370,144912,5,2,1:2:0:0:
164,370,145085,2,0,P|193:377|221:370,1,60,2|0,0:0|1:2,0:0:0:0:
281,311,145430,1,2,0:0:0:0:
281,311,145603,2,0,P|309:303|338:310,1,60,2|0,1:2|0:0,0:0:0:0:
421,337,145947,1,2,1:2:0:0:
421,337,146119,6,0,L|430:276,1,60,2|0,0:0|1:2,0:0:0:0:
483,212,146464,2,0,L|474:151,1,60,2|0,0:0|1:2,0:0:0:0:
451,71,146809,2,0,P|395:48|340:68,1,120,2|2,0:0|0:0,0:0:0:0:
280,125,147326,2,0,L|289:186,1,60,0|0,1:2|0:0,0:0:0:0:
301,273,147671,6,0,L|253:281,3,30,2|0|0|0,1:2|1:2|1:2|1:2,0:0:0:0:
240,306,148016,2,0,L|210:300,3,30,0|0|0|0,1:2|1:2|1:2|1:2,0:0:0:0:
178,273,148361,2,0,L|148:278,3,30,0|0|0|0,1:2|1:2|1:2|1:2,0:0:0:0:
115,304,148706,2,0,L|85:298,3,30,0|0|0|0,1:2|1:2|1:2|1:2,0:0:0:0:
47,283,149050,6,0,P|44:258|51:230,3,30,2|0|2|0,1:2|1:2|1:2|1:2,0:0:0:0:
69,219,149395,2,0,P|69:204|66:189,3,30,0|0|2|0,1:2|1:2|1:2|1:2,0:0:0:0:
30,165,149740,2,0,P|29:150|32:135,3,30,0|0|2|0,1:2|1:2|1:2|1:2,0:0:0:0:
36,93,150085,2,0,L|65:97,1,30,8|8,0:0|0:0,0:0:0:0:
105,108,150257,2,0,L|134:100,1,30,8|8,0:0|0:0,0:0:0:0:
167,81,150430,6,0,B|276:107|238:22|343:49,2,179.999994506836,6|2|2,1:2|0:0|0:0,0:0:0:0:
185,244,153188,6,0,B|204:122|204:122|166:80,2,179.999994506836,4|0|2,1:2|0:0|0:0,0:0:0:0:
185,244,155947,5,2,0:0:0:0:
256,192,158706,12,2,160085,0:0:0:0:
438,129,161464,6,0,B|416:16|416:16|360:-3,1,165.000005035401,6|8,1:2|0:2,0:0:0:0:
279,44,161981,1,0,1:2:0:0:
189,86,162154,2,0,P|149:96|109:88,1,82.5000025177003,2|0,1:2|1:2,0:0:0:0:
21,43,162499,1,8,0:2:0:0:
2,140,162671,1,2,1:2:0:0:
51,239,162844,5,2,1:2:0:0:
51,239,163016,2,0,L|36:336,1,82.5000025177003,2|8,1:2|0:2,0:0:0:0:
125,367,163361,2,0,P|163:378|203:369,1,82.5000025177003,2|0,1:2|0:0,0:0:0:0:
285,326,163706,2,0,P|324:316|363:328,1,82.5000025177003,2|8,1:2|0:2,0:0:0:0:
453,369,164050,1,0,1:2:0:0:
489,267,164223,6,0,L|475:185,1,82.5000025177003,6|0,1:2|1:2,0:0:0:0:
387,138,164568,2,0,L|400:56,1,82.5000025177003,8|0,0:2|1:2,0:0:0:0:
314,8,164912,1,0,1:2:0:0:
314,8,165085,1,0,1:2:0:0:
244,78,165257,2,0,P|205:88|165:77,1,82.5000025177003,8|0,0:2|1:2,0:0:0:0:
75,22,165602,5,0,1:2:0:0:
75,22,165775,1,0,1:2:0:0:
43,115,165947,2,0,L|59:199,1,82.5000025177003,8|0,0:2|1:2,0:0:0:0:
110,281,166292,2,0,P|149:291|188:280,1,82.5000025177003,2|0,0:0|1:2,0:0:0:0:
265,217,166637,2,0,P|304:206|343:216,1,82.5000025177003,10|0,0:2|1:2,0:0:0:0:
434,273,166981,6,0,L|421:363,1,82.5000025177003,14|0,0:2|1:2,0:0:0:0:
320,374,167326,2,0,P|282:383|240:370,1,82.5000025177003,8|0,0:2|1:2,0:0:0:0:
188,279,167671,2,0,L|176:197,1,82.5000025177003,8|0,0:2|1:2,0:0:0:0:
95,138,168016,2,0,L|107:56,1,82.5000025177003,10|2,0:2|1:2,0:0:0:0:
188,9,168361,6,0,P|227:-1|267:6,1,82.5000025177003,8|0,0:2|1:2,0:0:0:0:
336,78,168706,2,0,P|376:85|415:75,1,82.5000025177003,10|2,0:2|1:2,0:0:0:0:
495,17,169050,2,0,L|515:126,1,82.5000025177003,8|0,0:2|1:2,0:0:0:0:
457,182,169395,2,0,L|472:263,1,82.5000025177003,10|2,0:2|1:2,0:0:0:0:
491,367,169740,5,12,0:2:0:0:
403,321,169912,2,0,P|363:311|323:321,1,82.5000025177003,0|0,1:2|1:2,0:0:0:0:
237,372,170257,1,12,0:2:0:0:
216,274,170430,2,0,L|203:181,1,82.5000025177003,0|0,1:2|1:2,0:0:0:0:
260,106,170775,2,0,L|273:13,1,82.5000025177003,8|0,0:2|1:2,0:0:0:0:
176,0,171119,5,8,0:2:0:0:
100,65,171292,2,0,L|112:146,2,82.5000025177003,0|0|8,1:2|1:2|0:2,0:0:0:0:
11,126,171809,1,8,1:2:0:0:
11,126,171981,1,8,1:2:0:0:
52,225,172154,1,8,1:2:0:0:
52,225,172326,1,8,1:2:0:0:
144,175,172499,6,0,P|180:166|216:175,1,75,14|0,0:2|1:2,0:0:0:0:
303,218,172844,1,2,1:2:0:0:
303,218,173016,1,14,0:2:0:0:
389,263,173188,2,0,P|425:271|461:262,1,75,2|2,1:2|1:2,0:0:0:0:
492,169,173533,2,0,L|475:76,1,75,10|2,0:2|1:2,0:0:0:0:
392,29,173878,5,14,0:2:0:0:
392,29,174050,2,0,P|354:19|318:28,1,75,2|0,1:2|1:2,0:0:0:0:
241,87,174395,2,0,P|204:95|168:86,1,75,14|0,0:2|1:2,0:0:0:0:
86,32,174740,1,0,1:2:0:0:
39,117,174912,2,0,L|53:199,1,75,10|0,0:2|1:2,0:0:0:0:
80,289,175257,6,0,P|116:297|151:285,1,75,14|0,0:2|1:2,0:0:0:0:
234,234,175602,1,2,1:2:0:0:
234,234,175775,1,14,0:2:0:0:
321,276,175947,2,0,L|336:361,1,75,2|2,1:2|1:2,0:0:0:0:
427,378,176292,2,0,P|463:383|498:371,1,75,10|0,0:2|1:2,0:0:0:0:
507,268,176637,5,14,0:2:0:0:
507,268,176809,2,0,L|492:194,1,75,2|0,1:2|1:2,0:0:0:0:
506,97,177154,2,0,L|491:23,1,75,14|0,0:2|1:2,0:0:0:0:
394,13,177499,1,0,1:2:0:0:
394,13,177671,2,0,P|357:5|320:11,1,75,8|0,0:3|1:2,0:0:0:0:
263,98,178016,6,0,L|282:203,1,75,14|0,0:2|1:2,0:0:0:0:
306,265,178361,1,2,1:2:0:0:
306,265,178533,1,14,0:2:0:0:
257,349,178706,2,0,P|221:358|185:350,1,75,2|2,1:2|1:2,0:0:0:0:
103,297,179050,2,0,L|88:209,1,75,10|2,0:2|1:2,0:0:0:0:
36,135,179395,5,14,0:2:0:0:
36,135,179568,2,0,L|50:47,1,75,2|0,1:2|1:2,0:0:0:0:
133,14,179912,2,0,P|171:6|217:22,1,75,14|0,0:2|1:2,0:0:0:0:
287,68,180257,1,0,1:2:0:0:
287,68,180430,2,0,P|323:76|359:68,1,75,10|0,0:2|1:2,0:0:0:0:
450,8,180775,6,0,P|440:46|453:81,1,75,14|0,0:2|1:2,0:0:0:0:
510,156,181119,1,2,1:2:0:0:
510,156,181292,1,14,0:2:0:0:
489,251,181464,2,0,L|471:343,1,75,2|2,1:2|1:2,0:0:0:0:
393,270,181809,2,0,P|357:259|321:267,1,75,10|0,0:2|1:2,0:0:0:0:
238,319,182154,5,14,0:2:0:0:
238,319,182326,2,0,L|155:305,1,75,2|0,1:2|1:2,0:0:0:0:
69,333,182671,1,14,0:2:0:0:
26,244,182844,1,0,1:2:0:0:
26,244,183016,1,8,0:2:0:0:
81,164,183188,1,8,0:2:0:0:
81,164,183361,1,8,0:2:0:0:
171,203,183533,6,0,P|203:210|235:201,1,67.4999979400635,14|0,0:2|1:2,0:0:0:0:
306,149,183878,1,2,1:2:0:0:
306,149,184050,1,14,0:2:0:0:
377,97,184223,2,0,P|409:89|441:98,1,67.4999979400635,2|2,1:2|1:2,0:0:0:0:
481,176,184568,2,0,L|466:253,1,67.4999979400635,10|2,0:2|1:2,0:0:0:0:
434,277,184826,1,0,1:0:0:0:
434,277,184912,6,0,L|446:343,1,67.4999979400635,14|2,0:2|1:2,0:0:0:0:
361,320,185257,1,0,1:2:0:0:
285,367,185430,2,0,P|254:376|221:370,1,67.4999979400635,14|0,0:2|1:2,0:0:0:0:
160,306,185775,1,0,1:2:0:0:
177,220,185947,2,0,L|194:133,1,67.4999979400635,14|0,0:2|1:2,0:0:0:0:
131,80,186292,5,6,1:2:0:0:
