osu file format v14

[General]
AudioFilename: audio.mp3
AudioLeadIn: 0
PreviewTime: 84223
Countdown: 0
SampleSet: Soft
StackLeniency: 0.3
Mode: 0
LetterboxInBreaks: 0
WidescreenStoryboard: 1

[Editor]
DistanceSpacing: 1.1
BeatDivisor: 4
GridSize: 16
TimelineZoom: 3.599998

[Metadata]
Title:Start Again
TitleUnicode:Start Again
Artist:ONE OK ROCK
ArtistUnicode:ONE OK ROCK
Creator:Stixy
Version:Again?
Source:
Tags:japanese band male vocal rock english full ver version ambitions -[shady]- shady
BeatmapID:2225036
BeatmapSetID:1062516

[Difficulty]
HPDrainRate:5
CircleSize:4
OverallDifficulty:9
ApproachRate:9.3
SliderMultiplier:1.9
SliderTickRate:1

[Events]
//Background and Video events
0,0,"bg.jpg",0,0
//Break Periods
2,128383,138841
//Storyboard Layer 0 (Background)
//Storyboard Layer 1 (Fail)
//Storyboard Layer 2 (Pass)
//Storyboard Layer 3 (Foreground)
//Storyboard Layer 4 (Overlay)
//Storyboard Sound Samples

[TimingPoints]
2844,344.827586206897,4,2,1,50,1,0
8361,-125,4,2,1,50,0,0
19050,-111.111111111111,4,2,1,50,0,0
19309,-111.111111111111,4,2,1,5,0,0
19395,-111.111111111111,4,2,1,60,0,0
30430,-83.3333333333333,4,2,1,80,0,1
33447,-83.3333333333333,4,2,1,5,0,1
33533,-83.3333333333333,4,2,1,80,0,1
41723,-83.3333333333333,4,2,1,5,0,1
41809,-83.3333333333333,4,2,1,80,0,1
47240,-83.3333333333333,4,2,1,5,0,1
47326,-83.3333333333333,4,2,1,80,0,1
47585,-83.3333333333333,4,2,1,5,0,1
47671,-83.3333333333333,4,2,1,80,0,1
47930,-83.3333333333333,4,2,1,5,0,1
48016,-83.3333333333333,4,2,1,80,0,1
48275,-83.3333333333333,4,2,1,5,0,1
48361,-83.3333333333333,4,2,1,80,0,1
48619,-83.3333333333333,4,2,1,5,0,1
48706,-83.3333333333333,4,2,1,80,0,1
48964,-83.3333333333333,4,2,1,5,0,1
49050,-83.3333333333333,4,2,1,80,0,1
49309,-83.3333333333333,4,2,1,5,0,1
49395,-83.3333333333333,4,2,1,80,0,1
49740,-83.3333333333333,4,2,1,80,0,1
52499,-90.9090909090909,4,2,1,70,0,0
56550,-90.9090909090909,4,2,1,5,0,0
56637,-90.9090909090909,4,2,1,70,0,0
63533,-100,4,2,1,60,0,0
84223,-111.111111111111,4,2,1,60,0,0
84999,-111.111111111111,4,2,1,5,0,0
85085,-111.111111111111,4,2,1,60,0,0
85516,-111.111111111111,4,2,1,5,0,0
85602,-83.3333333333333,4,2,1,80,0,1
99653,-83.3333333333333,4,2,1,5,0,1
99740,-83.3333333333333,4,2,1,80,0,1
102412,-83.3333333333333,4,2,1,5,0,1
102499,-83.3333333333333,4,2,1,80,0,1
102757,-83.3333333333333,4,2,1,5,0,1
102844,-83.3333333333333,4,2,1,80,0,1
103102,-83.3333333333333,4,2,1,5,0,1
103188,-83.3333333333333,4,2,1,80,0,1
103447,-83.3333333333333,4,2,1,5,0,1
103533,-83.3333333333333,4,2,1,80,0,1
103792,-83.3333333333333,4,2,1,5,0,1
103878,-83.3333333333333,4,2,1,80,0,1
104137,-83.3333333333333,4,2,1,5,0,1
104223,-83.3333333333333,4,2,1,80,0,1
104481,-83.3333333333333,4,2,1,5,0,1
104568,-83.3333333333333,4,2,1,80,0,1
104826,-83.3333333333333,4,2,1,5,0,1
104912,-83.3333333333333,4,2,1,80,0,1
105171,-83.3333333333333,4,2,1,5,0,1
105257,-83.3333333333333,4,2,1,80,0,1
105516,-83.3333333333333,4,2,1,5,0,1
105602,-83.3333333333333,4,2,1,80,0,1
107671,-90.9090909090909,4,2,1,70,0,0
111723,-90.9090909090909,4,2,1,5,0,0
111809,-90.9090909090909,4,2,1,70,0,0
118706,-100,4,2,1,60,0,0
123792,-100,4,2,1,5,0,0
123878,-100,4,2,1,60,0,0
126550,-100,4,2,1,5,0,0
126637,-100,4,2,1,60,0,0
127412,-100,4,2,1,5,0,0
127499,-100,4,2,1,60,0,0
127930,-100,4,2,1,5,0,0
128016,-100,4,2,1,50,0,0
139395,-125,4,2,1,60,0,0
150430,-166.666666666667,4,2,1,50,0,0
160085,-111.111111111111,4,2,1,60,0,0
161464,-83.3333333333333,4,2,1,80,0,1
172499,-90.9090909090909,4,2,1,70,0,0
180688,-90.9090909090909,4,2,1,5,0,0
180775,-90.9090909090909,4,2,1,70,0,0
183533,-100,4,2,1,60,0,0

[Colours]
Combo1 : 219,176,210
Combo2 : 253,203,150
Combo3 : 140,54,23
Combo4 : 72,68,142

[HitObjects]
52,61,8361,6,0,P|88:51|125:57,1,76
200,106,8706,2,0,P|237:111|273:102,1,76
319,12,9050,2,0,P|311:85|363:138,1,152,2|2,0:2|0:2,0:0:0:0:
394,57,9568,1,0,0:0:0:0:
449,181,9740,6,0,L|445:270,1,76,2|0,0:2|0:0,0:0:0:0:
360,214,10085,2,0,L|363:138,1,76,2|0,0:2|0:0,0:0:0:0:
449,181,10430,2,0,L|442:332,1,152,2|2,0:2|0:2,0:0:0:0:
358,374,10947,1,2,0:2:0:0:
293,288,11119,6,0,L|368:293,1,76
273,370,11464,2,0,L|198:365,1,76
289,215,11809,2,0,P|301:250|292:287,1,76,2|0,0:2|0:0,0:0:0:0:
219,170,12154,2,0,P|243:141|279:130,1,76,2|0,0:2|0:0,0:0:0:0:
210,256,12499,6,0,B|135:230|141:294|58:269,1,152,2|2,0:2|0:2,0:0:0:0:
22,190,13016,2,0,L|11:93,1,76,2|0,0:2|0:0,0:0:0:0:
111,71,13361,2,0,L|102:146,1,76,2|0,0:2|0:0,0:0:0:0:
49,7,13706,6,0,P|118:-16|182:19,1,152,2|0,0:2|0:0,0:0:0:0:
250,87,14223,2,0,P|287:91|329:76,1,76
411,35,14568,2,0,L|419:109,1,76,2|0,0:2|0:0,0:0:0:0:
348,158,14912,2,0,L|339:232,1,76,2|0,0:2|0:0,0:0:0:0:
430,275,15257,6,0,P|356:269|307:323,1,152,2|2,0:2|0:2,0:0:0:0:
253,250,15775,2,0,L|259:174,1,76,2|0,0:2|0:0,0:0:0:0:
175,299,16119,2,0,L|168:374,1,76,2|0,0:2|0:0,0:0:0:0:
97,250,16464,1,2,0:2:0:0:
26,165,16637,6,0,B|-2:263|-2:263|18:309,1,152,2|2,0:2|0:2,0:0:0:0:
175,299,17154,1,2,0:2:0:0:
97,250,17326,2,0,L|117:176,1,76,2|2,0:2|0:2,0:0:0:0:
5,92,17671,2,0,L|25:165,1,76,2|0,0:2|0:0,0:0:0:0:
189,123,18016,6,0,P|162:98|126:88,1,76,2|2,0:2|0:2,0:0:0:0:
117,176,18361,1,0,0:0:0:0:
202,212,18533,2,0,P|266:175|276:102,1,152,2|0,0:2|0:0,0:0:0:0:
189,3,19050,2,0,B|167:77|167:77|189:123,1,128.249996086121,2|0,0:2|0:0,0:0:0:0:
276,102,19395,6,0,L|377:67,1,85.4999973907472,4|0,1:2|0:0,0:0:0:0:
415,222,19740,2,0,L|350:166,1,85.4999973907472
427,16,20085,2,0,P|446:53|445:96,1,85.4999973907472,2|0,0:2|0:0,0:0:0:0:
259,185,20430,2,0,L|275:101,1,85.4999973907472,2|0,0:2|0:0,0:0:0:0:
344,333,20775,6,0,L|327:249,1,85.4999973907472,2|0,0:2|0:0,0:0:0:0:
501,200,21119,2,0,L|485:284,1,85.4999973907472,2|0,0:2|0:0,0:0:0:0:
258,185,21464,2,0,P|293:161|336:157,1,85.4999973907472,2|0,0:2|0:0,0:0:0:0:
327,249,21809,1,2,0:2:0:0:
240,271,21981,1,2,0:2:0:0:
247,100,22154,6,0,L|259:199,1,85.4999973907472
144,287,22499,2,0,L|169:206,1,85.4999973907472
211,361,22844,2,0,P|174:382|132:385,1,85.4999973907472,2|0,0:2|0:0,0:0:0:0:
53,324,23188,1,2,0:2:0:0:
43,149,23361,6,0,L|68:231,1,85.4999973907472,2|0,0:2|0:0,0:0:0:0:
144,287,23706,1,0,0:0:0:0:
53,324,23878,1,0,0:0:0:0:
134,154,24050,2,0,L|158:72,1,85.4999973907472,2|0,0:2|0:0,0:0:0:0:
286,206,24395,2,0,P|246:222|204:217,1,85.4999973907472,2|0,0:2|0:0,0:0:0:0:
43,149,24740,1,2,0:2:0:0:
227,128,24912,6,0,L|252:47,1,85.4999973907472
67,67,25257,2,0,L|43:149,1,85.4999973907472
286,206,25602,2,0,L|310:287,1,85.4999973907472,2|0,0:2|0:0,0:0:0:0:
324,124,25947,2,0,L|348:42,1,85.4999973907472,2|0,0:2|0:0,0:0:0:0:
386,201,26292,6,0,L|410:282,1,85.4999973907472,2|0,0:2|0:0,0:0:0:0:
227,128,26637,2,0,L|251:46,1,85.4999973907472,2|0,0:2|0:0,0:0:0:0:
402,106,26981,2,0,P|365:127|324:124,1,85.4999973907472,2|0,0:2|0:0,0:0:0:0:
196,210,27326,1,2,0:2:0:0:
251,45,27499,1,2,0:2:0:0:
293,250,27671,6,0,L|299:292,3,42.7499986953736,0|0|0|0,1:2|1:2|1:2|1:2,0:0:0:0:
390,205,28016,2,0,L|383:247,3,42.7499986953736,0|0|0|0,1:2|1:2|1:2|1:2,0:0:0:0:
474,348,28361,2,0,L|468:306,3,42.7499986953736,0|0|0|0,1:2|1:2|1:2|1:2,0:0:0:0:
372,384,28706,2,0,L|379:342,3,42.7499986953736,0|0|0|0,1:2|1:2|1:2|1:2,0:0:0:0:
299,292,29050,5,2,1:2:0:0:
266,272,29136,1,0,1:2:0:0:
228,266,29222,1,2,1:2:0:0:
191,275,29308,1,0,1:2:0:0:
159,297,29396,1,0,1:2:0:0:
127,318,29482,1,0,1:2:0:0:
90,327,29568,1,2,1:2:0:0:
52,321,29654,1,0,1:2:0:0:
18,301,29740,1,8,0:2:0:0:
3,266,29826,1,8,0:2:0:0:
3,228,29912,1,10,0:2:0:0:
17,193,29998,1,8,0:2:0:0:
42,163,30085,1,8,0:2:0:0:
54,127,30171,1,8,0:2:0:0:
51,89,30257,1,8,0:2:0:0:
35,53,30344,1,8,0:2:0:0:
12,20,30430,6,0,L|125:7,1,113.999996520996,6|0,1:2|1:2,0:0:0:0:
201,197,30775,2,0,L|133:104,1,113.999996520996,8|0,0:2|0:0,0:0:0:0:
293,220,31119,2,0,P|268:271|217:292,1,113.999996520996,2|0,0:0|1:2,0:0:0:0:
215,47,31464,1,8,0:2:0:0:
130,257,31637,1,2,0:0:0:0:
309,89,31809,5,2,1:2:0:0:
133,104,31981,1,2,1:2:0:0:
313,319,32154,1,8,0:2:0:0:
430,118,32326,2,0,L|388:12,1,113.999996520996,2|0,1:2|0:0,0:0:0:0:
350,189,32671,2,0,P|396:220|457:217,1,113.999996520996,2|8,1:2|0:2,0:0:0:0:
309,89,33016,1,2,1:2:0:0:
476,378,33188,6,0,B|494:315|494:315|452:218,1,170.999994781494,4|0,1:2|0:0,0:0:0:0:
350,189,33533,2,0,L|406:320,1,113.999996520996,8|0,0:2|0:0,0:0:0:0:
420,101,33878,1,0,0:0:0:0:
243,171,34050,1,0,1:2:0:0:
451,218,34223,1,8,0:2:0:0:
309,89,34395,1,2,0:0:0:0:
329,364,34568,5,2,1:2:0:0:
350,189,34740,1,2,1:2:0:0:
482,367,34912,1,8,0:2:0:0:
264,273,35085,2,0,L|150:231,1,113.999996520996,2|0,1:2|0:0,0:0:0:0:
223,58,35430,2,0,L|243:177,1,113.999996520996,2|8,1:2|0:2,0:0:0:0:
89,309,35775,1,8,0:2:0:0:
89,309,35861,1,8,0:2:0:0:
89,309,35947,6,0,P|64:204|147:135,1,227.999993041992,6|8,1:2|0:2,0:0:0:0:
334,204,36464,1,0,1:2:0:0:
162,237,36637,1,2,0:0:0:0:
318,116,36809,1,0,1:2:0:0:
178,350,36981,2,0,L|162:237,1,113.999996520996,8|0,0:2|0:0,0:0:0:0:
406,268,37326,6,0,P|360:300|304:298,1,113.999996520996,2|0,0:0|1:2,0:0:0:0:
237,77,37671,1,8,0:2:0:0:
408,163,37844,2,0,L|516:215,1,113.999996520996,2|0,0:0|0:0,0:0:0:0:
366,373,38188,1,2,1:2:0:0:
318,115,38361,2,0,P|355:74|410:60,1,113.999996520996,8|0,0:2|1:2,0:0:0:0:
510,317,38706,5,14,0:2:0:0:
408,163,38878,1,0,1:2:0:0:
366,373,39050,1,0,1:2:0:0:
512,213,39223,5,12,0:2:0:0:
318,115,39395,1,0,1:2:0:0:
422,276,39568,1,0,1:2:0:0:
410,60,39740,5,8,0:2:0:0:
227,168,39912,1,0,1:2:0:0:
512,213,40085,5,14,0:2:0:0:
318,115,40257,1,2,1:2:0:0:
261,263,40430,1,0,1:2:0:0:
449,141,40602,2,0,L|496:104,2,56.9999982604981,10|8|0,0:2|0:2|1:2,0:0:0:0:
418,277,40947,1,2,1:2:0:0:
318,115,41119,1,12,0:2:0:0:
313,329,41292,1,8,0:2:0:0:
313,329,41378,1,8,0:2:0:0:
313,329,41464,6,0,B|201:302|201:302|148:321,1,170.999994781494,6|0,1:2|0:0,0:0:0:0:
74,382,41809,2,0,P|52:331|64:276,1,113.999996520996,8|0,0:2|0:0,0:0:0:0:
165,138,42154,1,2,0:0:0:0:
148,320,42326,1,0,1:2:0:0:
93,75,42499,1,8,0:2:0:0:
64,275,42671,1,2,0:0:0:0:
235,70,42844,5,2,1:2:0:0:
51,162,43016,1,2,1:2:0:0:
221,262,43188,1,8,0:2:0:0:
108,98,43361,2,0,L|42:-4,1,113.999996520996,2|0,1:2|0:0,0:0:0:0:
321,51,43706,2,0,P|316:106|280:149,1,113.999996520996,2|8,1:2|0:2,0:0:0:0:
51,162,44050,1,2,0:0:0:0:
320,231,44223,5,6,1:2:0:0:
235,70,44395,1,0,1:2:0:0:
219,263,44568,2,0,L|212:389,1,113.999996520996,8|0,0:2|0:0,0:0:0:0:
396,290,44912,1,0,0:0:0:0:
227,159,45085,1,0,1:2:0:0:
348,364,45257,2,0,P|401:380|454:356,1,113.999996520996,8|0,0:2|0:0,0:0:0:0:
482,126,45602,5,0,1:2:0:0:
321,117,45775,1,0,1:2:0:0:
475,239,45947,2,0,L|482:126,1,113.999996520996,8|0,0:2|0:0,0:0:0:0:
291,23,46292,1,2,0:0:0:0:
352,209,46464,1,0,1:2:0:0:
221,95,46637,1,10,0:2:0:0:
488,22,46809,1,0,1:2:0:0:
394,366,46981,6,0,P|313:347|277:272,1,170.999994781494,6|0,1:2|0:0,0:0:0:0:
352,209,47326,2,0,B|386:98|386:98|355:52,1,170.999994781494,0|0,1:2|0:0,0:0:0:0:
265,16,47671,2,0,B|201:14|201:14|166:38|166:38|101:32,1,170.999994781494,0|0,1:2|0:0,0:0:0:0:
27,84,48016,2,0,B|5:140|5:140|43:243,1,170.999994781494,2|0,1:2|0:0,0:0:0:0:
35,346,48361,6,0,P|113:314|144:237,1,170.999994781494,0|0,1:2|0:0,0:0:0:0:
132,158,48706,2,0,P|145:239|216:283,1,170.999994781494,2|0,1:2|0:0,0:0:0:0:
227,185,49050,2,0,B|324:196|284:132|386:143,1,170.999994781494,0|0,1:2|0:0,0:0:0:0:
435,65,49395,2,0,B|434:182|434:182|445:156|470:144,1,170.999994781494,2|2,1:2|0:0,0:0:0:0:
256,192,49740,12,2,52068,0:0:0:0:
511,217,52499,6,0,L|523:342,1,104.500003189087,14|0,0:2|1:2,0:0:0:0:
355,239,52844,1,2,1:2:0:0:
498,115,53016,1,14,0:2:0:0:
434,280,53188,2,0,L|404:383,1,104.500003189087,2|2,1:2|1:2,0:0:0:0:
282,167,53533,2,0,L|386:141,1,104.500003189087,10|2,0:2|1:2,0:0:0:0:
219,235,53878,6,0,P|192:192|194:140,1,104.500003189087,14|2,0:2|1:2,0:0:0:0:
341,46,54223,1,0,1:2:0:0:
297,284,54395,2,0,P|260:320|209:328,1,104.500003189087,14|0,0:2|1:2,0:0:0:0:
114,103,54740,1,0,1:2:0:0:
282,167,54912,1,10,0:2:0:0:
129,273,55085,1,0,1:2:0:0:
235,44,55257,6,0,L|194:140,1,104.500003189087,14|0,0:2|1:2,0:0:0:0:
47,165,55602,1,2,1:2:0:0:
214,318,55775,1,14,0:2:0:0:
114,103,55947,1,2,1:2:0:0:
70,345,56119,1,2,1:2:0:0:
193,140,56292,2,0,P|192:64|133:16,1,156.750004783631,10|0,0:2|0:0,0:0:0:0:
114,103,56637,6,0,L|75:199,1,104.500003189087,14|2,0:2|1:2,0:0:0:0:
215,312,56981,1,0,1:2:0:0:
297,125,57154,2,0,L|193:139,1,104.500003189087,14|0,0:2|1:2,0:0:0:0:
298,384,57499,1,0,1:2:0:0:
276,222,57671,1,8,0:3:0:0:
215,312,57844,1,0,1:2:0:0:
378,193,58016,6,0,L|441:109,1,104.500003189087,14|0,0:2|1:2,0:0:0:0:
276,222,58361,1,2,1:2:0:0:
471,243,58533,1,14,0:2:0:0:
297,125,58706,2,0,L|201:80,1,104.500003189087,2|2,1:2|1:2,0:0:0:0:
62,205,59050,2,0,P|113:203|155:173,1,104.500003189087,10|2,0:2|1:2,0:0:0:0:
62,7,59395,6,0,L|82:109,1,104.500003189087,14|2,0:2|1:2,0:0:0:0:
130,310,59740,1,0,1:2:0:0:
202,80,59912,1,14,0:2:0:0:
327,314,60085,2,0,L|225:334,1,104.500003189087,0|0,1:2|1:2,0:0:0:0:
398,239,60430,2,0,P|425:282|428:334,1,104.500003189087,10|0,0:0|1:0,0:0:0:0:
295,137,60775,6,0,L|277:33,1,104.500003189087,14|0,0:2|1:2,0:0:0:0:
207,182,61119,1,2,1:2:0:0:
398,239,61292,1,14,0:2:0:0:
295,137,61464,1,2,1:2:0:0:
262,327,61637,1,2,1:2:0:0:
391,139,61809,2,0,L|373:35,1,104.500003189087,10|0,0:2|1:2,0:0:0:0:
123,38,62154,5,14,0:2:0:0:
278,240,62326,2,0,L|295:136,1,104.500003189087,2|0,1:2|1:2,0:0:0:0:
52,113,62671,1,14,0:2:0:0:
230,45,62844,1,0,1:2:0:0:
135,313,63016,1,8,0:2:0:0:
123,38,63188,1,8,0:2:0:0:
277,240,63361,1,8,0:2:0:0:
38,285,63533,6,0,B|11:164|11:164|51:112,1,190,4|8,1:2|0:2,0:0:0:0:
123,38,64050,1,0,0:0:0:0:
156,220,64223,2,0,L|134:312,1,95,2|0,1:2|0:0,0:0:0:0:
276,239,64568,2,0,L|254:147,1,95,10|0,0:2|0:0,0:0:0:0:
238,341,64912,6,0,B|326:382|324:294|419:334,1,190,2|8,1:2|0:2,0:0:0:0:
428,161,65430,2,0,L|450:253,1,95,2|0,0:0|1:2,0:0:0:0:
350,85,65775,2,0,L|328:177,1,95,2|8,0:0|0:2,0:0:0:0:
443,57,66119,6,0,P|377:-5|287:11,1,190,2|0,0:0|0:0,0:0:0:0:
161,91,66637,1,8,0:2:0:0:
259,116,66809,1,0,0:0:0:0:
79,168,66981,2,0,L|55:76,1,95,2|0,1:2|0:0,0:0:0:0:
259,116,67326,2,0,L|235:208,1,95,10|0,0:2|0:0,0:0:0:0:
79,247,67671,6,0,P|146:185|235:208,1,190,2|8,1:2|0:2,0:0:0:0:
195,373,68188,2,0,L|171:281,1,95,2|0,0:0|1:2,0:0:0:0:
262,306,68533,1,2,0:0:0:0:
147,193,68706,1,8,0:2:0:0:
195,373,68878,1,10,0:2:0:0:
234,207,69050,6,0,L|211:99,1,95,0|0,1:2|0:0,0:0:0:0:
329,45,69395,2,0,L|309:137,1,95,8|0,0:2|0:0,0:0:0:0:
497,97,69740,2,0,P|451:83|406:94,1,95,2|0,1:2|0:0,0:0:0:0:
403,255,70085,2,0,P|437:222|451:177,1,95,10|0,0:2|0:0,0:0:0:0:
309,137,70430,6,0,B|286:265|286:265|322:312,1,190,2|8,1:2|0:2,0:0:0:0:
467,325,70947,2,0,L|403:255,1,95,2|0,0:0|1:2,0:0:0:0:
239,345,71292,2,0,P|285:342|322:313,1,95,2|8,0:0|0:2,0:0:0:0:
451,178,71637,1,2,0:0:0:0:
218,158,71809,6,0,L|252:247,1,95,2|0,1:2|0:0,0:0:0:0:
242,60,72154,1,10,0:2:0:0:
312,128,72326,1,2,0:0:0:0:
150,88,72499,2,0,L|116:176,1,95,2|2,1:2|0:0,0:0:0:0:
19,2,72844,2,0,L|52:90,1,95,10|0,0:2|0:0,0:0:0:0:
76,280,73188,5,2,1:2:0:0:
218,158,73361,1,2,0:0:0:0:
52,90,73533,1,8,0:2:0:0:
115,176,73706,1,2,0:0:0:0:
218,158,73878,2,0,L|251:69,1,95,0|0,1:2|0:0,0:0:0:0:
285,225,74223,2,0,L|268:270,1,47.5,10|0,0:2|0:0,0:0:0:0:
82,286,74395,1,12,0:2:0:0:
268,359,74568,6,0,B|333:348|333:348|384:371|384:371|451:362,1,190,0|8,1:2|0:2,0:0:0:0:
470,276,75085,1,0,0:0:0:0:
368,185,75257,2,0,L|386:278,1,95,2|0,1:2|0:0,0:0:0:0:
493,190,75602,2,0,L|511:96,1,95,10|0,0:2|0:0,0:0:0:0:
271,148,75947,6,0,L|290:242,1,95,2|0,1:2|0:0,0:0:0:0:
347,103,76292,1,10,0:2:0:0:
252,53,76464,2,0,L|180:115,1,95,2|0,0:0|1:2,0:0:0:0:
89,82,76809,1,2,0:0:0:0:
200,209,76981,1,8,0:2:0:0:
252,53,77154,1,2,0:0:0:0:
118,276,77326,6,0,L|101:182,1,95,0|0,1:2|0:0,0:0:0:0:
282,266,77671,2,0,L|265:359,1,95,8|0,0:2|0:0,0:0:0:0:
200,209,78016,1,2,1:2:0:0:
364,318,78188,2,0,L|453:286,1,95,2|8,0:0|0:2,0:0:0:0:
352,141,78533,6,0,B|327:263|327:263|363:317,1,190,2|0,0:0|0:0,0:0:0:0:
512,223,79050,1,8,0:2:0:0:
445,113,79223,2,0,L|426:206,1,95,2|0,0:0|1:2,0:0:0:0:
464,29,79568,1,2,0:0:0:0:
352,141,79740,1,8,0:2:0:0:
445,113,79912,1,2,0:0:0:0:
269,102,80085,6,0,P|257:147|272:191,1,95,0|0,1:2|0:0,0:0:0:0:
369,47,80430,2,0,L|352:141,1,95,8|0,0:2|0:0,0:0:0:0:
179,134,80775,2,0,L|268:102,1,95,0|0,1:2|0:0,0:0:0:0:
344,253,81119,2,0,L|271:191,1,95,8|2,0:2|0:0,0:0:0:0:
428,204,81464,5,2,1:2:0:0:
425,308,81637,1,2,0:0:0:0:
352,141,81809,1,8,0:2:0:0:
259,294,81981,2,0,L|331:355,1,95,2|0,0:0|1:2,0:0:0:0:
428,204,82326,1,2,0:0:0:0:
271,191,82499,2,0,L|181:222,1,95,8|0,0:2|0:0,0:0:0:0:
257,383,82844,6,0,P|271:339|259:294,1,95,2|0,1:2|0:0,0:0:0:0:
105,152,83188,1,10,0:2:0:0:
95,276,83361,1,2,0:0:0:0:
186,91,83533,1,2,1:2:0:0:
176,335,83706,1,2,0:0:0:0:
37,83,83878,1,10,0:2:0:0:
37,83,84223,5,2,0:0:0:0:
167,7,84395,2,0,L|186:91,1,85.4999973907472,2|0,0:0|0:0,0:0:0:0:
271,31,84740,2,0,L|298:156,1,128.249996086121,2|0,0:0|0:0,0:0:0:0:
220,225,85085,2,0,P|295:157|393:187,1,213.749993476868,2|0,0:0|0:0,0:0:0:0:
343,362,85602,6,0,L|318:250,1,113.999996520996,6|0,1:2|1:2,0:0:0:0:
500,156,85947,2,0,L|475:268,1,113.999996520996,8|0,0:2|0:0,0:0:0:0:
244,337,86292,2,0,L|219:225,1,113.999996520996,2|0,0:0|1:2,0:0:0:0:
310,60,86637,1,8,0:2:0:0:
391,185,86809,1,2,0:0:0:0:
151,65,86981,5,2,1:2:0:0:
318,249,87154,1,2,1:2:0:0:
228,7,87326,1,8,0:2:0:0:
107,250,87499,2,0,L|218:225,1,113.999996520996,2|0,1:2|0:0,0:0:0:0:
310,60,87844,1,2,1:2:0:0:
385,325,88016,1,8,0:2:0:0:
234,128,88188,1,2,1:2:0:0:
512,118,88361,5,4,1:2:0:0:
319,247,88533,1,0,1:0:0:0:
379,116,88706,2,0,B|424:274|424:274|385:325,1,227.999993041992,8|0,0:2|0:0,0:0:0:0:
223,269,89223,1,0,1:2:0:0:
310,60,89395,1,8,0:2:0:0:
319,247,89568,1,2,0:0:0:0:
234,10,89740,5,2,1:2:0:0:
139,191,89912,2,0,L|251:171,1,113.999996520996,2|8,1:2|0:2,0:0:0:0:
50,164,90257,2,0,P|44:220|75:267,1,113.999996520996,2|0,1:2|0:0,0:0:0:0:
251,170,90602,1,2,1:2:0:0:
160,79,90775,2,0,L|137:197,1,113.999996520996,8|8,0:2|0:2,0:0:0:0:
213,269,91033,1,8,0:2:0:0:
213,269,91119,6,0,L|240:380,1,113.999996520996,6|0,1:2|1:2,0:0:0:0:
336,245,91464,2,0,L|363:134,1,113.999996520996,8|0,0:2|1:2,0:0:0:0:
251,170,91809,1,2,0:0:0:0:
451,214,91981,1,0,1:2:0:0:
224,59,92154,2,0,L|251:170,1,113.999996520996,8|0,0:2|0:0,0:0:0:0:
59,218,92499,6,0,L|142:140,1,113.999996520996,2|0,0:0|1:2,0:0:0:0:
324,91,92844,1,8,0:2:0:0:
286,286,93016,2,0,L|177:254,1,113.999996520996,2|0,0:0|0:0,0:0:0:0:
224,59,93361,1,2,1:2:0:0:
381,261,93533,2,0,P|382:317|351:364,1,113.999996520996,8|0,0:2|1:2,0:0:0:0:
324,91,93878,5,14,0:2:0:0:
286,286,94050,1,0,1:2:0:0:
474,222,94223,1,0,1:2:0:0:
259,176,94395,5,12,0:2:0:0:
350,364,94568,1,0,1:2:0:0:
404,164,94740,1,0,1:2:0:0:
186,251,94912,5,8,0:2:0:0:
386,263,95085,1,0,1:2:0:0:
228,33,95257,5,14,0:2:0:0:
286,286,95430,1,2,1:2:0:0:
426,62,95602,1,0,1:2:0:0:
166,106,95775,2,0,L|94:121,1,56.9999982604981,10|8,0:2|0:2,0:0:0:0:
313,195,95947,1,0,1:2:0:0:
228,33,96119,1,2,1:2:0:0:
120,213,96292,1,12,0:2:0:0:
313,195,96464,2,0,L|385:210,1,56.9999982604981,8|8,0:2|0:2,0:0:0:0:
25,175,96637,6,0,P|18:230|41:281,1,113.999996520996,6|0,1:2|1:2,0:0:0:0:
220,252,96981,2,0,P|176:218|120:213,1,113.999996520996,8|0,0:2|0:0,0:0:0:0:
222,360,97326,2,0,P|315:303|312:194,1,227.999993041992,2|8,0:0|0:2,0:0:0:0:
243,8,97844,1,2,0:0:0:0:
220,252,98016,5,2,1:2:0:0:
336,71,98188,1,2,1:2:0:0:
409,300,98361,1,8,0:2:0:0:
224,120,98533,2,0,L|247:-17,1,113.999996520996,2|0,1:2|0:0,0:0:0:0:
445,173,98878,1,2,1:2:0:0:
220,252,99050,2,0,L|133:180,1,113.999996520996,8|0,0:2|0:0,0:0:0:0:
407,145,99395,6,0,B|443:255|443:255|412:300,1,170.999994781494,6|0,1:2|0:0,0:0:0:0:
360,385,99740,2,0,P|320:345|309:288,1,113.999996520996,8|0,0:2|0:0,0:0:0:0:
418,46,100085,1,0,0:0:0:0:
483,210,100257,1,0,1:0:0:0:
225,45,100430,2,0,P|270:12|328:11,1,113.999996520996,8|0,0:2|0:0,0:0:0:0:
248,224,100775,5,0,1:2:0:0:
396,74,100947,1,0,1:2:0:0:
421,308,101119,2,0,L|308:289,1,113.999996520996,8|0,0:2|1:0,0:0:0:0:
225,45,101464,1,2,0:0:0:0:
163,255,101637,1,0,1:2:0:0:
302,99,101809,1,10,0:2:0:0:
308,289,101981,1,0,1:2:0:0:
83,152,102154,6,0,B|60:270|60:270|86:313,1,170.999994781494,6|0,1:2|0:0,0:0:0:0:
162,255,102499,2,0,P|243:237|308:289,1,170.999994781494,0|0,1:2|0:0,0:0:0:0:
378,358,102844,2,0,B|344:303|344:303|382:203,1,170.999994781494,0|0,1:2|0:0,0:0:0:0:
427,109,103188,2,0,B|381:87|341:112|341:112|307:134|264:111,1,170.999994781494,2|0,1:2|0:0,0:0:0:0:
212,33,103533,6,0,P|227:114|168:174,1,170.999994781494,0|0,1:2|0:0,0:0:0:0:
172,273,103878,2,0,P|95:241|71:162,1,170.999994781494,2|0,1:2|0:0,0:0:0:0:
170,173,104223,2,0,L|337:208,1,170.999994781494,0|0,1:2|0:0,0:0:0:0:
339,308,104568,2,0,L|171:272,1,170.999994781494,2|0,1:2|0:0,0:0:0:0:
71,162,104912,6,0,B|42:113|42:113|83:6,1,170.999994781494,4|0,1:2|0:0,0:0:0:0:
143,87,105257,2,0,B|203:75|203:75|255:98|255:98|309:91,1,170.999994781494,0|0,1:0|0:0,0:0:0:0:
406,73,105602,1,0,1:0:0:0:
325,190,105775,1,8,0:0:0:0:
340,2,105947,1,0,1:0:0:0:
424,172,106119,1,8,0:0:0:0:
246,14,106292,5,8,0:0:0:0:
499,109,106464,1,8,0:0:0:0:
232,211,106637,1,8,0:0:0:0:
340,2,106809,1,8,0:0:0:0:
392,262,106981,1,8,0:0:0:0:
162,18,107154,1,8,0:0:0:0:
290,303,107326,1,8,0:0:0:0:
406,73,107499,1,8,0:0:0:0:
129,192,107671,6,0,L|231:210,1,104.500003189087,14|0,0:2|1:2,0:0:0:0:
340,2,108016,1,2,1:2:0:0:
392,262,108188,1,14,0:2:0:0:
194,110,108361,2,0,L|158:11,1,104.500003189087,2|2,1:2|1:2,0:0:0:0:
406,73,108706,2,0,L|370:170,1,104.500003189087,10|2,0:2|1:2,0:0:0:0:
205,377,109050,6,0,L|168:279,1,104.500003189087,14|2,0:2|1:2,0:0:0:0:
290,74,109395,1,0,1:2:0:0:
374,312,109568,2,0,L|271:295,1,104.500003189087,14|0,0:2|1:2,0:0:0:0:
194,110,109912,1,0,1:2:0:0:
369,170,110085,1,10,0:2:0:0:
168,279,110257,1,0,1:2:0:0:
212,12,110430,6,0,P|161:16|119:46,1,104.500003189087,14|0,0:2|1:2,0:0:0:0:
226,203,110775,1,2,1:2:0:0:
40,105,110947,1,14,0:2:0:0:
194,110,111119,1,2,1:2:0:0:
8,198,111291,1,2,1:2:0:0:
264,298,111464,2,0,B|317:313|317:313|414:283,1,156.750004783631,10|0,0:2|0:0,0:0:0:0:
419,185,111809,6,0,L|319:216,1,104.500003189087,14|2,0:2|1:2,0:0:0:0:
418,380,112154,1,0,1:2:0:0:
512,157,112326,2,0,L|434:86,1,104.500003189087,14|0,0:2|1:2,0:0:0:0:
332,335,112671,1,0,1:2:0:0:
345,121,112843,1,8,0:3:0:0:
492,253,113016,1,0,1:2:0:0:
250,146,113188,6,0,L|270:33,1,104.500003189087,14|0,0:2|1:2,0:0:0:0:
321,215,113533,1,2,1:2:0:0:
152,160,113706,1,14,0:2:0:0:
345,121,113878,2,0,L|425:188,1,104.500003189087,2|2,1:2|1:2,0:0:0:0:
220,244,114223,1,10,0:2:0:0:
268,43,114395,1,2,1:2:0:0:
394,290,114568,6,0,L|292:310,1,104.500003189087,14|2,0:2|1:2,0:0:0:0:
126,270,114912,1,0,1:2:0:0:
260,138,115085,2,0,L|328:218,1,104.500003189087,14|0,0:2|1:2,0:0:0:0:
126,270,115430,1,0,1:2:0:0:
175,96,115602,2,0,P|209:57|259:44,1,104.500003189087,10|0,0:2|1:2,0:0:0:0:
30,298,115947,6,0,L|15:189,1,104.500003189087,14|0,0:2|1:2,0:0:0:0:
193,342,116292,1,2,1:2:0:0:
80,119,116464,1,14,0:2:0:0:
116,280,116637,1,2,1:2:0:0:
175,96,116809,1,2,1:2:0:0:
294,318,116981,2,0,L|192:341,1,104.500003189087,10|0,0:2|1:2,0:0:0:0:
270,79,117326,5,14,0:2:0:0:
392,285,117499,2,0,L|361:384,1,104.500003189087,2|0,1:2|1:2,0:0:0:0:
225,249,117844,2,0,L|241:199,2,52.2500015945435,14|0|0,0:2|1:0|1:2,0:0:0:0:
294,318,118188,1,8,0:2:0:0:
416,190,118360,1,8,0:2:0:0:
455,358,118533,1,8,0:2:0:0:
327,149,118706,6,0,L|354:47,1,95,10|2,0:3|1:2,0:0:0:0:
506,184,119050,2,0,P|462:199|416:190,1,95,10|2,0:3|1:2,0:0:0:0:
479,10,119395,2,0,L|455:102,1,95,10|2,0:2|1:2,0:0:0:0:
256,81,119740,1,10,0:3:0:0:
351,57,119912,1,10,0:3:0:0:
232,178,120085,5,2,1:2:0:0:
162,108,120257,2,0,L|178:14,1,95,10|10,0:3|0:3,0:0:0:0:
256,81,120602,1,2,1:2:0:0:
99,222,120775,2,0,B|58:114|58:114|86:46,1,190,10|2,0:2|0:0,0:0:0:0:
86,45,121464,6,0,L|50:133,1,95,10|2,0:3|1:2,0:0:0:0:
205,210,121809,2,0,L|147:136,1,95,10|2,0:3|1:2,0:0:0:0:
8,224,122154,2,0,P|54:235|99:221,1,95,10|2,0:2|1:2,0:0:0:0:
147,136,122499,1,10,0:3:0:0:
50,133,122671,1,10,0:3:0:0:
159,298,122844,5,2,1:2:0:0:
98,221,123016,2,0,P|67:259|61:306,1,95,10|10,0:3|0:3,0:0:0:0:
124,377,123361,1,2,1:2:0:0:
294,294,123533,2,0,B|203:276|203:276|158:297,1,142.5,10|0,0:2|0:0,0:0:0:0:
158,297,123878,2,0,L|182:205,1,95,10|0,0:2|0:0,0:0:0:0:
389,273,124223,6,0,L|365:365,1,95,10|2,0:3|1:2,0:0:0:0:
294,294,124568,2,0,L|318:202,1,95,10|2,0:3|1:2,0:0:0:0:
483,250,124912,2,0,L|459:342,1,95,8|2,0:2|1:2,0:0:0:0:
415,174,125257,1,10,0:3:0:0:
512,158,125430,1,10,0:3:0:0:
318,202,125602,6,0,L|293:110,1,95,0|8,1:2|0:3,0:0:0:0:
312,14,125947,1,8,0:3:0:0:
386,79,126119,1,0,1:2:0:0:
219,46,126292,2,0,B|165:46|165:46|137:67|137:67|81:66,1,142.5,8|0,0:2|0:0,0:0:0:0:
83,66,126637,2,0,P|101:113|69:174,1,95,8|0,0:2|1:2,0:0:0:0:
16,245,126981,6,0,B|73:273|73:273|239:223,1,237.5,2|0,0:2|0:0,0:0:0:0:
293,140,127499,2,0,P|288:252|391:295,1,237.5,2|0,0:2|0:0,0:0:0:0:
372,199,128016,5,4,1:2:0:0:
50,62,139395,5,6,1:2:0:0:
70,158,139568,2,0,L|86:241,1,76,2|0,0:0|1:2,0:0:0:0:
143,92,139912,1,2,0:0:0:0:
163,188,140085,2,0,L|180:271,1,76,2|0,1:2|0:0,0:0:0:0:
236,122,140429,1,2,1:2:0:0:
256,218,140602,2,0,L|272:301,1,76,2|0,0:0|1:2,0:0:0:0:
351,238,140947,5,2,0:0:0:0:
178,262,141119,2,0,L|196:346,1,76,2|0,1:2|0:0,0:0:0:0:
418,310,141464,2,0,P|448:232|407:165,1,152,2|2,1:2|1:2,0:0:0:0:
419,174,142154,5,0,1:2:0:0:
419,174,142499,1,2,1:2:0:0:
323,189,142671,1,2,0:0:0:0:
357,97,142844,2,0,L|378:4,1,76,2|0,1:2|0:0,0:0:0:0:
453,82,143188,1,2,1:2:0:0:
261,110,143361,6,0,B|176:73|202:140|115:109,1,152,2|2,0:0|0:0,0:0:0:0:
43,56,143878,1,0,1:2:0:0:
28,153,144050,2,0,L|45:239,1,76,2|0,0:0|1:2,0:0:0:0:
117,318,144395,2,0,L|114:350,2,19,2|2|2,0:0|0:0|0:0,0:0:0:0:
152,241,144568,2,0,P|189:233|225:244,1,76,0|0,1:2|0:0,0:0:0:0:
298,319,144912,5,2,1:2:0:0:
321,222,145085,2,0,L|298:120,1,76,2|0,0:0|1:2,0:0:0:0:
392,294,145430,1,2,0:0:0:0:
415,197,145603,2,0,L|392:95,1,76,2|0,1:2|0:0,0:0:0:0:
486,269,145946,1,2,1:2:0:0:
509,172,146119,2,0,L|486:70,1,76,2|0,0:0|1:2,0:0:0:0:
258,70,146464,6,0,P|292:56|329:62,1,76,2|0,0:0|1:2,0:0:0:0:
205,152,146809,2,0,P|175:128|161:93,1,76,2|0,0:0|1:2,0:0:0:0:
302,157,147154,2,0,P|296:194|273:223,1,76,2|0,0:0|1:2,0:0:0:0:
273,223,147671,6,0,L|283:271,3,38,2|0|0|0,1:2|1:2|1:2|1:2,0:0:0:0:
201,317,148016,2,0,L|173:359,3,38,0|0|0|0,1:2|1:2|1:2|1:2,0:0:0:0:
93,296,148361,2,0,L|44:306,3,38,0|0|0|0,1:2|1:2|1:2|1:2,0:0:0:0:
31,208,148706,2,0,L|-11:180,3,38,0|0|0|0,1:2|1:2|1:2|1:2,0:0:0:0:
46,101,149050,5,2,1:2:0:0:
75,77,149136,1,0,1:2:0:0:
110,64,149222,1,2,1:2:0:0:
148,65,149308,1,0,1:2:0:0:
184,78,149394,1,0,1:2:0:0:
213,102,149481,1,0,1:2:0:0:
240,125,149568,1,2,1:2:0:0:
279,139,149654,1,0,1:2:0:0:
314,139,149740,1,0,1:2:0:0:
350,126,149826,1,0,1:2:0:0:
379,102,149912,1,2,1:2:0:0:
402,72,149999,1,0,1:2:0:0:
436,101,150085,1,8,0:0:0:0:
453,142,150171,1,8,0:0:0:0:
449,187,150257,1,8,0:0:0:0:
425,225,150343,1,8,0:0:0:0:
387,248,150430,6,0,B|273:209|294:328|174:288,2,227.999993041992,6|2|2,1:2|0:0|0:0,0:0:0:0:
297,69,153188,6,0,B|373:50|373:50|451:95|512:46,2,227.999993041992,4|0|2,1:2|0:0|0:0,0:0:0:0:
82,101,155947,5,2,0:0:0:0:
82,101,157326,5,2,0:0:0:0:
256,192,158706,12,2,160085,0:0:0:0:
409,156,161464,6,0,P|460:133|488:85,1,113.999996520996,6|0,1:2|1:2,0:0:0:0:
317,121,161809,2,0,L|339:232,1,113.999996520996,8|0,0:2|1:2,0:0:0:0:
412,362,162154,2,0,L|435:251,1,113.999996520996,2|0,1:2|1:2,0:0:0:0:
234,66,162499,1,8,0:2:0:0:
274,306,162671,1,2,1:2:0:0:
394,60,162844,5,2,1:2:0:0:
339,232,163016,1,2,1:2:0:0:
311,1,163188,1,8,0:2:0:0:
144,160,163361,2,0,L|257:179,1,113.999996520996,2|0,1:2|0:0,0:0:0:0:
216,18,163706,1,2,1:2:0:0:
48,137,163878,2,0,L|88:244,1,113.999996520996,8|0,0:2|1:2,0:0:0:0:
286,86,164223,5,6,1:2:0:0:
192,265,164395,1,0,1:2:0:0:
216,18,164568,1,8,0:2:0:0:
256,178,164740,1,0,1:2:0:0:
127,59,164912,1,0,1:2:0:0:
87,243,165085,1,0,1:2:0:0:
286,86,165257,1,8,0:2:0:0:
311,282,165430,1,0,1:2:0:0:
123,159,165602,5,0,1:2:0:0:
64,361,165775,1,0,1:2:0:0:
256,178,165947,1,8,0:2:0:0:
300,384,166119,1,0,1:2:0:0:
51,172,166292,2,0,L|163:151,1,113.999996520996,2|0,0:0|1:2,0:0:0:0:
402,253,166637,2,0,L|290:231,1,113.999996520996,10|0,0:2|1:2,0:0:0:0:
377,9,166981,5,14,0:2:0:0:
192,265,167154,1,0,1:2:0:0:
284,13,167326,5,8,0:2:0:0:
402,253,167499,1,0,1:2:0:0:
446,76,167671,5,8,0:2:0:0:
299,331,167844,1,0,1:2:0:0:
339,96,168016,5,10,0:2:0:0:
486,356,168188,1,2,1:2:0:0:
219,161,168361,5,8,0:2:0:0:
500,208,168533,1,0,1:2:0:0:
163,240,168706,5,10,0:2:0:0:
405,160,168878,1,2,1:2:0:0:
142,102,169050,5,8,0:2:0:0:
403,257,169223,1,0,1:2:0:0:
52,283,169395,5,10,0:2:0:0:
317,198,169568,1,2,1:2:0:0:
196,31,169740,5,12,0:2:0:0:
262,276,169912,1,0,1:2:0:0:
50,97,170085,1,0,1:2:0:0:
377,117,170257,5,12,0:2:0:0:
163,240,170430,1,0,1:2:0:0:
301,62,170602,1,0,1:2:0:0:
348,322,170775,5,8,0:2:0:0:
217,117,170947,1,0,1:2:0:0:
460,174,171119,5,8,0:2:0:0:
301,62,171292,1,0,1:2:0:0:
262,276,171464,1,0,1:2:0:0:
385,10,171637,5,8,0:2:0:0:
348,322,171809,1,8,0:2:0:0:
146,32,171981,1,8,0:2:0:0:
181,331,172154,1,8,0:2:0:0:
255,0,172326,1,8,0:2:0:0:
450,302,172499,6,0,L|347:321,1,104.500003189087,14|0,0:2|1:2,0:0:0:0:
285,131,172844,1,2,1:2:0:0:
181,331,173016,1,14,0:2:0:0:
198,82,173188,1,2,1:2:0:0:
260,273,173361,1,2,1:2:0:0:
384,52,173533,2,0,L|282:33,1,104.500003189087,10|2,0:2|1:2,0:0:0:0:
110,264,173878,5,14,0:2:0:0:
198,82,174050,1,2,1:2:0:0:
260,273,174223,1,0,1:2:0:0:
108,121,174395,2,0,P|97:71|118:24,1,104.500003189087,14|0,0:2|1:2,0:0:0:0:
281,32,174740,1,0,1:2:0:0:
214,185,174912,2,0,L|196:74,1,104.500003189087,10|0,0:2|1:2,0:0:0:0:
338,324,175257,6,0,L|356:213,1,104.500003189087,14|0,0:2|1:2,0:0:0:0:
486,100,175602,1,2,1:2:0:0:
298,125,175775,1,14,0:2:0:0:
456,202,175947,1,2,1:2:0:0:
381,37,176119,1,2,1:2:0:0:
251,239,176292,2,0,L|353:220,1,104.500003189087,10|0,0:2|1:2,0:0:0:0:
195,5,176637,5,14,0:2:0:0:
148,251,176809,2,0,L|215:331,1,104.500003189087,2|0,1:2|1:2,0:0:0:0:
144,154,177154,2,0,P|94:168|60:207,1,104.500003189087,14|0,0:2|1:2,0:0:0:0:
121,365,177499,1,0,1:2:0:0:
240,135,177671,1,8,0:3:0:0:
306,369,177844,1,0,1:2:0:0:
144,154,178016,6,0,L|168:39,1,104.500003189087,14|0,0:2|1:2,0:0:0:0:
330,260,178361,1,2,1:2:0:0:
258,21,178533,1,14,0:2:0:0:
184,244,178706,1,2,1:2:0:0:
327,91,178878,1,2,1:2:0:0:
388,338,179050,2,0,P|340:357|290:346,1,104.500003189087,10|2,0:2|1:2,0:0:0:0:
415,92,179395,6,0,P|455:124|470:172,1,104.500003189087,14|2,0:2|1:2,0:0:0:0:
330,260,179740,1,0,1:2:0:0:
224,111,179912,2,0,L|326:91,1,104.500003189087,14|0,0:2|1:2,0:0:0:0:
470,172,180257,1,0,1:2:0:0:
193,204,180430,2,0,P|135:154|132:78,1,156.750004783631,10|0,0:2|0:0,0:0:0:0:
224,111,180775,6,0,L|326:91,1,104.500003189087,14|0,0:2|1:2,0:0:0:0:
249,287,181119,1,2,1:2:0:0:
131,78,181292,1,14,0:2:0:0:
158,325,181464,1,2,1:2:0:0:
224,110,181637,1,2,1:2:0:0:
340,361,181809,2,0,L|239:384,1,104.500003189087,10|0,0:2|1:2,0:0:0:0:
326,89,182154,5,14,0:2:0:0:
463,261,182326,2,0,L|432:359,1,104.500003189087,2|0,1:2|1:2,0:0:0:0:
209,205,182671,1,14,0:2:0:0:
467,163,182844,1,0,1:2:0:0:
249,29,183016,1,8,0:2:0:0:
340,361,183188,1,8,0:2:0:0:
411,46,183361,1,8,0:2:0:0:
209,205,183533,6,0,L|303:217,1,95,14|0,0:2|1:2,0:0:0:0:
156,61,183878,1,2,1:2:0:0:
116,240,184050,1,14,0:2:0:0:
235,118,184223,2,0,P|253:74|248:28,1,95,2|2,1:2|1:2,0:0:0:0:
82,10,184568,2,0,P|63:53|68:99,1,95,10|2,0:2|1:2,0:0:0:0:
136,161,184826,1,0,1:0:0:0:
136,161,184912,6,0,P|98:188|51:193,1,95,14|2,0:2|1:2,0:0:0:0:
156,61,185257,1,0,1:2:0:0:
208,234,185430,2,0,L|232:337,1,95,14|0,0:2|1:2,0:0:0:0:
235,118,185775,1,0,1:2:0:0:
329,292,185947,2,0,L|305:395,1,95,14|0,0:2|1:2,0:0:0:0:
409,147,186292,5,6,1:2:0:0:
