osu file format v14

[General]
AudioFilename: audio.mp3
AudioLeadIn: 0
PreviewTime: 93879
Countdown: 0
SampleSet: Soft
StackLeniency: 0.7
Mode: 0
LetterboxInBreaks: 0
WidescreenStoryboard: 0

[Editor]
Bookmarks: 30517,49827,95344,117413
DistanceSpacing: 0.8
BeatDivisor: 4
GridSize: 4
TimelineZoom: 1.7

[Metadata]
Title:Start Again
TitleUnicode:Start Again
Artist:ONE OK ROCK
ArtistUnicode:ONE OK ROCK
Creator:Kuki1537
Version:The End
Source:
Tags:Fueled by Ramen OOR Ambitions A-Sketch english male vocal cut version ver fisky stunterletsplay
BeatmapID:2173763
BeatmapSetID:1039988

[Difficulty]
HPDrainRate:5.7
CircleSize:4.3
OverallDifficulty:9.2
ApproachRate:9.4
SliderMultiplier:2
SliderTickRate:1

[Events]
//Background and Video events
0,0,"background.jpg",0,0
//Break Periods
2,73131,80981
//Storyboard Layer 0 (Background)
//Storyboard Layer 1 (Fail)
//Storyboard Layer 2 (Pass)
//Storyboard Layer 3 (Foreground)
//Storyboard Layer 4 (Overlay)
//Storyboard Sound Samples

[TimingPoints]
2931,344.827586206897,4,2,45,37,1,0
8448,-166.666666666667,4,2,45,37,0,0
19482,-125,4,2,45,52,0,0
25689,-125,4,2,45,59,0,0
29137,-100,4,2,45,70,0,0
30517,-83.3333333333334,4,2,45,80,0,0
49827,-142.857142857143,4,2,45,40,0,0
50172,-142.857142857143,4,2,45,46,0,0
50517,-142.857142857143,4,2,45,52,0,0
50862,-142.857142857143,4,2,45,58,0,0
51206,-142.857142857143,4,2,45,64,0,0
51551,-142.857142857143,4,2,45,70,0,0
51896,-142.857142857143,4,2,45,80,0,0
52586,-83.3333333333333,4,2,45,80,0,0
63620,-125,4,2,45,80,0,0
83965,-166.666666666667,4,2,45,45,0,0
92586,-125,4,2,45,45,0,0
93275,-125,4,2,45,60,0,0
93965,-125,4,2,45,70,0,0
100862,-166.666666666667,4,2,45,45,0,0
106379,-83.3333333333334,4,2,45,80,0,0
125689,-95.2380952380951,4,2,45,80,0,0
128448,-166.666666666666,4,2,45,60,0,0

[Colours]
Combo1 : 166,202,190
Combo2 : 87,114,183
Combo3 : 148,181,205

[HitObjects]
166,63,8448,6,0,P|151:104|148:134,3,59.9999981689454,0|0|0|0,0:2|0:2|0:2|0:2,0:2:0:0:
243,110,9137,2,0,P|254:153|257:191,1,59.9999981689454,2|0,0:2|0:2,0:2:0:0:
345,167,9482,2,0,P|334:210|331:248,1,59.9999981689454,2|0,0:2|0:2,0:2:0:0:
233,250,9827,2,0,L|239:317,1,59.9999981689454,2|0,0:2|0:2,0:2:0:0:
329,297,10172,2,0,L|323:364,1,59.9999981689454,2|0,0:2|0:2,0:2:0:0:
169,368,10517,2,0,P|125:374|107:301,1,119.999996337891,2|2,0:2|0:2,0:2:0:0:
201,265,11034,1,2,0:2:0:0:
109,288,11206,6,0,P|72:297|39:295,3,59.9999981689454,0|0|0|0,0:2|0:2|0:2|0:2,0:2:0:0:
3,191,11896,2,0,P|43:205|74:208,1,59.9999981689454,2|0,0:2|0:2,0:2:0:0:
160,120,12241,2,0,P|124:131|83:136,1,59.9999981689454,2|0,0:2|0:2,0:2:0:0:
0,17,12586,2,0,B|73:18|46:50|113:53,1,119.999996337891,2|2,0:2|0:2,0:2:0:0:
212,1,13103,2,0,L|217:73,1,59.9999981689454,2|0,0:2|0:2,0:2:0:0:
308,74,13448,2,0,L|301:146,1,59.9999981689454,2|0,0:2|0:2,0:2:0:0:
393,151,13793,1,2,0:2:0:0:
320,218,13965,6,0,P|324:247|333:276,3,59.9999981689454,0|0|0|0,0:2|0:2|0:2|0:2,0:2:0:0:
396,346,14655,2,0,P|440:363|468:365,1,59.9999981689454,2|0,0:2|0:2,0:2:0:0:
512,241,14999,2,0,P|474:246|440:257,1,59.9999981689454,2|0,0:2|0:2,0:2:0:0:
304,358,15344,2,0,P|262:371|218:306,1,119.999996337891,2|2,0:2|0:2,0:2:0:0:
285,220,15862,2,0,L|204:228,1,59.9999981689454,2|0,0:2|0:2,0:2:0:0:
141,147,16206,2,0,L|222:155,1,59.9999981689454,2|0,0:2|0:2,0:2:0:0:
293,103,16551,1,2,0:2:0:0:
183,20,16724,5,2,0:2:0:0:
183,20,17068,2,0,P|193:58|195:92,1,59.9999981689454,2|2,0:2|0:2,0:2:0:0:
283,161,17413,2,0,P|287:121|294:97,1,59.9999981689454,2|2,0:2|0:2,0:2:0:0:
360,18,17758,1,2,0:2:0:0:
360,18,18103,5,2,0:2:0:0:
510,143,18275,2,0,P|470:154|432:158,1,59.9999981689454,2|0,0:2|0:2,0:2:0:0:
401,106,18620,2,0,P|413:150|418:243,1,119.999996337891,2|0,0:2|0:2,0:2:0:0:
333,327,19137,2,0,L|251:333,1,59.9999981689454,0|0,0:2|0:2,0:2:0:0:
76,291,19482,5,4,0:2:0:0:
229,242,19655,1,0,0:2:0:0:
77,177,19827,1,0,0:2:0:0:
211,259,19999,1,0,0:2:0:0:
162,62,20172,2,0,P|168:110|184:149,1,80,2|0,0:2|0:2,0:2:0:0:
311,243,20517,2,0,P|328:193|332:158,1,80,2|0,0:2|0:2,0:2:0:0:
238,11,20862,6,0,L|246:94,1,80,2|0,0:2|0:2,0:2:0:0:
400,211,21206,2,0,L|409:126,1,80,2|0,0:2|0:2,0:2:0:0:
240,211,21551,2,0,P|234:279|331:330,1,160,2|2,0:2|0:2,0:2:0:0:
441,348,22068,1,2,0:2:0:0:
333,176,22241,5,0,0:2:0:0:
482,261,22413,1,0,0:2:0:0:
324,199,22586,1,0,0:2:0:0:
479,152,22758,1,0,0:2:0:0:
394,268,22931,2,0,P|352:289|310:296,1,80,2|0,0:2|0:2,0:2:0:0:
181,252,23275,1,2,0:2:0:0:
244,124,23448,6,0,B|331:114|305:176|392:171,1,160,2|0,0:2|0:2,0:2:0:0:
389,84,23965,1,0,0:2:0:0:
253,205,24137,2,0,P|243:251|241:292,1,80,2|0,0:2|0:2,0:2:0:0:
105,137,24482,2,0,P|113:192|113:245,1,80,2|0,0:2|0:2,0:2:0:0:
97,353,24827,1,2,0:2:0:0:
21,186,24999,5,0,0:2:0:0:
187,167,25172,1,0,0:2:0:0:
59,274,25344,1,0,0:2:0:0:
89,120,25517,1,0,0:2:0:0:
183,265,25689,2,0,L|186:353,1,80,2|0,0:2|0:2,0:2:0:0:
311,214,26034,2,0,L|308:134,1,80,2|0,0:2|0:2,0:2:0:0:
182,291,26379,6,0,L|185:379,1,80,2|0,0:2|0:2,0:2:0:0:
324,203,26724,2,0,L|321:123,1,80,2|0,0:2|0:2,0:2:0:0:
271,338,27068,2,0,P|312:357|377:281,1,160,2|2,0:2|0:2,0:2:0:0:
239,160,27586,1,2,0:2:0:0:
128,245,27758,6,0,L|131:304,3,40,4|0|0|0,1:3|0:2|0:2|0:2,0:2:0:0:
19,194,28103,6,0,L|22:143,3,40,4|0|0|0,1:3|0:2|0:2|0:2,0:2:0:0:
206,227,28448,5,4,1:3:0:0:
206,227,28534,1,0,0:2:0:0:
206,227,28620,2,0,L|209:286,1,40,0|0,0:2|0:2,0:2:0:0:
100,144,28793,5,4,1:3:0:0:
100,144,28879,1,0,0:2:0:0:
100,144,28965,2,0,L|103:85,1,40,0|0,0:2|0:2,0:2:0:0:
305,128,29137,5,6,1:3:0:0:
323,151,29224,1,0,0:2:0:0:
331,179,29310,1,2,1:2:0:0:
325,208,29396,1,0,0:2:0:0:
300,240,29482,5,4,1:3:0:0:
282,275,29568,1,0,0:2:0:0:
285,315,29655,1,2,1:2:0:0:
306,348,29741,1,0,0:2:0:0:
349,345,29827,5,4,1:3:0:0:
325,301,29913,1,0,0:2:0:0:
282,275,29999,1,2,1:2:0:0:
232,273,30086,1,0,0:2:0:0:
170,275,30172,5,8,0:2:0:0:
114,251,30258,1,8,0:2:0:0:
96,193,30344,1,8,0:2:0:0:
127,141,30431,1,8,0:2:0:0:
184,117,30517,6,0,B|266:114|266:114|303:127,1,119.999996337891,6|0,1:2|1:2,0:2:0:0:
232,273,30862,1,8,0:2:0:0:
129,65,31034,1,0,0:2:0:0:
301,126,31206,2,0,P|314:186|314:247,1,119.999996337891,2|0,0:2|1:2,0:2:0:0:
123,303,31551,1,8,0:2:0:0:
204,93,31724,1,2,0:2:0:0:
204,93,31810,1,2,0:2:0:0:
204,93,31896,5,2,1:2:0:0:
268,329,32068,1,2,1:2:0:0:
395,157,32241,1,8,0:2:0:0:
201,215,32413,2,0,P|141:230|77:232,1,119.999996337891,2|0,1:2|0:2,0:2:0:0:
301,37,32758,2,0,P|364:41|423:54,1,119.999996337891,2|8,1:2|0:2,0:2:0:0:
390,280,33103,1,2,1:2:0:0:
102,134,33275,6,0,B|234:120|189:234|341:214,1,239.999992675781,4|8,1:2|0:2,0:2:0:0:
509,114,33793,1,0,0:2:0:0:
295,127,33965,1,0,0:2:0:0:
494,281,34137,1,0,1:2:0:0:
396,70,34310,2,0,P|408:133|411:189,1,119.999996337891,8|2,0:2|0:2,0:2:0:0:
251,330,34655,5,2,1:2:0:0:
159,98,34827,1,2,1:2:0:0:
348,234,34999,1,8,0:2:0:0:
114,314,35172,2,0,P|91:255|82:178,1,119.999996337891,2|0,1:2|0:2,0:2:0:0:
265,55,35517,2,0,P|260:119|244:174,1,119.999996337891,2|8,1:2|0:2,0:2:0:0:
56,72,35862,1,8,0:2:0:0:
56,72,35948,1,8,0:2:0:0:
56,72,36034,5,2,1:2:0:0:
205,248,36206,1,0,1:2:0:0:
144,39,36379,1,8,0:2:0:0:
16,260,36551,1,0,1:2:0:0:
49,26,36724,2,0,P|70:92|120:128,1,119.999996337891,2|0,0:2|1:2,0:2:0:0:
290,125,37068,2,0,L|301:4,1,119.999996337891,8|0,0:2|0:2,0:2:0:0:
194,113,37413,5,2,0:2:0:0:
364,244,37586,1,0,1:2:0:0:
393,32,37758,1,8,0:2:0:0:
235,212,37931,2,0,P|242:276|259:332,1,119.999996337891,2|0,0:2|0:2,0:2:0:0:
403,332,38275,1,2,1:2:0:0:
138,266,38448,1,8,0:2:0:0:
324,123,38620,1,0,1:2:0:0:
130,359,38793,5,10,0:2:0:0:
427,208,38965,1,0,1:2:0:0:
74,126,39137,1,0,1:2:0:0:
341,254,39310,5,8,0:2:0:0:
2,214,39482,1,0,1:2:0:0:
336,85,39655,1,0,1:2:0:0:
67,298,39827,5,8,0:2:0:0:
247,8,39999,1,0,1:2:0:0:
263,347,40172,5,10,0:2:0:0:
155,56,40344,2,0,P|166:114|170:185,1,119.999996337891,2|0,1:2|1:2,0:2:0:0:
155,333,40689,1,2,1:2:0:0:
155,333,40775,1,0,1:2:0:0:
155,333,40862,1,0,1:2:0:0:
76,144,41034,1,2,1:2:0:0:
285,246,41206,1,12,0:2:0:0:
265,57,41379,1,0,1:2:0:0:
265,57,41465,1,0,1:2:0:0:
265,57,41551,6,0,P|180:78|103:75,1,119.999996337891,6|0,1:2|1:2,0:2:0:0:
4,12,41896,1,8,0:2:0:0:
200,110,42068,1,0,0:2:0:0:
0,227,42241,2,0,P|54:213|129:209,1,119.999996337891,2|0,0:2|1:2,0:2:0:0:
303,277,42586,1,8,0:2:0:0:
109,352,42758,1,2,0:2:0:0:
275,169,42931,5,2,1:2:0:0:
329,384,43103,1,2,1:2:0:0:
396,133,43275,1,8,0:2:0:0:
243,323,43448,2,0,P|300:307|361:301,1,119.999996337891,2|0,1:2|0:2,0:2:0:0:
512,194,43793,1,2,1:2:0:0:
512,194,43965,2,0,P|447:215|387:221,1,119.999996337891,8|0,0:2|0:2,0:2:0:0:
194,23,44310,5,6,1:2:0:0:
484,115,44482,1,0,1:2:0:0:
219,187,44655,1,8,0:2:0:0:
441,18,44827,1,0,0:2:0:0:
238,151,44999,2,0,P|171:170|104:176,1,119.999996337891,0|0,0:2|1:2,0:2:0:0:
211,0,45344,2,0,P|275:2|336:13,1,119.999996337891,8|0,0:2|0:2,0:2:0:0:
504,90,45689,5,0,1:2:0:0:
317,164,45862,1,0,1:2:0:0:
511,222,46034,2,0,P|446:226|389:240,1,119.999996337891,8|0,0:2|0:2,0:2:0:0:
255,265,46379,2,0,L|263:391,1,119.999996337891,2|0,0:2|1:2,0:2:0:0:
56,233,46724,2,0,L|66:108,1,119.999996337891,10|0,0:2|1:2,0:2:0:0:
417,59,47068,5,6,1:2:0:0:
389,353,47413,5,0,1:2:0:0:
95,325,47758,5,0,1:2:0:0:
123,31,48103,5,0,1:2:0:0:
391,80,48448,5,0,1:2:0:0:
367,327,48793,5,0,1:2:0:0:
120,303,49137,5,0,1:2:0:0:
144,56,49482,5,0,1:2:0:0:
419,175,49827,6,0,P|374:193|331:199,1,69.9999978637696,8|8,1:2|0:2,0:2:0:0:
300,106,50172,6,0,P|250:93|214:93,1,69.9999978637696,8|8,1:2|0:2,0:2:0:0:
115,156,50517,5,8,1:2:0:0:
115,156,50689,1,8,0:2:0:0:
182,301,50862,5,8,1:2:0:0:
259,201,51034,1,8,0:2:0:0:
50,214,51206,5,8,1:2:0:0:
267,284,51379,1,8,0:2:0:0:
126,59,51551,5,8,1:2:0:0:
97,309,51724,1,8,0:2:0:0:
232,64,51896,5,8,1:2:0:0:
236,358,52068,1,8,0:2:0:0:
342,42,52241,5,8,1:2:0:0:
379,369,52413,1,8,0:2:0:0:
462,13,52586,6,0,P|454:92|387:157,1,119.999996337891,14|0,0:2|1:2,0:2:0:0:
209,216,52931,1,2,1:2:0:0:
509,205,53103,2,0,P|454:232|381:225,1,119.999996337891,10|2,0:2|1:2,0:2:0:0:
256,47,53448,1,2,1:2:0:0:
314,342,53620,2,0,L|305:216,1,119.999996337891,10|0,0:2|1:2,0:2:0:0:
71,28,53965,6,0,P|74:95|88:148,1,119.999996337891,10|2,0:2|1:2,0:2:0:0:
129,305,54310,1,0,1:2:0:0:
291,5,54482,2,0,P|292:72|283:129,1,119.999996337891,10|0,0:2|1:2,0:2:0:0:
241,284,54827,1,0,1:2:0:0:
179,0,54999,2,0,L|186:124,1,119.999996337891,10|0,0:2|1:2,0:2:0:0:
129,305,55344,6,0,P|70:328|14:338,1,119.999996337891,10|0,0:2|1:2,0:2:0:0:
87,146,55689,1,2,1:2:0:0:
219,265,55862,2,0,P|215:335|180:382,1,119.999996337891,10|2,0:2|1:2,0:2:0:0:
8,199,56206,1,2,1:2:0:0:
298,128,56379,2,0,L|307:261,1,119.999996337891,10|0,0:2|1:2,0:2:0:0:
107,228,56724,5,10,0:2:0:0:
196,2,56896,1,2,1:2:0:0:
271,195,57068,1,0,1:2:0:0:
118,61,57241,5,10,0:2:0:0:
369,155,57413,1,0,1:2:0:0:
107,228,57586,1,0,1:2:0:0:
374,260,57758,1,0,1:2:0:0:
138,149,57931,1,0,1:2:0:0:
368,60,58103,6,0,P|431:86|467:144,1,119.999996337891,10|0,0:2|1:2,0:2:0:0:
431,350,58448,1,2,1:2:0:0:
261,109,58620,1,10,0:2:0:0:
496,244,58793,1,2,1:2:0:0:
246,286,58965,1,2,1:2:0:0:
474,160,59137,2,0,L|348:180,1,119.999996337891,10|0,0:2|1:2,0:2:0:0:
121,75,59482,6,0,P|184:80|245:94,1,119.999996337891,10|2,0:2|1:2,0:2:0:0:
337,266,59827,1,0,1:2:0:0:
43,209,59999,2,0,P|102:185|164:173,1,119.999996337891,10|0,0:2|1:2,0:2:0:0:
355,178,60344,1,0,1:2:0:0:
57,373,60517,2,0,P|87:321|129:279,1,119.999996337891,10|0,0:2|1:2,0:2:0:0:
309,148,60862,6,0,B|327:210|327:210|319:285,1,119.999996337891,10|0,0:2|1:2,0:2:0:0:
224,379,61206,1,2,1:2:0:0:
141,148,61379,2,0,B|194:183|194:183|236:246,1,119.999996337891,10|2,0:2|1:2,0:2:0:0:
224,379,61724,1,2,1:2:0:0:
69,222,61896,1,10,0:2:0:0:
317,292,62068,1,0,1:2:0:0:
364,93,62241,6,0,B|302:116|302:116|237:116,1,119.999996337891,10|2,0:2|1:2,0:2:0:0:
97,26,62586,1,0,1:2:0:0:
208,303,62758,5,10,0:2:0:0:
261,15,62931,1,8,0:2:0:0:
300,317,63103,1,8,0:2:0:0:
182,39,63275,1,8,0:2:0:0:
127,344,63448,1,8,0:2:0:0:
291,100,63620,6,0,P|333:86|371:84,2,80,0|0|0,0:2|1:2|0:2,0:2:0:0:
231,190,64137,1,0,1:2:0:0:
390,248,64310,2,0,P|436:258|473:259,1,80,8|0,0:2|1:2,0:2:0:0:
443,156,64655,1,0,0:2:0:0:
424,350,64827,1,0,0:2:0:0:
307,186,64999,6,0,P|315:231|315:276,2,80,0|0|0,1:2|0:2|0:2,0:2:0:0:
204,106,65517,1,0,1:2:0:0:
145,258,65689,1,8,0:2:0:0:
93,102,66379,6,0,P|54:91|14:88,2,80,0|0|0,0:2|1:2|0:2,0:2:0:0:
191,189,66896,1,0,1:2:0:0:
41,191,67068,2,0,P|43:236|52:280,1,80,8|0,0:2|1:2,0:2:0:0:
146,368,67413,1,0,0:2:0:0:
205,215,67586,1,0,0:2:0:0:
313,336,67758,6,0,P|263:356|236:358,2,80,0|0|0,1:2|0:2|0:2,0:2:0:0:
361,240,68275,1,0,1:2:0:0:
489,301,68448,2,0,P|499:345|496:387,1,80,8|0,0:2|1:2,0:2:0:0:
274,219,68793,2,0,L|267:95,1,120,4|0,0:2|0:2,0:2:0:0:
265,66,69137,6,0,P|224:84|182:93,2,80,2|0|0,0:2|1:2|0:2,0:2:0:0:
346,0,69655,1,2,1:2:0:0:
434,138,69827,2,0,P|432:178|419:222,1,80,8|2,0:2|1:2,0:2:0:0:
345,119,70172,1,2,0:2:0:0:
511,88,70344,1,2,0:2:0:0:
421,216,70517,6,0,P|412:264|411:313,2,80,0|0|0,1:2|0:2|0:2,0:2:0:0:
484,344,71034,1,0,1:2:0:0:
306,364,71206,2,0,P|263:374|220:377,1,80,8|0,0:2|1:2,0:2:0:0:
83,245,71551,2,0,P|122:248|161:257,1,80,8|0,0:2|1:2,0:2:0:0:
256,192,71896,12,0,72931,1:2:0:0:
256,192,81551,12,0,83965,0:2:0:0:
141,155,84310,5,2,0:2:0:0:
141,155,84482,2,0,P|181:167|215:169,1,59.9999981689454,2|0,0:2|0:2,0:2:0:0:
271,98,84827,1,2,0:2:0:0:
271,98,84999,2,0,P|311:86|345:84,1,59.9999981689454,2|0,0:2|0:2,0:2:0:0:
330,182,85344,1,2,0:2:0:0:
330,182,85517,2,0,P|370:194|404:196,1,59.9999981689454,2|0,0:2|0:2,0:2:0:0:
493,192,85862,1,2,0:2:0:0:
453,274,86034,2,0,P|414:289|386:294,1,59.9999981689454,2|0,0:2|0:2,0:2:0:0:
307,284,86379,2,0,P|350:271|385:267,1,59.9999981689454,2|0,0:2|0:2,0:2:0:0:
330,370,86724,2,0,P|279:367|248:352,1,59.9999981689454,2|0,0:2|0:2,0:2:0:0:
208,291,87068,5,0,0:2:0:0:
208,291,87413,1,2,0:2:0:0:
122,253,87586,1,2,0:2:0:0:
160,167,87758,2,0,P|204:183|241:187,1,59.9999981689454,2|0,0:2|0:2,0:2:0:0:
327,96,88103,1,2,0:2:0:0:
327,96,88275,2,0,P|297:102|270:114,1,59.9999981689454,2|0,0:2|0:2,0:2:0:0:
366,187,88620,2,0,P|410:203|447:207,1,59.9999981689454,2|0,0:2|0:2,0:2:0:0:
469,158,88965,2,0,L|463:268,1,89.9999972534181,2|0,0:2|0:2,0:2:0:0:
463,262,89310,2,0,L|461:289,4,14.9999995422363,0|0|0|0|0,0:2|0:2|0:2|0:2|0:2,0:2:0:0:
325,358,89827,5,2,0:2:0:0:
325,358,89999,2,0,P|312:321|310:281,1,59.9999981689454,2|0,0:2|0:2,0:2:0:0:
206,258,90344,1,2,0:2:0:0:
206,258,90517,2,0,P|219:221|221:182,1,59.9999981689454,2|0,0:2|0:2,0:2:0:0:
328,147,90862,1,2,0:2:0:0:
328,147,91034,2,0,P|315:110|313:70,1,59.9999981689454,2|0,0:2|0:2,0:2:0:0:
217,20,91379,2,0,P|180:37|147:42,1,59.9999981689454,2|0,0:2|0:2,0:2:0:0:
88,114,91724,2,0,P|123:128|162:131,1,59.9999981689454,2|0,0:2|0:2,0:2:0:0:
266,180,92068,2,0,B|197:180|218:216|154:218,1,119.999996337891,2|0,0:2|0:2,0:2:0:0:
20,190,92586,6,0,L|16:239,3,40,2|0|0|0,1:3|0:2|0:2|0:2,0:2:0:0:
102,273,92931,6,0,L|105:320,3,40,0|0|0|0,1:3|0:2|0:2|0:2,0:2:0:0:
201,377,93275,5,0,1:3:0:0:
201,377,93362,1,0,0:2:0:0:
201,377,93448,2,0,L|205:312,1,40,0|0,0:2|0:2,0:2:0:0:
320,297,93620,5,0,1:3:0:0:
320,297,93706,1,0,0:2:0:0:
320,297,93793,2,0,L|316:232,1,40,0|0,0:2|0:2,0:2:0:0:
264,124,93965,5,2,1:3:0:0:
286,107,94051,1,0,0:2:0:0:
312,98,94137,1,2,1:2:0:0:
340,99,94224,1,0,0:2:0:0:
374,127,94310,5,0,1:3:0:0:
403,147,94396,1,0,0:2:0:0:
437,157,94482,1,2,1:2:0:0:
472,156,94568,1,0,0:2:0:0:
506,122,94655,5,0,1:3:0:0:
462,122,94741,1,0,0:2:0:0:
437,157,94827,1,2,1:2:0:0:
446,199,94913,1,0,0:2:0:0:
455,270,94999,5,8,0:2:0:0:
421,329,95086,5,8,0:2:0:0:
357,352,95172,5,8,0:2:0:0:
293,328,95258,5,8,0:2:0:0:
266,265,95344,5,6,0:2:0:0:
251,250,98103,5,4,0:2:0:0:
236,235,100862,6,0,P|221:196|219:155,2,59.9999981689454,0|0|0,0:2|0:2|0:2,0:2:0:0:
313,180,101379,2,0,B|367:180|433:117|414:33|326:28|296:92|320:112,1,239.999992675781,0|0,0:2|0:2,0:2:0:0:
256,192,103620,12,0,104999,0:2:0:0:
134,82,106379,5,2,1:2:0:0:
275,244,106551,1,0,1:2:0:0:
276,11,106724,1,8,0:2:0:0:
149,230,106896,1,0,1:2:0:0:
356,114,107068,2,0,P|419:101|475:98,1,119.999996337891,2|0,1:2|1:2,0:2:0:0:
436,267,107413,1,8,0:2:0:0:
222,137,107586,1,2,1:2:0:0:
481,182,107758,5,2,1:2:0:0:
300,305,107931,1,2,1:2:0:0:
284,86,108103,1,8,0:2:0:0:
487,338,108275,2,0,P|438:354|358:361,1,119.999996337891,2|0,1:2|0:2,0:2:0:0:
257,224,108620,1,2,1:2:0:0:
257,224,108793,2,0,P|168:209|115:211,1,119.999996337891,8|0,0:2|1:2,0:2:0:0:
22,359,109137,5,6,1:2:0:0:
150,94,109310,1,0,1:2:0:0:
160,361,109482,1,8,0:2:0:0:
6,137,109655,1,0,1:2:0:0:
232,303,109827,2,0,P|294:317|352:317,1,119.999996337891,0|0,1:2|1:2,0:2:0:0:
257,117,110172,2,0,P|184:122|133:136,1,119.999996337891,8|0,0:2|1:2,0:2:0:0:
51,249,110517,5,0,1:2:0:0:
264,200,110689,1,0,1:2:0:0:
116,41,110862,1,8,0:2:0:0:
172,274,111034,1,0,1:2:0:0:
325,32,111206,2,0,L|192:43,1,119.999996337891,2|0,0:2|1:2,0:2:0:0:
340,153,111551,2,0,L|459:162,1,119.999996337891,10|0,0:2|1:2,0:2:0:0:
436,11,111896,5,8,0:2:0:0:
355,274,112068,1,0,1:2:0:0:
304,19,112241,5,8,0:2:0:0:
275,299,112413,1,0,1:2:0:0:
168,47,112586,5,8,0:2:0:0:
197,321,112758,1,0,1:2:0:0:
50,104,112931,5,8,0:2:0:0:
120,344,113103,1,0,1:2:0:0:
293,160,113275,5,8,0:2:0:0:
11,243,113448,1,0,1:2:0:0:
355,274,113620,5,8,0:2:0:0:
65,179,113793,1,0,1:2:0:0:
400,160,113965,5,8,0:2:0:0:
141,269,114137,1,0,1:2:0:0:
239,10,114310,5,8,0:2:0:0:
355,274,114482,1,0,1:2:0:0:
124,91,114655,5,8,0:2:0:0:
372,147,114827,1,0,1:2:0:0:
163,287,114999,1,0,1:2:0:0:
431,246,115172,5,8,0:2:0:0:
167,186,115344,1,0,1:2:0:0:
421,51,115517,1,0,1:2:0:0:
166,26,115689,5,8,0:2:0:0:
465,147,115862,1,0,1:2:0:0:
234,280,116034,5,8,0:2:0:0:
287,5,116206,1,0,1:2:0:0:
355,274,116379,1,0,1:2:0:0:
110,79,116551,5,8,0:2:0:0:
367,46,116724,1,8,0:2:0:0:
400,303,116896,1,8,0:2:0:0:
143,336,117068,1,8,0:2:0:0:
110,79,117241,1,8,0:2:0:0:
467,58,117413,6,0,B|336:65|402:159|261:170,1,239.999992675781,14|2,0:2|1:2,0:2:0:0:
82,69,117931,1,10,0:2:0:0:
281,74,118103,1,2,1:2:0:0:
75,186,118275,1,2,1:2:0:0:
188,0,118448,2,0,B|181:123,1,119.999996337891,10|0,0:2|1:2,0:2:0:0:
171,303,118793,6,0,B|227:296|269:315|269:315|307:297|307:297|359:318|402:308,1,239.999992675781,10|0,0:2|1:2,0:2:0:0:
464,159,119310,2,0,P|371:221|291:144,1,239.999992675781,10|0,0:2|1:2,0:2:0:0:
391,13,119827,2,0,L|379:140,1,119.999996337891,10|0,0:2|1:2,0:2:0:0:
224,254,120172,6,0,B|171:303|171:303|148:131,1,239.999992675781,10|2,0:2|1:2,0:2:0:0:
231,7,120689,1,10,0:2:0:0:
49,153,120862,1,2,1:2:0:0:
287,95,121034,1,2,1:2:0:0:
16,16,121206,2,0,P|71:20|134:37,1,119.999996337891,10|0,0:2|1:2,0:2:0:0:
332,185,121551,6,0,B|271:206|219:173|219:173|205:238|146:265,1,239.999992675781,10|0,0:2|1:2,0:2:0:0:
2,226,122068,1,10,0:2:0:0:
259,266,122241,1,0,0:2:0:0:
76,81,122413,1,0,0:2:0:0:
117,340,122586,1,0,1:2:0:0:
235,106,122758,1,0,0:2:0:0:
2,226,122931,6,0,B|133:221|83:326|213:325,1,239.999992675781,10|2,0:2|1:2,0:2:0:0:
410,170,123448,1,10,0:2:0:0:
198,234,123620,1,2,1:2:0:0:
411,309,123793,1,2,1:2:0:0:
262,87,123965,2,0,P|270:149|283:212,1,119.999996337891,10|0,0:2|1:2,0:2:0:0:
483,384,124310,6,0,B|493:308|493:308|478:222|478:222|489:137,1,239.999992675781,10|0,0:2|1:2,0:2:0:0:
403,31,124827,2,0,P|393:105|261:86,1,239.999992675781,10|0,0:2|1:2,0:2:0:0:
142,0,125344,2,0,P|149:63|141:120,1,119.999996337891,10|0,0:2|1:2,0:2:0:0:
28,281,125689,6,0,L|257:301,1,209.999993591309,10|2,0:2|1:2,0:2:0:0:
117,208,126206,2,0,L|332:227,1,209.999993591309,10|2,0:2|1:2,0:2:0:0:
230,132,126724,2,0,L|346:142,1,104.999996795654,10|0,0:2|1:2,0:2:0:0:
402,313,127068,6,0,L|190:295,1,209.999993591309,10|0,0:2|1:2,0:2:0:0:
10,189,127586,1,10,0:2:0:0:
182,382,127758,1,0,1:2:0:0:
87,132,127931,1,8,0:2:0:0:
96,371,128103,1,8,0:2:0:0:
186,203,128275,1,0,1:2:0:0:
10,358,128448,6,0,P|25:323|27:276,2,59.9999981689454,10|0|2,0:2|1:2|1:2,0:2:0:0:
117,291,128965,2,0,P|104:254|74:218,2,59.9999981689454,14|2|2,0:2|1:2|1:2,0:2:0:0:
163,174,129482,2,0,P|131:153|85:143,1,59.9999981689454,10|0,0:2|1:2,0:2:0:0:
14,70,129741,1,0,1:2:0:0:
14,70,129827,6,0,P|61:66|94:52,2,59.9999981689454,14|2|0,0:2|1:2|1:2,0:2:0:0:
150,6,130344,2,0,P|196:10|225:25,2,59.9999981689454,10|0|0,0:2|1:2|1:2,0:2:0:0:
270,91,130862,2,0,L|275:170,1,59.9999981689454,14|0,0:2|1:2,0:2:0:0:
368,219,131206,5,6,0:2:0:0:
