osu file format v14

[General]
AudioFilename: audio.mp3
AudioLeadIn: 0
PreviewTime: 93879
Countdown: 0
SampleSet: Soft
StackLeniency: 0.7
Mode: 0
LetterboxInBreaks: 0
WidescreenStoryboard: 1

[Editor]
Bookmarks: 30517,49827,95344
DistanceSpacing: 0.8
BeatDivisor: 4
GridSize: 4
TimelineZoom: 1.7

[Metadata]
Title:Start Again
TitleUnicode:Start Again
Artist:ONE OK ROCK
ArtistUnicode:ONE OK ROCK
Creator:Kuki1537
Version:Insane
Source:
Tags:Fueled by Ramen OOR Ambitions A-Sketch english male vocal cut version ver fisky stunterletsplay
BeatmapID:2185355
BeatmapSetID:1039988

[Difficulty]
HPDrainRate:5
CircleSize:4
OverallDifficulty:8
ApproachRate:9
SliderMultiplier:1.8
SliderTickRate:1

[Events]
//Background and Video events
0,0,"background.jpg",0,0
//Break Periods
2,73131,80951
//Storyboard Layer 0 (Background)
//Storyboard Layer 1 (Fail)
//Storyboard Layer 2 (Pass)
//Storyboard Layer 3 (Foreground)
//Storyboard Layer 4 (Overlay)
//Storyboard Sound Samples

[TimingPoints]
2931,344.827586206897,4,2,45,37,1,0
8448,-166.666666666667,4,2,45,37,0,0
19482,-125,4,2,45,52,0,0
25689,-125,4,2,45,59,0,0
27758,-100,4,2,45,59,0,0
29137,-100,4,2,45,70,0,0
30517,-90.9090909090909,4,2,45,80,0,0
49827,-125,4,2,45,40,0,0
50172,-125,4,2,45,46,0,0
50517,-100,4,2,45,52,0,0
50862,-100,4,2,45,58,0,0
51206,-100,4,2,45,64,0,0
51551,-100,4,2,45,70,0,0
51896,-100,4,2,45,80,0,0
52586,-90.9090909090909,4,2,45,80,0,0
63620,-142.857142857143,4,2,45,80,0,0
83965,-142.857142857143,4,2,45,45,0,0
92586,-111.111111111111,4,2,45,45,0,0
93275,-111.111111111111,4,2,45,60,0,0
93965,-111.111111111111,4,2,45,70,0,0
100862,-166.666666666667,4,2,45,45,0,0
106379,-90.909090909091,4,2,45,80,0,0
125689,-100,4,2,45,80,0,0
128448,-142.857142857143,4,2,45,60,0,0

[Colours]
Combo1 : 166,202,190
Combo2 : 87,114,183
Combo3 : 148,181,205

[HitObjects]
429,218,8448,6,0,L|424:140,3,53.9999983520508,0|0|0|0,0:2|0:2|0:2|0:2,0:0:0:0:
401,88,9137,2,0,P|374:70|349:65,1,53.9999983520508,2|0,0:2|0:2,0:0:0:0:
345,147,9482,2,0,P|311:147|285:157,1,53.9999983520508,2|0,0:2|0:2,0:0:0:0:
330,228,9827,2,0,L|326:285,1,53.9999983520508,2|0,0:2|0:2,0:0:0:0:
252,350,10172,2,0,L|248:292,1,53.9999983520508,2|0,0:2|0:2,0:0:0:0:
165,210,10517,2,0,P|173:266|148:312,1,107.999996704102,2|2,0:2|0:2,0:0:0:0:
94,248,11034,1,2,0:2:0:0:
94,248,11206,6,0,L|30:253,3,53.9999983520508,0|0|0|0,0:2|0:2|0:2|0:2,0:0:0:0:
48,176,11896,2,0,P|16:152|-12:146,1,53.9999983520508,2|0,0:2|0:2,0:0:0:0:
134,171,12241,2,0,P|120:133|100:113,1,53.9999983520508,2|0,0:2|0:2,0:0:0:0:
201,230,12586,2,0,P|219:188|205:119,1,107.999996704102,2|2,0:2|0:2,0:0:0:0:
163,44,13103,2,0,P|194:53|228:49,1,53.9999983520508,2|0,0:2|0:2,0:0:0:0:
290,18,13448,2,0,P|259:15|222:23,1,53.9999983520508,2|0,0:2|0:2,0:0:0:0:
290,106,13793,1,2,0:2:0:0:
290,106,13965,6,0,L|353:102,3,53.9999983520508,0|0|0|0,0:2|0:2|0:2|0:2,0:0:0:0:
427,135,14655,2,0,P|444:167|443:205,1,53.9999983520508,2|0,0:2|0:2,0:0:0:0:
363,185,14999,2,0,P|360:222|342:247,1,53.9999983520508,2|0,0:2|0:2,0:0:0:0:
283,189,15344,2,0,L|168:196,1,107.999996704102,2|2,0:2|0:2,0:0:0:0:
94,246,15862,2,0,L|99:311,1,53.9999983520508,2|0,0:2|0:2,0:0:0:0:
183,292,16206,2,0,L|179:353,1,53.9999983520508,2|0,0:2|0:2,0:0:0:0:
265,377,16551,1,2,0:2:0:0:
274,286,16724,5,2,0:2:0:0:
274,286,17068,2,0,P|307:300|333:301,1,53.9999983520508,2|2,0:2|0:2,0:0:0:0:
369,227,17413,2,0,P|406:216|432:216,1,53.9999983520508,2|2,0:2|0:2,0:0:0:0:
495,280,17758,1,2,0:2:0:0:
495,280,18103,5,2,0:2:0:0:
405,326,18275,2,0,L|402:379,1,53.9999983520508,2|0,0:2|0:2,0:0:0:0:
305,300,18620,2,0,L|297:186,1,107.999996704102,2|0,0:2|0:2,0:0:0:0:
287,69,19137,2,0,P|268:97|243:109,1,53.9999983520508,0|0,0:2|0:2,0:0:0:0:
164,115,19482,5,4,0:2:0:0:
164,115,19655,1,0,0:2:0:0:
212,31,19827,1,0,0:2:0:0:
212,31,19999,1,0,0:2:0:0:
101,7,20172,2,0,P|65:14|31:27,1,72,2|0,0:2|0:2,0:0:0:0:
0,116,20517,2,0,P|46:121|79:134,1,72,2|0,0:2|0:2,0:0:0:0:
145,212,20862,6,0,L|151:301,1,72,2|0,0:2|0:2,0:0:0:0:
7,342,21206,2,0,L|11:267,1,72,2|0,0:2|0:2,0:0:0:0:
214,335,21551,2,0,P|172:365|83:335,1,144,2|2,0:2|0:2,0:0:0:0:
63,208,22068,1,2,0:2:0:0:
204,149,22241,6,0,L|275:142,1,72,0|0,0:2|0:2,0:0:0:0:
342,225,22586,1,0,0:2:0:0:
342,225,22758,1,0,0:2:0:0:
281,312,22931,2,0,P|236:330|184:337,1,72,2|0,0:2|0:2,0:0:0:0:
224,233,23275,1,2,0:2:0:0:
373,306,23448,6,0,B|460:312|417:360|507:369,1,144,2|0,0:2|0:2,0:0:0:0:
511,278,23965,1,0,0:2:0:0:
407,167,24137,2,0,P|418:219|419:243,1,72,2|0,0:2|0:2,0:0:0:0:
505,143,24482,2,0,P|508:97|515:63,1,72,2|0,0:2|0:2,0:0:0:0:
419,37,24827,1,2,0:2:0:0:
331,128,24999,6,0,P|290:149|264:154,1,72,0|0,0:2|0:2,0:0:0:0:
270,61,25344,1,0,0:2:0:0:
270,61,25517,1,0,0:2:0:0:
175,114,25689,2,0,L|170:192,1,72,2|0,0:2|0:2,0:0:0:0:
70,104,26034,2,0,L|65:27,1,72,2|0,0:2|0:2,0:0:0:0:
188,129,26379,6,0,L|183:207,1,72,2|0,0:2|0:2,0:0:0:0:
54,94,26724,2,0,L|49:17,1,72,2|0,0:2|0:2,0:0:0:0:
92,183,27068,2,0,B|115:269|60:244|86:330,1,144,2|2,0:2|0:2,0:0:0:0:
178,293,27586,1,2,0:2:0:0:
274,259,27758,6,0,L|270:208,3,45,4|0|0|0,1:3|0:2|0:2|0:2,0:0:0:0:
346,307,28103,2,0,L|343:351,3,45,4|0|0|0,1:3|0:2|0:2|0:2,0:0:0:0:
469,337,28448,6,0,P|504:349|527:350,1,45,4|0,1:3|0:2,0:0:0:0:
467,241,28620,2,0,P|425:249|404:263,1,45,0|0,0:2|0:2,0:0:0:0:
354,159,28793,2,0,L|422:152,3,45,4|0|0|0,1:3|0:2|0:2|0:2,0:0:0:0:
277,78,29137,5,6,1:3:0:0:
265,90,29224,1,0,0:2:0:0:
251,99,29310,1,2,1:2:0:0:
236,107,29396,1,0,0:2:0:0:
219,111,29482,1,4,1:3:0:0:
203,112,29568,1,0,0:2:0:0:
186,110,29655,1,2,1:2:0:0:
170,105,29741,1,0,0:2:0:0:
156,98,29827,6,0,L|152:44,3,45,4|0|2|0,1:3|0:2|1:2|0:2,0:0:0:0:
67,34,30172,5,8,0:2:0:0:
67,62,30259,1,8,0:2:0:0:
68,91,30345,1,8,0:2:0:0:
70,120,30431,1,8,0:2:0:0:
71,146,30517,6,0,P|114:186|162:196,1,99.0000030212403,6|0,1:2|1:2,0:0:0:0:
273,183,30862,1,8,0:2:0:0:
178,279,31034,1,0,0:2:0:0:
336,251,31206,2,0,P|406:263|443:282,1,99.0000030212403,2|0,0:2|1:2,0:0:0:0:
359,355,31551,1,8,0:2:0:0:
242,352,31724,1,2,0:2:0:0:
242,352,31810,1,2,0:2:0:0:
242,352,31896,6,0,P|191:374|138:381,1,99.0000030212403,2|2,1:2|1:2,0:0:0:0:
17,297,32241,1,8,0:2:0:0:
185,180,32413,2,0,L|177:280,1,99.0000030212403,2|0,1:2|0:2,0:0:0:0:
68,115,32758,2,0,L|74:214,1,99.0000030212403,2|8,1:2|0:2,0:0:0:0:
213,245,33103,1,2,1:2:0:0:
308,136,33275,6,0,B|336:63|300:1|300:1|305:32|291:61,1,198.000006042481,4|8,1:2|0:2,0:0:0:0:
221,103,33793,1,0,0:2:0:0:
303,222,33965,1,0,0:2:0:0:
397,111,34137,1,0,1:2:0:0:
313,234,34310,2,0,L|319:339,1,99.0000030212403,8|2,0:2|0:2,0:0:0:0:
500,347,34655,5,2,1:2:0:0:
395,216,34827,1,2,1:2:0:0:
404,369,34999,1,8,0:2:0:0:
493,242,35172,2,0,P|487:182|464:145,1,99.0000030212403,2|0,1:2|0:2,0:0:0:0:
332,145,35517,2,0,L|230:156,1,99.0000030212403,2|8,1:2|0:2,0:0:0:0:
126,116,35862,1,8,0:2:0:0:
126,116,35948,1,8,0:2:0:0:
126,116,36034,6,0,P|138:178|128:222,1,99.0000030212403,2|0,1:2|1:2,0:0:0:0:
44,314,36379,1,8,0:2:0:0:
30,172,36551,1,0,1:2:0:0:
136,300,36724,2,0,P|187:322|240:324,1,99.0000030212403,2|0,0:2|1:2,0:0:0:0:
309,198,37068,2,0,P|253:205|210:224,1,99.0000030212403,8|0,0:2|0:2,0:0:0:0:
384,272,37413,6,0,B|402:216|402:216|395:75,1,198.000006042481,2|8,0:2|0:2,0:0:0:0:
288,1,37931,2,0,L|293:110,1,99.0000030212403,2|0,0:2|0:2,0:0:0:0:
194,202,38275,2,0,L|190:91,2,99.0000030212403,2|8|0,1:2|0:2|1:2,0:0:0:0:
332,351,38793,5,10,0:2:0:0:
285,179,38965,1,0,1:2:0:0:
160,306,39137,1,0,1:2:0:0:
338,257,39310,5,8,0:2:0:0:
108,227,39482,1,0,1:2:0:0:
248,331,39655,1,0,1:2:0:0:
183,161,39827,2,0,P|120:129|72:129,1,99.0000030212403,8|0,0:2|1:2,0:0:0:0:
14,236,40172,6,0,L|20:341,2,99.0000030212403,10|2|0,0:2|1:2|1:2,0:0:0:0:
92,126,40689,2,0,L|88:76,2,49.5000015106202,2|0|0,1:2|1:2|1:2,0:0:0:0:
220,225,41034,1,2,1:2:0:0:
129,222,41206,1,12,0:2:0:0:
210,87,41379,1,0,1:2:0:0:
210,87,41465,1,0,1:2:0:0:
210,87,41551,6,0,P|280:111|321:113,1,99.0000030212403,6|0,1:2|1:2,0:0:0:0:
442,69,41896,1,8,0:2:0:0:
317,0,42068,1,0,0:2:0:0:
399,145,42241,2,0,P|413:198|416:251,1,99.0000030212403,2|0,0:2|1:2,0:0:0:0:
294,289,42586,2,0,P|298:234|310:176,1,99.0000030212403,8|2,0:2|0:2,0:0:0:0:
378,319,42931,5,2,1:2:0:0:
378,319,43103,1,2,1:2:0:0:
306,190,43275,1,8,0:2:0:0:
254,366,43448,2,0,L|145:374,1,99.0000030212403,2|0,1:2|0:2,0:0:0:0:
108,246,43793,2,0,B|231:224|173:297|300:288,1,198.000006042481,2|0,1:2|0:2,0:0:0:0:
397,148,44310,5,6,1:2:0:0:
194,144,44482,1,0,1:2:0:0:
385,249,44655,1,8,0:2:0:0:
348,56,44827,1,0,0:2:0:0:
215,228,44999,2,0,P|268:222|310:197,1,99.0000030212403,0|0,0:2|1:2,0:0:0:0:
198,59,45344,2,0,P|137:68|73:107,1,99.0000030212403,8|0,0:2|0:2,0:0:0:0:
0,190,45689,5,0,1:2:0:0:
0,190,45862,1,0,1:2:0:0:
132,166,46034,2,0,L|126:269,1,99.0000030212403,8|0,0:2|0:2,0:0:0:0:
32,368,46379,2,0,P|12:321|5:271,1,99.0000030212403,2|0,0:2|1:2,0:0:0:0:
235,275,46724,2,0,P|225:352|205:395,1,99.0000030212403,10|0,0:2|1:2,0:0:0:0:
88,206,47068,5,6,1:2:0:0:
127,83,47413,5,0,1:2:0:0:
241,24,47758,5,0,1:2:0:0:
364,63,48103,5,0,1:2:0:0:
423,177,48448,5,0,1:2:0:0:
384,300,48793,5,0,1:2:0:0:
270,359,49137,5,0,1:2:0:0:
147,320,49482,5,0,1:2:0:0:
88,206,49827,6,0,P|144:179|186:174,1,72,8|8,1:2|0:2,0:0:0:0:
226,239,50172,2,0,P|274:253|310:258,1,72,8|8,1:2|0:2,0:0:0:0:
465,226,50517,6,0,L|471:132,1,90,8|8,1:2|0:2,0:0:0:0:
352,19,50862,2,0,L|359:121,1,90,8|8,1:2|0:2,0:0:0:0:
382,248,51206,5,8,1:2:0:0:
473,109,51379,1,8,0:2:0:0:
260,124,51551,5,8,1:2:0:0:
432,177,51724,1,8,0:2:0:0:
203,244,51896,5,8,1:2:0:0:
348,149,52068,1,8,0:2:0:0:
212,51,52241,5,8,1:2:0:0:
284,211,52413,1,8,0:2:0:0:
366,46,52586,6,0,P|322:76|267:93,1,99.0000030212403,14|0,0:2|1:2,0:0:0:0:
114,89,52931,1,2,1:2:0:0:
264,189,53103,2,0,P|201:201|151:187,1,99.0000030212403,10|2,0:2|1:2,0:0:0:0:
18,127,53448,1,2,1:2:0:0:
124,303,53620,2,0,P|79:267|60:221,1,99.0000030212403,10|0,0:2|1:2,0:0:0:0:
264,189,53965,6,0,L|270:288,1,99.0000030212403,10|2,0:2|1:2,0:0:0:0:
358,374,54310,1,0,1:2:0:0:
488,137,54482,2,0,L|479:259,1,99.0000030212403,10|0,0:2|1:2,0:0:0:0:
374,288,54827,1,0,1:2:0:0:
373,73,54999,2,0,L|380:186,1,99.0000030212403,10|0,0:2|1:2,0:0:0:0:
468,308,55344,6,0,P|418:288|364:289,1,99.0000030212403,10|0,0:2|1:2,0:0:0:0:
204,344,55689,1,2,1:2:0:0:
358,374,55862,1,10,0:2:0:0:
252,187,56034,1,2,1:2:0:0:
287,320,56206,1,2,1:2:0:0:
358,201,56379,2,0,P|377:154|372:97,1,99.0000030212403,10|0,0:2|1:2,0:0:0:0:
179,8,56724,6,0,B|180:64|180:64|198:111,2,99.0000030212403,10|2|0,0:2|1:2|1:2,0:0:0:0:
272,47,57241,1,10,0:2:0:0:
252,187,57413,1,0,1:2:0:0:
252,187,57586,1,0,1:2:0:0:
110,120,57758,1,0,1:2:0:0:
110,120,57931,1,0,1:2:0:0:
13,251,58103,6,0,P|69:234|119:232,1,99.0000030212403,10|0,0:2|1:2,0:0:0:0:
263,296,58448,1,2,1:2:0:0:
110,120,58620,2,0,P|170:139|204:173,1,99.0000030212403,10|2,0:2|1:2,0:0:0:0:
263,296,58965,1,2,1:2:0:0:
275,74,59137,2,0,P|305:116|316:173,1,99.0000030212403,10|0,0:2|1:2,0:0:0:0:
263,296,59482,6,0,B|215:315|215:315|150:316,2,99.0000030212403,10|2|0,0:2|1:2|1:2,0:0:0:0:
373,204,59999,2,0,P|429:210|478:238,1,99.0000030212403,10|0,0:2|1:2,0:0:0:0:
512,359,60344,1,0,1:2:0:0:
326,259,60517,2,0,L|313:139,1,99.0000030212403,10|0,0:2|1:2,0:0:0:0:
458,24,60862,5,10,0:2:0:0:
458,24,61034,2,0,P|417:44|349:53,1,99.0000030212403,0|2,1:2|1:2,0:0:0:0:
288,140,61379,1,10,0:2:0:0:
288,140,61551,2,0,P|233:119|171:120,1,99.0000030212403,2|2,1:2|1:2,0:0:0:0:
25,134,61896,1,10,0:2:0:0:
135,190,62068,1,0,1:2:0:0:
106,3,62241,6,0,L|112:113,1,99.0000030212403,10|2,0:2|1:2,0:0:0:0:
33,234,62586,1,0,1:2:0:0:
252,261,62758,5,10,0:2:0:0:
53,213,62931,1,8,0:2:0:0:
213,348,63103,1,8,0:2:0:0:
150,164,63275,1,8,0:2:0:0:
90,360,63448,1,8,0:2:0:0:
160,246,63620,6,0,P|171:214|174:182,1,62.9999980773926,0|0,0:2|1:2,0:0:0:0:
243,79,63965,2,0,P|247:122|260:157,1,62.9999980773926,0|0,0:2|1:2,0:0:0:0:
338,210,64310,2,0,L|406:202,1,62.9999980773926,8|0,0:2|1:2,0:0:0:0:
483,132,64655,1,0,0:2:0:0:
483,132,64827,1,0,0:2:0:0:
512,249,64999,6,0,P|518:288|510:322,1,62.9999980773926,0|0,1:2|0:2,0:0:0:0:
424,382,65344,2,0,L|341:376,1,62.9999980773926,0|0,0:2|1:2,0:0:0:0:
389,284,65689,1,8,0:2:0:0:
389,284,66379,5,0,0:2:0:0:
389,284,66551,2,0,P|334:298|306:298,1,62.9999980773926,0|0,1:2|0:2,0:0:0:0:
258,231,66896,1,0,1:2:0:0:
199,321,67068,2,0,L|206:397,1,62.9999980773926,8|0,0:2|1:2,0:0:0:0:
99,347,67413,1,0,0:2:0:0:
99,347,67586,1,0,0:2:0:0:
120,254,67758,6,0,P|150:231|181:223,1,62.9999980773926,0|0,1:2|0:2,0:0:0:0:
257,137,68103,2,0,P|222:129|198:114,1,62.9999980773926,0|0,0:2|1:2,0:0:0:0:
134,18,68448,1,8,0:2:0:0:
244,38,68620,1,0,1:2:0:0:
70,110,68793,1,4,0:2:0:0:
70,110,69137,6,0,P|80:151|81:187,1,62.9999980773926,2|0,0:2|1:2,0:0:0:0:
1,247,69482,2,0,P|-6:288|-6:320,1,62.9999980773926,0|2,0:2|1:2,0:0:0:0:
109,272,69827,2,0,L|191:265,1,62.9999980773926,8|2,0:2|1:2,0:0:0:0:
239,186,70172,1,2,0:2:0:0:
239,186,70344,1,2,0:2:0:0:
299,267,70517,6,0,P|312:308|315:347,1,62.9999980773926,0|0,1:2|0:2,0:0:0:0:
401,223,70862,2,0,P|408:187|419:157,1,62.9999980773926,0|0,0:2|1:2,0:0:0:0:
499,250,71206,1,8,0:2:0:0:
405,306,71379,1,0,1:2:0:0:
319,187,71551,2,0,L|313:113,1,62.9999980773926,8|0,0:2|1:2,0:0:0:0:
256,192,71896,12,0,72931,1:2:0:0:
256,192,81551,12,0,83965,0:2:0:0:
147,103,84310,6,0,P|166:133|172:174,2,62.9999980773926,2|2|0,0:2|0:2|0:2,0:0:0:0:
253,148,84827,2,0,P|251:183|232:220,2,62.9999980773926,2|2|0,0:2|0:2|0:2,0:0:0:0:
314,245,85344,2,0,P|292:273|255:292,2,62.9999980773926,2|2|0,0:2|0:2|0:2,0:0:0:0:
351,345,85862,1,2,0:2:0:0:
233,360,86034,2,0,P|191:317|185:288,1,62.9999980773926,2|0,0:2|0:2,0:0:0:0:
153,230,86379,2,0,L|147:300,1,62.9999980773926,2|0,0:2|0:2,0:0:0:0:
69,384,86724,2,0,L|63:314,1,62.9999980773926,2|0,0:2|0:2,0:0:0:0:
55,217,87068,5,0,0:2:0:0:
55,217,87413,2,0,P|72:186|77:155,1,62.9999980773926,2|2,0:2|0:2,0:0:0:0:
47,95,87758,2,0,P|83:107|114:103,1,62.9999980773926,2|0,0:2|0:2,0:0:0:0:
169,35,88103,1,2,0:2:0:0:
169,35,88275,2,0,L|247:28,1,62.9999980773926,2|0,0:2|0:2,0:0:0:0:
330,110,88620,2,0,L|258:103,1,62.9999980773926,2|0,0:2|0:2,0:0:0:0:
172,188,88965,2,0,L|250:181,1,62.9999980773926,2|0,0:2|0:0,0:0:0:0:
336,209,89310,2,0,L|339:236,4,15.7499995193482,0|0|0|0|0,0:2|0:2|0:2|0:2|0:2,0:0:0:0:
426,350,89827,6,0,P|393:378|367:383,2,62.9999980773926,2|2|0,0:2|0:2|0:2,0:0:0:0:
365,302,90344,2,0,P|321:306|297:295,2,62.9999980773926,2|2|0,0:2|0:2|0:2,0:0:0:0:
342,227,90862,2,0,P|304:205|290:182,2,62.9999980773926,2|2|0,0:2|0:2|0:2,0:0:0:0:
369,149,91379,2,0,P|359:114|366:83,1,62.9999980773926,2|0,0:2|0:2,0:0:0:0:
482,64,91724,2,0,P|463:98|429:116,1,62.9999980773926,2|0,0:2|0:2,0:0:0:0:
279,46,92068,2,0,B|313:33|313:33|406:37,1,125.999996154785,2|0,0:2|0:2,0:0:0:0:
492,198,92586,6,0,L|434:202,3,40.4999987640381,2|0|0|0,1:3|0:2|0:2|0:2,0:0:0:0:
412,293,92931,2,0,L|349:288,3,40.4999987640381,0|0|0|0,1:3|0:2|0:2|0:2,0:0:0:0:
330,190,93275,6,0,P|303:180|275:181,1,40.4999987640381,0|0,1:3|0:2,0:0:0:0:
234,286,93448,2,0,P|267:280|284:271,1,40.4999987640381,0|0,0:2|0:2,0:0:0:0:
197,142,93620,2,0,L|192:190,3,40.4999987640381,0|0|0|0,1:3|0:2|0:2|0:2,0:0:0:0:
89,277,93965,5,2,1:3:0:0:
77,265,94051,1,0,0:2:0:0:
68,251,94137,1,2,1:2:0:0:
60,236,94224,1,0,0:2:0:0:
56,219,94310,1,0,1:3:0:0:
55,203,94396,1,0,0:2:0:0:
57,186,94482,1,2,1:2:0:0:
62,170,94568,1,0,0:2:0:0:
69,156,94655,6,0,L|72:103,3,40.4999987640381,0|0|2|0,1:3|0:2|1:2|0:2,0:0:0:0:
173,40,94999,5,8,0:2:0:0:
172,72,95086,1,8,0:2:0:0:
171,104,95172,1,8,0:2:0:0:
169,136,95258,1,8,0:2:0:0:
167,168,95344,5,6,0:2:0:0:
185,183,98103,5,4,0:2:0:0:
203,198,100862,6,0,P|183:222|143:239,2,53.9999983520508,0|0|0,0:2|0:2|0:2,0:0:0:0:
289,150,101379,2,0,B|312:181|294:217|294:217|307:233|307:233|273:296|308:352,1,215.999993408203,0|0,0:2|0:2,0:0:0:0:
256,192,103620,12,0,104999,0:2:0:0:
415,228,106379,6,0,P|362:248|301:252,1,99.0000030212403,2|0,1:2|1:2,0:0:0:0:
203,181,106724,1,8,0:2:0:0:
346,148,106896,1,0,1:2:0:0:
193,272,107068,2,0,P|134:246|109:201,1,99.0000030212403,2|0,1:2|1:2,0:0:0:0:
262,107,107413,2,0,P|235:160|200:182,1,99.0000030212403,8|2,0:2|1:2,0:0:0:0:
66,111,107758,5,2,1:2:0:0:
66,111,107931,1,2,1:2:0:0:
196,13,108103,1,8,0:2:0:0:
123,187,108275,2,0,P|60:208|3:189,1,99.0000030212403,2|0,1:2|0:2,0:0:0:0:
172,97,108620,2,0,B|287:85|245:172|352:166,1,198.000006042481,2|0,1:2|1:2,0:0:0:0:
505,101,109137,5,6,1:2:0:0:
298,27,109310,1,0,1:2:0:0:
436,199,109482,1,8,0:2:0:0:
486,1,109655,1,0,1:2:0:0:
347,166,109827,2,0,L|355:271,1,99.0000030212403,0|0,1:2|1:2,0:0:0:0:
504,337,110172,2,0,L|513:236,1,99.0000030212403,8|0,0:2|1:2,0:0:0:0:
419,115,110517,5,0,1:2:0:0:
419,115,110689,1,0,1:2:0:0:
316,234,110862,2,0,P|265:255|218:262,1,99.0000030212403,8|0,0:2|1:2,0:0:0:0:
74,171,111206,2,0,L|66:73,1,99.0000030212403,2|0,0:2|1:2,0:0:0:0:
229,163,111551,2,0,L|221:267,1,99.0000030212403,10|0,0:2|1:2,0:0:0:0:
48,371,111896,5,8,0:2:0:0:
148,214,112068,1,0,1:2:0:0:
2,297,112241,5,8,0:2:0:0:
213,357,112413,1,0,1:2:0:0:
59,181,112586,6,0,P|67:243|85:278,1,99.0000030212403,8|0,0:2|1:2,0:0:0:0:
251,251,112931,5,8,0:2:0:0:
212,98,113103,1,0,1:2:0:0:
212,98,113189,1,0,0:0:0:0:
212,98,113275,6,0,P|157:116|112:121,1,99.0000030212403,8|0,0:2|1:2,0:0:0:0:
187,0,113620,5,8,0:2:0:0:
340,105,113793,1,0,1:2:0:0:
181,195,113965,5,8,0:2:0:0:
274,37,114137,1,0,1:2:0:0:
374,215,114310,6,0,P|339:249|275:273,1,99.0000030212403,8|0,0:2|1:2,0:0:0:0:
274,174,114655,5,8,0:2:0:0:
424,299,114827,1,0,1:2:0:0:
293,269,114999,1,0,1:2:0:0:
491,186,115172,5,8,0:2:0:0:
346,338,115344,1,0,1:2:0:0:
507,279,115517,1,0,1:2:0:0:
346,121,115689,6,0,P|358:184|379:223,1,99.0000030212403,8|0,0:2|1:2,0:0:0:0:
478,107,116034,5,8,0:2:0:0:
271,31,116206,1,0,1:2:0:0:
415,2,116379,1,0,1:2:0:0:
244,178,116551,5,8,0:2:0:0:
144,9,116724,1,8,0:2:0:0:
365,84,116896,1,8,0:2:0:0:
121,140,117068,1,8,0:2:0:0:
363,213,117241,1,8,0:2:0:0:
235,27,117413,6,0,B|210:75|210:75|220:232,1,198.000006042481,14|2,0:2|1:2,0:0:0:0:
329,315,117931,2,0,P|373:340|428:349,1,99.0000030212403,10|2,0:2|1:2,0:0:0:0:
377,203,118275,1,2,1:2:0:0:
242,294,118448,2,0,P|217:338|207:391,1,99.0000030212403,10|0,0:2|1:2,0:0:0:0:
63,361,118793,6,0,P|103:307|16:235,1,198.000006042481,10|0,0:2|1:2,0:0:0:0:
42,146,119310,2,0,B|170:132|104:228|245:219,1,198.000006042481,10|0,0:2|1:2,0:0:0:0:
345,152,119827,2,0,L|358:47,1,99.0000030212403,10|0,0:2|1:2,0:0:0:0:
186,24,120172,6,0,P|206:93|214:225,1,198.000006042481,10|2,0:2|1:2,0:0:0:0:
182,347,120689,2,0,P|241:332|300:329,1,99.0000030212403,10|2,0:2|1:2,0:0:0:0:
432,360,121034,1,2,1:2:0:0:
402,221,121206,2,0,P|348:238|277:243,1,99.0000030212403,10|0,0:2|1:2,0:0:0:0:
100,128,121551,6,0,B|163:153|163:153|308:146,1,198.000006042481,10|0,0:2|1:2,0:0:0:0:
420,56,122068,1,10,0:2:0:0:
238,25,122241,1,0,0:2:0:0:
393,136,122413,2,0,P|445:150|491:152,1,99.0000030212403,0|0,0:2|1:2,0:0:0:0:
511,15,122758,1,0,0:2:0:0:
324,71,122931,6,0,P|296:132|376:229,1,198.000006042481,10|2,0:2|1:2,0:0:0:0:
506,310,123448,2,0,L|399:317,1,99.0000030212403,10|2,0:2|1:2,0:0:0:0:
247,272,123793,1,2,1:2:0:0:
393,136,123965,2,0,P|437:169|456:228,1,99.0000030212403,10|0,0:2|1:2,0:0:0:0:
269,192,124310,6,0,B|255:138|255:138|302:69|266:2,1,198.000006042481,10|0,0:2|1:2,0:0:0:0:
106,72,124827,2,0,P|155:108|173:13,1,198.000006042481,10|0,0:2|1:2,0:0:0:0:
11,66,125344,2,0,L|19:178,1,99.0000030212403,10|0,0:2|1:2,0:0:0:0:
71,292,125689,6,0,B|140:300|140:300|184:320|184:320|272:330,1,180,10|2,0:2|1:2,0:0:0:0:
219,236,126206,2,0,B|288:244|288:244|332:264|332:264|420:274,1,180,10|2,0:2|1:2,0:0:0:0:
384,183,126724,2,0,L|500:197,1,90,10|0,0:2|1:2,0:0:0:0:
504,347,127068,6,0,B|450:360|450:360|322:345,1,180,10|0,0:2|1:2,0:0:0:0:
219,236,127586,1,10,0:2:0:0:
393,271,127758,1,0,1:2:0:0:
161,305,127931,1,8,0:2:0:0:
292,161,128103,1,8,0:2:0:0:
296,296,128275,1,0,1:2:0:0:
143,220,128448,6,0,P|101:199|82:174,2,62.9999980773926,10|0|2,0:2|1:2|1:2,0:0:0:0:
161,135,128965,2,0,P|138:93|137:62,2,62.9999980773926,14|2|2,0:2|1:2|1:2,0:0:0:0:
224,75,129482,2,0,P|229:28|246:1,1,62.9999980773926,10|0,0:2|1:2,0:0:0:0:
310,62,129741,1,0,1:2:0:0:
310,62,129827,6,0,P|366:86|396:88,2,62.9999980773926,14|2|0,0:2|1:2|1:2,0:0:0:0:
417,161,130344,2,0,P|461:141|488:138,2,62.9999980773926,10|0|0,0:2|1:2|1:2,0:0:0:0:
415,248,130862,2,0,L|339:261,1,62.9999980773926,14|0,0:2|1:2,0:0:0:0:
252,208,131206,5,6,0:2:0:0:
