osu file format v14

[General]
AudioFilename: audio.mp3
AudioLeadIn: 0
PreviewTime: 29048
Countdown: 0
SampleSet: Normal
StackLeniency: 0.7
Mode: 0
LetterboxInBreaks: 0
WidescreenStoryboard: 1

[Editor]
DistanceSpacing: 1.2
BeatDivisor: 4
GridSize: 8
TimelineZoom: 1.7

[Metadata]
Title:Start Again
TitleUnicode:Start Again
Artist:ONE OK ROCK
ArtistUnicode:ONE OK ROCK
Creator:A r M i N
Version:Sotarks' Repetition
Source:
Tags:Fueled by Ramen OOR Ambitions A-Sketch Sotarks Armin A_r_M_i_N MiracleE Onlybiscuit Nikakis
BeatmapID:2164997
BeatmapSetID:1035167

[Difficulty]
HPDrainRate:6.2
CircleSize:4
OverallDifficulty:9.2
ApproachRate:9.4
SliderMultiplier:1.82
SliderTickRate:1

[Events]
//Background and Video events
0,0,"BG 2.jpg",0,0
//Break Periods
//Storyboard Layer 0 (Background)
//Storyboard Layer 1 (Fail)
//Storyboard Layer 2 (Pass)
//Storyboard Layer 3 (Foreground)
//Storyboard Layer 4 (Overlay)
//Storyboard Sound Samples

[TimingPoints]
8445,344.827586206897,4,2,22,52,1,0
8445,-161.290322580645,4,2,22,52,0,0
19479,-121.951219512195,4,2,22,62,0,0
29824,-108.695652173913,4,2,22,72,0,0
30513,-98.0392156862744,4,1,22,82,0,0
47065,-98.0392156862744,4,1,22,92,0,0
51893,-98.0392156862744,4,2,22,52,0,0
52582,-89.2857142857143,4,1,22,82,0,0
63617,-108.695652173913,4,2,22,72,0,0
85686,-98.0392156862745,4,1,22,82,0,0
102238,-98.0392156862745,4,1,22,92,0,0
107755,-89.2857142857143,4,1,22,72,0,0
118789,-108.695652173913,4,1,22,72,0,0

[Colours]
Combo1 : 244,241,187
Combo2 : 99,97,137
Combo3 : 111,85,77
Combo4 : 218,165,129

[HitObjects]
397,178,8445,6,0,P|391:216|389:256,1,56.4199977616578,2|0,0:0|0:0,0:0:0:0:
285,162,8789,2,0,P|291:200|293:240,1,56.4199977616578,2|0,0:0|0:0,0:0:0:0:
193,191,9134,2,0,P|190:263|182:324,1,112.839995523316,2|0,0:0|0:0,0:0:0:0:
113,241,9651,1,2,0:0:0:0:
113,241,9824,2,0,P|75:228|41:231,1,56.4199977616578,2|0,0:0|0:0,0:0:0:0:
82,132,10169,2,0,P|120:119|154:122,1,56.4199977616578,2|0,0:0|0:0,0:0:0:0:
193,191,10513,2,0,P|253:224|314:210,1,112.839995523316,2|0,0:0|0:0,0:0:0:0:
367,161,11031,1,2,0:0:0:0:
367,161,11203,6,0,P|377:208|380:236,1,56.4199977616578,2|0,0:0|0:0,0:0:0:0:
484,197,11548,2,0,P|474:244|471:272,1,56.4199977616578,2|0,0:0|0:0,0:0:0:0:
437,107,11893,2,0,P|377:74|316:88,1,112.839995523316,2|0,0:0|0:0,0:0:0:0:
261,141,12410,1,2,0:0:0:0:
261,141,12582,2,0,P|231:157|193:159,1,56.4199977616578,2|0,0:0|0:0,0:0:0:0:
126,98,12927,1,2,0:0:0:0:
126,98,13100,2,0,P|116:137|115:157,1,56.4199977616578,2|0,0:0|0:0,0:0:0:0:
38,186,13445,2,0,P|58:220|71:235,1,56.4199977616578,2|0,0:0|0:0,0:0:0:0:
156,228,13789,1,2,0:0:0:0:
156,228,13962,6,0,B|225:232|192:263|277:263,1,112.839995523316
326,201,14479,1,2,0:0:0:0:
326,201,14651,2,0,P|278:179|259:178,1,56.4199977616578,2|0,0:0|0:0,0:0:0:0:
409,198,14996,2,0,P|390:148|377:134,1,56.4199977616578,2|0,0:0|0:0,0:0:0:0:
368,263,15341,2,0,P|361:332|360:384,1,112.839995523316,2|0,0:0|0:0,0:0:0:0:
290,306,15858,2,0,P|242:292|221:292,1,56.4199977616578,2|0,0:0|0:0,0:0:0:0:
163,344,16203,2,0,P|115:358|94:358,1,56.4199977616578,2|0,0:0|0:0,0:0:0:0:
32,301,16548,1,2,0:0:0:0:
32,301,16720,6,0,P|19:254|23:223,1,56.4199977616578,2|0,0:0|0:0,0:0:0:0:
75,123,17065,1,2,0:0:0:0:
158,142,17238,1,2,0:0:0:0:
137,230,17410,1,2,0:0:0:0:
54,211,17582,1,2,0:0:0:0:
102,147,17755,2,0,P|148:141|177:145,1,56.4199977616578,2|0,0:0|0:0,0:0:0:0:
224,251,18100,1,2,0:0:0:0:
224,251,18272,2,0,P|252:251|279:245,1,56.4199977616578,2|0,0:0|0:0,0:0:0:0:
311,156,18617,2,0,P|365:200|372:266,1,112.839995523316,2|0,0:0|0:0,0:0:0:0:
361,336,19134,1,2,0:0:0:0:
361,336,19479,6,0,P|401:353|442:352,1,74.6200011386109,6|0,1:2|0:2,0:2:0:0:
294,233,19824,2,0,P|256:235|223:250,1,74.6200011386109,2|0,3:2|0:2,0:2:0:0:
117,348,20169,2,0,P|92:299|94:261,1,74.6200011386109,2|0,3:2|0:2,0:2:0:0:
169,157,20513,2,0,P|163:120|142:89,1,74.6200011386109,2|0,3:2|0:2,0:2:0:0:
32,211,20858,2,0,P|88:248|169:237,1,149.240002277222,2|0,3:2|3:2,0:2:0:0:
252,155,21376,1,2,0:2:0:0:
252,155,21548,2,0,P|272:186|278:222,1,74.6200011386109,2|0,3:2|0:2,0:2:0:0:
224,351,21893,1,2,3:2:0:0:
371,287,22065,1,2,0:2:0:0:
203,303,22238,6,0,P|255:320|285:324,1,74.6200011386109,2|0,3:2|0:2,0:2:0:0:
318,216,22582,2,0,P|370:199|400:195,1,74.6200011386109,2|0,3:2|0:2,0:2:0:0:
469,79,22927,2,0,P|414:108|315:80,1,149.240002277222,2|0,3:2|3:2,0:2:0:0:
263,21,23445,1,2,0:2:0:0:
263,21,23617,2,0,P|251:90|250:170,1,149.240002277222,2|0,3:2|3:2,0:2:0:0:
179,58,24134,2,0,P|134:40|103:42,1,74.6200011386109,2|0,0:2|3:2,0:2:0:0:
114,146,24479,2,0,P|69:165|48:188,1,74.6200011386109,2|0,0:2|3:2,0:2:0:0:
134,257,24824,1,2,0:2:0:0:
249,169,24996,6,0,P|298:156|333:157,1,74.6200011386109,2|0,3:2|0:2,0:2:0:0:
361,304,25341,2,0,P|323:301|288:290,1,74.6200011386109,2|0,3:2|0:2,0:2:0:0:
151,212,25686,2,0,P|113:214|78:225,1,74.6200011386109,2|0,3:2|0:2,0:2:0:0:
39,347,26031,2,0,P|74:358|111:360,1,74.6200011386109,2|0,3:2|0:2,0:2:0:0:
245,263,26376,1,2,3:2:0:0:
213,352,26548,1,2,0:3:0:0:
178,199,26720,1,2,3:2:0:0:
228,306,26893,1,2,0:3:0:0:
275,158,27065,1,2,3:2:0:0:
164,254,27238,1,2,0:3:0:0:
193,85,27410,1,2,3:2:0:0:
310,195,27582,1,2,0:3:0:0:
334,18,27755,6,0,L|381:10,3,37.3100005693054,4|0|0|0,1:3|0:0|0:0|0:0,0:0:0:0:
275,158,28100,2,0,L|222:151,3,37.3100005693054,4|0|0|0,1:3|0:0|0:0|0:0,0:0:0:0:
92,47,28445,2,0,L|139:39,3,37.3100005693054,4|0|0|0,1:3|0:0|0:0|0:0,0:0:0:0:
53,248,28789,2,0,L|0:241,3,37.3100005693054,4|0|0|0,1:3|0:0|0:0|0:0,0:0:0:0:
151,132,29134,5,4,1:3:0:0:
151,132,29220,1,0,1:0:0:0:
151,132,29307,2,0,L|187:127,1,37.3100005693054,4|0,1:3|1:0,1:0:0:0:
242,282,29479,1,4,1:3:0:0:
242,282,29565,1,0,1:0:0:0:
242,282,29651,2,0,L|278:286,1,37.3100005693054,4|0,1:3|1:0,1:0:0:0:
341,145,29824,1,4,1:3:0:0:
348,116,29910,1,0,1:0:0:0:
355,88,29996,1,0,1:0:0:0:
362,59,30082,1,0,1:0:0:0:
369,31,30169,2,0,L|377:99,1,41.8599985947876,8|8,1:2|1:2,1:2:0:0:
367,267,30341,2,0,L|371:225,1,41.8599985947876,8|8,1:2|1:2,1:2:0:0:
279,49,30513,5,6,0:2:0:0:
342,292,30686,1,0,0:2:0:0:
258,137,30858,2,0,B|146:136|198:205|70:199,1,185.640001133057,8|2,0:2|0:2,0:2:0:0:
185,60,31376,1,0,0:2:0:0:
257,272,31548,1,8,0:2:0:0:
359,137,31720,1,2,0:2:0:0:
359,137,31807,1,2,0:2:0:0:
359,137,31893,1,2,0:2:0:0:
178,255,32065,1,2,0:2:0:0:
382,349,32238,1,8,0:2:0:0:
295,182,32410,2,0,P|237:161|190:174,1,92.8200005665283,2|0,0:2|0:2,0:2:0:0:
192,366,32755,1,2,0:2:0:0:
362,232,32927,1,8,0:2:0:0:
101,307,33100,1,2,0:2:0:0:
427,279,33272,6,0,P|445:203|351:116,2,185.640001133057,4|8|0,0:2|0:2|0:2,0:2:0:0:
474,78,34134,1,0,0:2:0:0:
362,232,34307,1,8,0:2:0:0:
291,44,34479,1,2,0:2:0:0:
291,44,34565,1,2,0:2:0:0:
291,44,34651,1,2,0:2:0:0:
464,159,34824,1,2,0:2:0:0:
223,233,34996,1,8,0:2:0:0:
379,80,35169,2,0,P|385:144|392:193,1,92.8200005665283,2|0,0:2|0:2,0:2:0:0:
303,335,35513,1,2,0:2:0:0:
224,96,35686,1,8,0:2:0:0:
133,355,35858,1,8,0:2:0:0:
133,355,35945,1,8,0:2:0:0:
133,355,36031,6,0,P|67:350|35:320,1,92.8200005665283,6|0,0:2|0:2,0:2:0:0:
137,155,36376,1,8,0:2:0:0:
303,335,36548,1,0,0:2:0:0:
224,96,36720,2,0,P|216:171|215:215,1,92.8200005665283,2|0,0:2|0:2,0:2:0:0:
366,260,37065,2,0,P|363:213|357:167,1,92.8200005665283,8|0,0:2|0:2,0:2:0:0:
90,256,37410,1,2,0:2:0:0:
314,157,37582,1,0,0:2:0:0:
77,67,37755,1,10,0:2:0:0:
167,316,37927,1,2,0:2:0:0:
276,86,38100,1,0,0:2:0:0:
27,202,38272,1,2,0:2:0:0:
355,222,38445,1,8,0:2:0:0:
68,362,38617,1,0,0:2:0:0:
276,86,38789,5,14,0:2:0:0:
329,358,38962,1,0,0:2:0:0:
382,126,39134,1,0,0:2:0:0:
167,316,39307,5,12,0:2:0:0:
478,158,39479,1,0,0:2:0:0:
208,231,39651,1,0,0:2:0:0:
435,357,39824,5,12,0:2:0:0:
366,51,39996,1,0,0:2:0:0:
240,380,40169,5,14,0:2:0:0:
171,74,40341,1,2,0:2:0:0:
294,292,40513,1,0,0:2:0:0:
361,86,40686,2,0,L|414:68,2,46.4100002832642,10|8|8,0:2|0:2|0:2,0:2:0:0:
141,180,41031,1,2,0:2:0:0:
417,283,41203,1,8,0:2:0:0:
94,341,41376,1,8,0:2:0:0:
94,341,41462,1,8,0:2:0:0:
94,341,41548,6,0,P|79:271|101:222,1,92.8200005665283,6|0,0:2|0:2,0:2:0:0:
334,113,41893,2,0,P|334:216|247:254,1,185.640001133057,8|2,0:2|0:2,0:2:0:0:
201,75,42410,1,0,0:2:0:0:
424,189,42582,1,8,0:2:0:0:
170,157,42755,1,2,0:2:0:0:
429,64,42927,1,2,0:2:0:0:
270,254,43100,1,2,0:2:0:0:
364,16,43272,1,8,0:2:0:0:
330,318,43445,2,0,P|268:344|234:337,1,92.8200005665283,2|0,0:2|0:2,0:2:0:0:
201,75,43789,1,2,0:2:0:0:
409,254,43962,2,0,P|429:330|416:369,1,92.8200005665283,8|0,0:2|0:2,0:2:0:0:
128,228,44307,5,6,0:2:0:0:
465,125,44479,1,0,0:2:0:0:
143,306,44651,2,0,P|62:271|69:154,1,185.640001133057,8|0,0:2|0:2,0:2:0:0:
213,34,45169,1,0,0:2:0:0:
225,316,45341,2,0,P|196:373|159:387,1,92.8200005665283,8|0,0:2|0:2,0:2:0:0:
147,88,45686,1,0,0:2:0:0:
368,229,45858,1,0,0:2:0:0:
213,34,46031,2,0,P|93:53|14:88,1,185.640001133057,8|2,0:2|0:2,0:2:0:0:
225,316,46548,1,2,0:2:0:0:
316,64,46720,1,10,0:2:0:0:
136,184,46893,1,0,0:2:0:0:
441,187,47065,5,0,0:0:0:0:
42,113,47410,1,0,0:0:0:0:
441,187,47755,1,0,0:0:0:0:
42,113,48100,1,0,0:0:0:0:
374,275,48445,5,0,0:0:0:0:
78,326,48789,1,0,0:0:0:0:
374,275,49134,1,0,0:0:0:0:
78,326,49478,1,0,0:0:0:0:
256,192,49824,12,0,51893,0:0:0:0:
422,81,52582,6,0,P|444:119|435:203,1,101.920001244141,14|0,0:2|0:2,0:2:0:0:
261,350,52927,1,0,0:2:0:0:
157,74,53099,2,0,P|207:19|255:14,1,101.920001244141,8|0,0:2|0:2,0:2:0:0:
334,267,53444,1,0,0:2:0:0:
47,133,53616,1,8,0:2:0:0:
166,306,53789,1,0,0:2:0:0:
244,93,53961,2,0,L|350:117,1,101.920001244141,12|0,0:2|0:2,0:2:0:0:
232,369,54306,1,0,0:2:0:0:
304,167,54478,2,0,L|404:145,1,101.920001244141,8|0,0:2|0:2,0:2:0:0:
360,360,54823,1,0,0:2:0:0:
190,193,54995,1,8,0:2:0:0:
402,56,55168,1,0,0:2:0:0:
201,310,55340,6,0,P|136:300|97:257,1,101.920001244141,14|0,0:2|0:2,0:2:0:0:
208,45,55685,1,0,0:2:0:0:
321,280,55858,1,8,0:2:0:0:
103,119,56030,1,0,0:2:0:0:
373,193,56202,1,0,0:2:0:0:
57,201,56375,2,0,P|19:148|21:90,1,101.920001244141,8|0,0:2|0:2,0:2:0:0:
321,280,56720,2,0,L|303:398,1,101.920001244141,12|0,0:2|0:2,0:2:0:0:
228,83,57064,1,0,0:2:0:0:
362,218,57237,2,0,L|378:319,1,101.920001244141,8|0,0:2|0:2,0:2:0:0:
177,177,57582,1,8,0:3:0:0:
403,86,57754,1,4,0:3:0:0:
250,228,57927,1,4,0:3:0:0:
271,10,58099,6,0,P|298:86|292:125,1,101.920001244141,14|0,0:2|0:2,0:2:0:0:
191,321,58444,1,0,0:2:0:0:
211,79,58616,1,8,0:2:0:0:
317,280,58789,1,0,0:2:0:0:
154,159,58961,1,0,0:2:0:0:
306,362,59134,2,0,P|379:341|399:306,1,101.920001244141,8|0,0:2|0:2,0:2:0:0:
297,106,59478,2,0,L|282:227,1,101.920001244141,14|0,0:2|0:2,0:2:0:0:
468,127,59823,1,0,0:2:0:0:
244,171,59996,2,0,L|257:275,1,101.920001244141,8|0,0:2|0:2,0:2:0:0:
412,185,60340,1,0,0:2:0:0:
171,84,60513,2,0,L|159:186,1,101.920001244141,8|0,0:2|0:2,0:2:0:0:
331,58,60858,5,8,0:2:0:0:
87,137,61031,1,0,0:2:0:0:
307,81,61203,1,0,0:2:0:0:
126,221,61376,1,8,0:2:0:0:
356,286,61548,1,0,0:2:0:0:
156,200,61720,1,0,0:2:0:0:
389,119,61893,2,0,L|404:236,1,101.920001244141,8|0,0:2|0:2,0:2:0:0:
174,330,62238,1,8,0:2:0:0:
244,140,62410,1,0,0:2:0:0:
340,310,62582,1,0,0:2:0:0:
138,119,62755,2,0,L|123:236,1,101.920001244141,8|0,0:2|0:2,0:2:0:0:
315,71,63100,1,8,0:2:0:0:
48,168,63272,1,8,0:2:0:0:
404,93,63445,1,8,0:2:0:0:
246,237,63617,6,0,P|179:229|134:126,1,167.439994379151,4|8,1:2|0:2,0:2:0:0:
306,152,64134,1,2,0:2:0:0:
337,236,64307,2,0,P|329:295|327:349,1,83.7199971895753,2|0,1:2|0:2,0:2:0:0:
156,308,64651,2,0,P|152:266|146:224,1,83.7199971895753,10|0,0:2|0:2,0:2:0:0:
292,79,64996,2,0,P|354:91|393:206,1,167.439994379151,2|8,1:2|0:2,0:2:0:0:
228,289,65513,2,0,P|172:272|135:269,1,83.7199971895753,2|0,0:2|1:2,0:2:0:0:
247,175,65858,1,2,0:2:0:0:
306,327,66031,1,8,0:2:0:0:
146,238,66203,1,2,0:2:0:0:
322,89,66376,6,0,P|333:198|342:280,2,167.439994379151,0|8|0,1:2|0:2|1:2,0:2:0:0:
244,203,67238,1,2,0:2:0:0:
409,141,67410,1,8,0:2:0:0:
298,337,67582,1,2,0:2:0:0:
427,245,67755,2,0,P|308:234|237:226,1,167.439994379151,0|8,1:2|0:2,0:2:0:0:
87,289,68272,1,2,0:2:0:0:
216,151,68445,1,2,1:2:0:0:
94,78,68617,1,2,0:2:0:0:
207,296,68789,1,8,0:2:0:0:
322,68,68962,1,10,0:2:0:0:
104,183,69134,6,0,P|121:290|128:383,1,167.439994379151,0|8,1:2|0:2,0:2:0:0:
228,210,69651,1,2,0:2:0:0:
319,331,69824,1,2,1:2:0:0:
422,176,69996,2,0,P|407:92|404:84,1,83.7199971895753,2|8,0:2|0:2,0:2:0:0:
326,232,70341,2,0,P|229:300|165:262,1,167.439994379151,2|2,0:2|0:2,0:2:0:0:
94,150,70858,1,8,0:2:0:0:
228,210,71031,2,0,P|231:138|236:98,1,83.7199971895753,2|0,0:2|1:2,0:2:0:0:
121,227,71376,1,2,0:2:0:0:
308,138,71548,1,8,0:2:0:0:
146,63,71720,1,2,0:2:0:0:
320,220,71893,6,0,P|379:190|386:85,1,167.439994379151,0|8,1:2|0:2,0:2:0:0:
217,172,72410,1,0,0:2:0:0:
297,297,72582,2,0,P|360:308|400:292,1,83.7199971895753,0|0,1:2|0:2,0:2:0:0:
308,138,72927,2,0,P|266:132|227:144,1,83.7199971895753,8|0,0:2|0:2,0:2:0:0:
103,269,73272,1,0,1:2:0:0:
38,122,73445,2,0,P|54:62|66:32,1,83.7199971895753,0|8,0:2|0:2,0:2:0:0:
212,245,73789,2,0,P|355:207|400:202,1,167.439994379151,0|0,0:2|0:2,0:2:0:0:
176,135,74307,1,8,0:2:0:0:
393,297,74479,1,8,0:2:0:0:
382,58,74651,6,0,P|286:86|285:171,1,167.439994379151,4|8,1:2|0:2,0:2:0:0:
357,292,75169,1,2,0:2:0:0:
432,158,75341,2,0,P|356:178|345:186,1,83.7199971895753,2|0,1:2|0:2,0:2:0:0:
247,314,75686,2,0,P|171:294|160:286,1,83.7199971895753,10|0,0:2|0:2,0:2:0:0:
84,98,76031,2,0,B|183:98|145:155|251:157,1,167.439994379151,2|8,1:2|0:2,0:2:0:0:
374,34,76548,2,0,P|310:50|271:51,1,83.7199971895753,2|0,0:2|1:2,0:2:0:0:
374,164,76893,1,2,0:2:0:0:
191,100,77065,1,8,0:2:0:0:
275,255,77238,1,2,0:2:0:0:
231,34,77410,6,0,P|213:174|211:218,1,167.439994379151,0|8,1:2|0:2,0:2:0:0:
116,118,77927,1,2,0:2:0:0:
304,73,78100,1,2,1:2:0:0:
116,195,78272,2,0,P|64:178|39:154,1,83.7199971895753,2|8,0:2|0:2,0:2:0:0:
293,152,78617,2,0,L|348:138,2,41.8599985947876,2|0|0,0:2|0:2|1:2,0:2:0:0:
170,57,78962,1,2,0:2:0:0:
270,230,79134,1,8,0:2:0:0:
397,76,79307,2,0,L|412:178,1,83.7199971895753,2|0,0:2|1:2,0:2:0:0:
273,315,79651,1,2,0:2:0:0:
425,240,79824,1,8,0:2:0:0:
212,166,79996,1,2,0:2:0:0:
344,260,80169,6,0,L|355:63,2,167.439994379151,0|8|0,1:2|0:2|1:2,0:2:0:0:
279,130,81031,1,0,0:2:0:0:
425,240,81203,2,0,L|419:148,1,83.7199971895753,8|0,0:2|0:2,0:2:0:0:
268,278,81548,2,0,P|207:293|166:293,1,83.7199971895753,6|0,1:2|0:2,0:2:0:0:
168,94,81893,2,0,P|209:98|249:109,1,83.7199971895753,8|0,0:2|0:2,0:2:0:0:
366,215,82238,2,0,P|407:210|447:199,1,83.7199971895753,6|0,1:2|0:2,0:2:0:0:
414,19,82582,2,0,P|372:23|332:34,1,83.7199971895753,8|0,0:2|0:2,0:2:0:0:
193,191,82927,6,0,P|89:175|3:175,1,167.439994379151,6|8,1:2|0:2,0:2:0:0:
162,278,83445,1,0,0:2:0:0:
157,112,83617,2,0,P|87:132|60:143,1,83.7199971895753,4|0,1:2|0:2,0:2:0:0:
90,344,83962,2,0,P|129:357|170:367,1,83.7199971895753,12|0,0:2|0:2,0:2:0:0:
170,367,85686,5,6,0:2:0:0:
107,124,85859,1,0,0:2:0:0:
191,279,86031,2,0,B|303:280|251:211|379:217,1,185.640001133057,8|2,0:2|0:2,0:2:0:0:
203,192,86549,1,0,0:2:0:0:
345,301,86721,1,8,0:2:0:0:
191,279,86893,1,2,0:2:0:0:
191,279,86980,1,2,0:2:0:0:
191,279,87066,1,2,0:2:0:0:
332,129,87238,1,2,0:2:0:0:
128,35,87411,1,8,0:2:0:0:
203,192,87583,2,0,P|261:213|308:200,1,92.8200005665283,2|0,0:2|0:2,0:2:0:0:
318,18,87928,1,2,0:2:0:0:
183,167,88100,1,8,0:2:0:0:
393,76,88273,1,2,0:2:0:0:
69,105,88445,6,0,P|58:180|57:217,1,92.8200005665283,6|0,0:2|0:0,0:0:0:0:
271,285,88789,2,0,P|261:174|237:82,1,185.640001133057,8|0,0:2|0:0,0:0:0:0:
29,270,89307,1,0,0:2:0:0:
155,151,89480,1,8,0:2:0:0:
219,340,89652,1,2,0:2:0:0:
219,340,89738,1,2,0:2:0:0:
219,340,89824,1,2,0:2:0:0:
53,238,89997,1,2,0:2:0:0:
287,151,90169,1,8,0:2:0:0:
137,305,90342,2,0,P|131:241|124:192,1,92.8200005665283,2|0,0:2|0:2,0:2:0:0:
207,49,90686,1,2,0:2:0:0:
286,288,90859,1,8,0:2:0:0:
377,29,91031,1,8,0:2:0:0:
377,29,91118,1,8,0:2:0:0:
377,29,91203,6,0,P|443:34|475:64,1,92.8200005665283,6|0,0:2|0:2,0:2:0:0:
373,229,91549,1,8,0:2:0:0:
239,110,91721,1,0,0:2:0:0:
353,311,91893,2,0,P|398:313|438:291,1,92.8200005665283,2|0,0:2|0:2,0:2:0:0:
216,132,92238,2,0,P|219:179|225:225,1,92.8200005665283,8|0,0:2|0:2,0:2:0:0:
420,128,92583,5,2,0:2:0:0:
235,305,92755,1,0,0:2:0:0:
449,255,92928,1,10,0:2:0:0:
239,110,93100,1,2,0:2:0:0:
353,311,93273,1,0,0:2:0:0:
440,100,93445,1,2,0:2:0:0:
195,235,93618,1,8,0:2:0:0:
442,351,93790,1,0,0:2:0:0:
302,49,93962,5,14,0:2:0:0:
201,329,94135,1,0,0:2:0:0:
314,80,94307,1,0,0:2:0:0:
101,253,94480,5,12,0:2:0:0:
382,160,94652,1,0,0:2:0:0:
118,224,94824,1,0,0:2:0:0:
459,258,94997,5,12,0:2:0:0:
81,146,95169,1,0,0:2:0:0:
446,12,95342,5,14,0:2:0:0:
316,319,95514,1,2,0:2:0:0:
208,41,95686,1,0,0:2:0:0:
103,325,95859,2,0,L|50:343,2,46.4100002832642,10|8|8,0:2|0:2|0:2,0:2:0:0:
369,204,96204,1,2,0:2:0:0:
93,101,96376,1,8,0:2:0:0:
416,43,96549,1,8,0:2:0:0:
416,43,96635,1,8,0:2:0:0:
416,43,96721,6,0,P|431:113|409:162,1,92.8200005665283,6|0,0:2|0:2,0:2:0:0:
176,271,97066,2,0,P|176:168|263:130,1,185.640001133057,8|2,0:2|0:2,0:2:0:0:
309,309,97583,1,0,0:2:0:0:
86,195,97755,1,8,0:2:0:0:
340,227,97928,1,2,0:2:0:0:
81,320,98100,1,2,0:2:0:0:
240,130,98273,1,2,0:2:0:0:
146,368,98445,1,8,0:2:0:0:
180,66,98618,2,0,P|242:40|276:47,1,92.8200005665283,2|0,0:2|0:2,0:2:0:0:
309,309,98962,1,2,0:2:0:0:
101,130,99135,2,0,P|81:54|94:15,1,92.8200005665283,8|0,0:2|0:2,0:2:0:0:
382,156,99480,5,6,0:2:0:0:
45,259,99652,1,0,0:2:0:0:
372,79,99824,2,0,P|453:114|446:231,1,185.640001133057,8|0,0:2|0:2,0:2:0:0:
297,350,100342,1,0,0:2:0:0:
285,68,100514,2,0,P|314:11|351:-3,1,92.8200005665283,8|0,0:2|0:2,0:2:0:0:
363,296,100859,1,0,0:2:0:0:
142,155,101031,1,0,0:2:0:0:
297,350,101203,1,8,0:2:0:0:
237,140,101376,2,0,P|228:202|226:261,1,92.8200005665283,0|2,0:0|0:2,0:0:0:0:
314,102,101721,5,2,0:2:0:0:
147,235,101893,1,10,0:2:0:0:
331,130,102066,1,0,0:2:0:0:
364,357,102237,5,14,0:2:0:0:
213,34,102410,1,0,0:2:0:0:
178,384,102582,5,8,0:2:0:0:
316,64,102755,1,0,0:2:0:0:
423,339,102927,5,12,0:2:0:0:
136,184,103100,1,0,0:2:0:0:
470,114,103272,5,8,0:2:0:0:
99,253,103444,1,0,0:2:0:0:
390,53,103617,5,14,0:2:0:0:
279,369,103789,1,0,0:2:0:0:
312,23,103962,5,8,0:2:0:0:
423,339,104134,1,0,0:2:0:0:
456,13,104306,5,12,0:2:0:0:
345,329,104478,1,0,0:2:0:0:
149,34,104651,5,8,0:2:0:0:
493,186,104824,1,0,0:2:0:0:
147,369,104996,5,14,0:2:0:0:
275,84,105168,1,0,0:2:0:0:
426,313,105341,1,0,0:2:0:0:
88,174,105513,5,14,0:2:0:0:
472,220,105686,1,0,0:2:0:0:
147,369,105858,1,0,0:2:0:0:
287,44,106031,5,14,0:2:0:0:
407,352,106203,1,0,0:2:0:0:
378,4,106375,5,14,0:2:0:0:
160,241,106548,1,0,0:2:0:0:
500,141,106720,1,0,0:2:0:0:
64,120,106893,5,10,0:2:0:0:
447,302,107065,1,8,0:2:0:0:
255,43,107237,1,8,0:2:0:0:
183,374,107410,1,8,0:2:0:0:
500,141,107582,1,8,0:2:0:0:
94,312,107755,6,0,P|72:274|81:190,1,101.920001244141,14|0,0:2|0:2,0:2:0:0:
255,43,108100,1,0,0:2:0:0:
359,319,108272,2,0,P|309:374|261:379,1,101.920001244141,8|0,0:2|0:2,0:2:0:0:
182,126,108617,1,0,0:2:0:0:
469,260,108789,1,8,0:2:0:0:
350,87,108962,1,0,0:2:0:0:
272,300,109134,2,0,L|166:276,1,101.920001244141,12|0,0:2|0:2,0:2:0:0:
284,24,109479,1,0,0:2:0:0:
212,226,109651,2,0,L|112:248,1,101.920001244141,8|0,0:2|0:2,0:2:0:0:
156,33,109996,1,0,0:2:0:0:
326,200,110168,1,8,0:2:0:0:
114,337,110341,1,0,0:2:0:0:
315,83,110513,6,0,P|380:93|419:136,1,101.920001244141,14|0,0:2|0:2,0:2:0:0:
308,348,110858,1,0,0:2:0:0:
195,113,111031,1,8,0:2:0:0:
413,274,111203,1,0,0:2:0:0:
143,200,111375,1,0,0:2:0:0:
459,192,111548,2,0,P|497:245|495:303,1,101.920001244141,8|0,0:2|0:2,0:2:0:0:
195,113,111893,2,0,L|213:-5,1,101.920001244141,12|0,0:2|0:2,0:2:0:0:
288,310,112237,1,0,0:2:0:0:
154,175,112410,2,0,L|138:74,1,101.920001244141,8|0,0:2|0:2,0:2:0:0:
339,216,112755,1,8,0:3:0:0:
113,307,112927,1,4,0:3:0:0:
266,165,113100,1,4,0:3:0:0:
245,383,113272,6,0,P|218:307|224:268,1,101.920001244141,14|0,0:2|0:2,0:2:0:0:
325,72,113617,1,0,0:2:0:0:
305,314,113789,1,8,0:2:0:0:
199,113,113962,1,0,0:2:0:0:
362,234,114134,1,0,0:2:0:0:
210,31,114306,2,0,P|137:52|117:87,1,101.920001244141,8|0,0:2|0:2,0:2:0:0:
219,287,114651,2,0,L|234:166,1,101.920001244141,14|0,0:2|0:2,0:2:0:0:
48,266,114996,1,0,0:2:0:0:
272,222,115168,2,0,L|259:120,1,101.920001244141,8|0,0:2|0:2,0:2:0:0:
104,208,115513,1,0,0:2:0:0:
345,309,115686,2,0,L|357:207,1,101.920001244141,8|0,0:2|0:2,0:2:0:0:
107,126,116031,5,14,0:2:0:0:
359,54,116203,1,0,0:2:0:0:
146,137,116375,1,0,0:2:0:0:
396,227,116548,1,8,0:2:0:0:
201,74,116720,1,0,0:2:0:0:
345,309,116893,1,0,0:2:0:0:
222,44,117065,2,0,P|244:116|241:156,1,101.920001244141,8|0,0:2|0:2,0:2:0:0:
131,349,117410,5,14,0:2:0:0:
396,227,117582,1,0,0:2:0:0:
137,314,117755,1,0,0:2:0:0:
465,268,117927,1,8,0:2:0:0:
108,233,118100,1,0,0:2:0:0:
393,304,118272,1,8,0:2:0:0:
78,159,118445,1,8,0:2:0:0:
460,343,118617,1,8,0:2:0:0:
253,88,118789,6,0,L|243:185,1,83.7199971895753,10|0,0:2|0:2,0:2:0:0:
226,292,119134,1,0,0:2:0:0:
345,120,119307,2,0,L|355:217,1,83.7199971895753,12|0,0:2|0:2,0:2:0:0:
372,324,119651,1,0,0:2:0:0:
244,171,119824,1,8,0:2:0:0:
209,369,119996,1,0,0:2:0:0:
209,369,120082,1,0,0:2:0:0:
209,369,120169,2,0,P|143:353|128:326,1,83.7199971895753,14|0,0:2|0:2,0:2:0:0:
123,127,120513,1,0,0:2:0:0:
226,292,120686,2,0,P|292:276|307:249,1,83.7199971895753,8|0,0:2|0:2,0:2:0:0:
312,50,121031,1,0,0:2:0:0:
137,208,121203,2,0,P|95:208|63:182,1,83.7199971895753,12|0,0:2|0:2,0:2:0:0:
208,0,121548,5,6,0:2:0:0:
