osu file format v14

[General]
AudioFilename: audio.mp3
AudioLeadIn: 0
PreviewTime: 29048
Countdown: 0
SampleSet: Soft
StackLeniency: 0.7
Mode: 0
LetterboxInBreaks: 0
WidescreenStoryboard: 1

[Editor]
DistanceSpacing: 1.2
BeatDivisor: 4
GridSize: 16
TimelineZoom: 1.2

[Metadata]
Title:Start Again
TitleUnicode:Start Again
Artist:ONE OK ROCK
ArtistUnicode:ONE OK ROCK
Creator:A r M i N
Version:Onlybiscuit's Extra
Source:
Tags:Fueled by Ramen OOR Ambitions A-Sketch Sotarks Armin A_r_M_i_N MiracleE Onlybiscuit Nikakis
BeatmapID:2166311
BeatmapSetID:1035167

[Difficulty]
HPDrainRate:6.2
CircleSize:3.8
OverallDifficulty:9
ApproachRate:9.2
SliderMultiplier:1.82
SliderTickRate:1

[Events]
//Background and Video events
0,0,"BG 2.jpg",0,0
//Break Periods
2,49824,51893
2,84334,85116
//Storyboard Layer 0 (Background)
//Storyboard Layer 1 (Fail)
//Storyboard Layer 2 (Pass)
//Storyboard Layer 3 (Foreground)
//Storyboard Layer 4 (Overlay)
//Storyboard Sound Samples

[TimingPoints]
8445,344.827586206897,4,2,22,52,1,0
8445,-161.290322580645,4,2,22,52,0,0
19479,-121.951219512195,4,2,22,62,0,0
29824,-108.695652173913,4,2,22,72,0,0
30513,-98.0392156862744,4,1,22,82,0,0
47065,-98.0392156862744,4,1,22,92,0,0
47324,-98.0392156862744,4,1,22,5,0,0
47410,-98.0392156862744,4,1,22,92,0,0
47669,-98.0392156862744,4,1,22,5,0,0
47755,-98.0392156862744,4,1,22,92,0,0
48013,-98.0392156862744,4,1,22,5,0,0
48100,-98.0392156862744,4,1,22,92,0,0
48358,-98.0392156862744,4,1,22,5,0,0
48445,-98.0392156862744,4,1,22,92,0,0
48703,-98.0392156862744,4,1,22,5,0,0
48789,-98.0392156862744,4,1,22,92,0,0
49048,-98.0392156862744,4,1,22,5,0,0
49134,-98.0392156862744,4,1,22,92,0,0
52582,-89.2857142857143,4,1,22,82,0,0
63617,-108.695652173913,4,2,22,72,0,0
74651,-98.0392156862745,4,2,22,72,0,0
85686,-98.0392156862745,4,1,22,82,0,0
102238,-98.0392156862745,4,1,22,92,0,0
107755,-89.2857142857143,4,1,22,72,0,0
118789,-108.695652173913,4,1,22,72,0,0

[Colours]
Combo1 : 244,241,187
Combo2 : 99,97,137
Combo3 : 111,85,77
Combo4 : 218,165,129
SliderBorder : 252,227,245
SliderTrackOverride : 23,9,34

[HitObjects]
512,65,8445,6,0,L|450:61,1,56.4199977616578,2|0,0:0|0:0,0:0:0:0:
388,112,8789,2,0,L|326:116,1,56.4199977616578,2|0,0:0|0:0,0:0:0:0:
230,46,9134,2,0,P|249:98|230:155,1,112.839995523316,2|0,0:0|0:0,0:0:0:0:
122,213,9651,1,2,0:0:0:0:
122,213,9824,6,0,B|188:210|162:245|228:242,1,112.839995523316,2|2,0:0|0:0,0:0:0:0:
151,98,10341,1,0,0:0:0:0:
150,97,10513,2,0,P|122:95|94:99,1,56.4199977616578,2|0,0:0|0:0,0:0:0:0:
26,189,10858,1,0,0:0:0:0:
26,189,11031,6,0,P|32:245|32:301,1,112.839995523316,2|0,0:0|0:0,0:0:0:0:
111,361,11548,2,0,L|176:355,1,56.4199977616578,2|0,0:0|0:0,0:0:0:0:
292,357,11893,2,0,P|243:329|223:278,1,112.839995523316,2|0,0:0|0:0,0:0:0:0:
316,157,12410,1,2,0:0:0:0:
316,157,12582,6,0,P|309:214|309:270,1,112.839995523316,2|2,0:0|0:0,0:0:0:0:
366,347,13100,2,0,P|393:342|421:340,1,56.4199977616578,2|0,0:0|0:0,0:0:0:0:
479,254,13445,2,0,P|451:248|423:246,1,56.4199977616578,2|0,0:0|0:0,0:0:0:0:
316,157,13789,1,2,0:0:0:0:
316,157,13962,6,0,L|312:100,1,56.4199977616578,0|0,0:0|0:0,0:0:0:0:
410,222,14307,2,0,L|413:165,1,56.4199977616578,0|2,0:0|0:0,0:0:0:0:
306,259,14651,2,0,B|231:260|265:285|197:283,1,112.839995523316,2|2,0:0|0:0,0:0:0:0:
106,167,15169,1,0,0:0:0:0:
106,167,15341,6,0,P|159:158|195:199,1,112.839995523316,2|0,0:0|0:0,0:0:0:0:
124,321,15858,2,0,P|118:293|115:265,1,56.4199977616578,2|0,0:0|0:0,0:0:0:0:
19,159,16203,2,0,P|16:187|10:214,1,56.4199977616578,2|0,0:0|0:0,0:0:0:0:
100,59,16548,1,2,0:0:0:0:
100,59,16720,6,0,L|231:50,1,112.839995523316,2|2,0:0|0:0,0:0:0:0:
314,39,17238,1,2,0:0:0:0:
314,39,17410,1,2,0:0:0:0:
276,133,17582,1,2,0:0:0:0:
276,133,17755,1,2,0:0:0:0:
212,51,17927,1,0,0:0:0:0:
387,134,18100,5,2,0:0:0:0:
387,134,18272,2,0,L|392:190,1,56.4199977616578,2|0,0:0|0:0,0:0:0:0:
296,229,18617,2,0,L|290:294,1,56.4199977616578,2|0,0:0|0:0,0:0:0:0:
284,376,18962,1,0,0:0:0:0:
209,244,19134,2,0,P|182:235|154:241,1,56.4199977616578,2|0,0:0|0:0,0:0:0:0:
24,375,19479,6,0,L|21:296,1,74.6200011386109,6|0,1:2|0:2,0:0:0:0:
74,219,19824,1,2,3:2:0:0:
12,152,19996,1,0,0:2:0:0:
131,52,20169,2,0,P|94:51|57:48,1,74.6200011386109,2|0,3:2|0:2,0:0:0:0:
222,144,20513,2,0,P|184:144|147:147,1,74.6200011386109,2|0,3:2|0:2,0:0:0:0:
306,69,20858,6,0,P|335:135|315:206,1,149.240002277222,2|0,3:2|3:2,0:0:0:0:
246,264,21376,1,2,0:2:0:0:
336,352,21548,2,0,B|432:348|381:313|476:310,1,149.240002277222,2|2,3:2|3:2,0:0:0:0:
404,204,22065,1,2,0:2:0:0:
404,204,22238,6,0,L|479:211,1,74.6200011386109,2|0,3:2|0:2,0:0:0:0:
345,115,22582,1,2,3:2:0:0:
422,49,22755,1,0,0:2:0:0:
236,24,22927,2,0,P|246:97|250:172,1,149.240002277222,2|0,3:2|3:2,0:0:0:0:
142,132,23445,6,0,P|135:168|133:205,2,74.6200011386109,2|2|0,0:2|3:2|0:0,0:0:0:0:
212,248,23962,1,0,3:2:0:0:
87,357,24134,2,0,P|123:348|160:346,1,74.6200011386109,2|0,0:2|3:2,0:0:0:0:
300,278,24479,2,0,P|262:275|226:267,1,74.6200011386109,2|0,0:2|3:2,0:0:0:0:
53,179,24824,1,2,0:2:0:0:
53,179,24996,6,0,L|59:263,1,74.6200011386109,2|0,3:2|0:2,0:0:0:0:
142,132,25341,1,2,3:2:0:0:
57,72,25513,1,0,0:2:0:0:
217,3,25686,2,0,P|210:39|208:76,1,74.6200011386109,2|0,3:2|0:2,0:0:0:0:
150,239,26031,2,0,P|148:201|141:165,1,74.6200011386109,2|0,3:2|0:2,0:0:0:0:
284,62,26376,6,0,P|320:56|358:55,1,74.6200011386109,2|2,3:2|0:3,0:0:0:0:
486,147,26720,2,0,P|449:141|411:140,1,74.6200011386109,2|2,3:2|0:3,0:0:0:0:
282,281,27065,2,0,P|242:219|256:148,1,149.240002277222,2|2,3:2|3:2,0:0:0:0:
339,199,27582,1,2,0:3:0:0:
182,279,27755,6,0,P|163:278|145:274,3,37.3100005693054,4|0|0|0,1:3|0:0|0:0|0:0,0:0:0:0:
148,130,28100,2,0,P|129:130|111:134,3,37.3100005693054,4|0|0|0,1:3|0:0|0:0|0:0,0:0:0:0:
339,199,28445,6,0,P|357:198|375:194,3,37.3100005693054,4|0|0|0,1:3|0:0|0:0|0:0,0:0:0:0:
373,50,28789,2,0,P|391:50|409:54,3,37.3100005693054,4|0|0|0,1:3|0:0|0:0|0:0,0:0:0:0:
223,174,29134,5,4,1:3:0:0:
223,174,29220,1,0,1:0:0:0:
223,174,29307,2,0,P|220:194|219:213,1,37.3100005693054,4|0,1:3|1:0,0:0:0:0:
90,72,29479,5,4,1:3:0:0:
90,72,29565,1,0,1:0:0:0:
90,72,29651,2,0,P|92:92|94:111,1,37.3100005693054,4|0,1:3|1:0,0:0:0:0:
244,48,29824,6,0,P|224:41|203:38,1,41.8599985947876,4|0,1:3|1:0,0:0:0:0:
298,208,29996,2,0,P|318:204|338:197,1,41.8599985947876,0|0,1:0|1:0,0:0:0:0:
369,12,30169,2,0,P|371:32|373:53,1,41.8599985947876,8|8,1:2|1:2,0:0:0:0:
471,184,30341,2,0,P|472:165|474:143,1,41.8599985947876,8|8,1:2|1:2,0:0:0:0:
244,48,30513,6,0,P|196:35|152:35,1,92.8200005665283,6|0,0:2|0:2,0:0:0:0:
288,239,30858,2,0,P|334:239|378:226,1,92.8200005665283,8|0,0:2|0:0,0:0:0:0:
120,153,31203,1,2,0:2:0:0:
202,338,31376,1,0,0:2:0:0:
307,114,31548,1,8,0:2:0:0:
38,173,31720,1,2,0:2:0:0:
38,173,31807,1,2,0:2:0:0:
38,173,31893,5,2,0:2:0:0:
253,232,32065,1,2,0:2:0:0:
47,75,32238,1,8,0:2:0:0:
301,21,32410,2,0,P|305:67|306:113,1,92.8200005665283,2|0,0:2|0:2,0:0:0:0:
114,245,32755,2,0,P|115:198|119:152,1,92.8200005665283,2|8,0:2|0:2,0:0:0:0:
245,329,33100,1,2,0:2:0:0:
399,141,33272,6,0,P|480:174|487:262,1,185.640001133057,4|8,0:2|0:2,0:0:0:0:
298,185,33789,2,0,P|253:173|206:171,1,92.8200005665283,0|0,0:0|0:2,0:0:0:0:
399,141,34134,1,0,0:2:0:0:
240,315,34307,2,0,P|195:326|148:328,1,92.8200005665283,8|2,0:2|0:2,0:0:0:0:
71,108,34651,5,2,0:2:0:0:
43,302,34824,1,2,0:2:0:0:
247,132,34996,1,8,0:2:0:0:
313,297,35169,2,0,P|224:268|132:256,1,185.640001133057,2|2,0:2|0:2,0:0:0:0:
329,41,35686,1,8,0:2:0:0:
445,272,35858,1,8,0:2:0:0:
445,272,35945,1,8,0:2:0:0:
444,272,36031,6,0,P|450:226|451:179,1,92.8200005665283,6|0,0:2|0:2,0:0:0:0:
295,35,36376,2,0,P|295:81|301:127,1,92.8200005665283,8|0,0:2|0:2,0:0:0:0:
321,330,36720,1,2,0:2:0:0:
197,164,36893,1,0,0:2:0:0:
444,272,37065,1,8,0:2:0:0:
217,267,37238,1,0,0:2:0:0:
468,131,37410,6,0,P|423:119|376:117,1,92.8200005665283,2|0,0:2|0:2,0:0:0:0:
183,247,37755,1,10,0:2:0:0:
327,355,37927,2,0,P|373:353|418:341,1,92.8200005665283,2|0,0:2|0:2,0:0:0:0:
287,141,38272,1,2,0:2:0:0:
101,309,38445,2,0,P|55:307|10:295,1,92.8200005665283,8|0,0:2|0:2,0:0:0:0:
241,62,38789,5,14,0:2:0:0:
372,264,38962,1,0,0:2:0:0:
93,201,39134,1,0,0:2:0:0:
373,86,39307,5,12,0:2:0:0:
255,346,39479,1,0,0:2:0:0:
114,73,39651,1,0,0:2:0:0:
399,284,39824,5,12,0:2:0:0:
56,220,39996,1,0,0:2:0:0:
253,44,40169,5,14,0:2:0:0:
266,317,40341,1,2,0:2:0:0:
460,144,40513,1,0,0:2:0:0:
146,97,40686,5,10,0:2:0:0:
146,97,40772,1,8,0:2:0:0:
146,97,40858,1,8,0:2:0:0:
389,245,41031,1,2,0:2:0:0:
119,334,41203,1,8,0:2:0:0:
323,78,41376,1,8,0:2:0:0:
323,78,41462,1,8,0:2:0:0:
322,77,41548,6,0,P|329:123|329:170,1,92.8200005665283,6|0,0:2|0:2,0:0:0:0:
122,78,41893,2,0,P|115:123|115:170,1,92.8200005665283,8|0,0:2|0:0,0:0:0:0:
306,333,42238,1,2,0:2:0:0:
98,368,42410,1,0,0:2:0:0:
329,170,42582,1,8,0:2:0:0:
146,97,42755,1,2,0:2:0:0:
334,311,42927,6,0,P|379:303|423:287,1,92.8200005665283,2|2,0:2|0:2,0:0:0:0:
248,91,43272,1,8,0:2:0:0:
88,280,43445,2,0,P|14:228|10:139,1,185.640001133057,2|2,0:2|0:2,0:0:0:0:
205,347,43962,1,8,0:2:0:0:
319,148,44134,1,0,0:2:0:0:
461,351,44307,6,0,P|468:305|468:258,1,92.8200005665283,6|0,0:2|0:2,0:0:0:0:
266,78,44651,2,0,P|280:169|281:262,1,185.640001133057,8|0,0:2|0:2,0:0:0:0:
375,53,45169,1,0,0:2:0:0:
151,6,45341,2,0,P|143:51|143:98,1,92.8200005665283,8|0,0:2|0:2,0:0:0:0:
201,316,45686,5,0,0:2:0:0:
319,148,45858,1,0,0:2:0:0:
112,234,46031,2,0,P|65:234|20:225,1,92.8200005665283,8|0,0:2|0:0,0:0:0:0:
233,27,46376,2,0,P|241:72|241:118,1,92.8200005665283,2|2,0:2|0:2,0:0:0:0:
422,288,46720,2,0,P|421:241|430:196,1,92.8200005665283,10|0,0:2|0:2,0:0:0:0:
201,316,47065,6,0,P|139:345|73:328,1,139.230000849792,0|0,0:0|0:0,0:0:0:0:
63,256,47410,2,0,P|124:226|190:243,1,139.230000849792,0|0,0:0|0:0,0:0:0:0:
265,270,47755,2,0,L|274:108,1,139.230000849792,0|0,0:0|0:0,0:0:0:0:
197,104,48100,2,0,L|189:243,1,139.230000849792,0|0,0:0|0:0,0:0:0:0:
201,316,48445,2,0,B|282:335|261:296|338:312,1,139.230000849792,0|0,0:0|0:0,0:0:0:0:
409,354,48789,2,0,B|328:373|349:334|271:350,1,139.230000849792,0|0,0:0|0:0,0:0:0:0:
201,316,49134,1,0,0:0:0:0:
477,154,49479,1,0,0:0:0:0:
74,261,52582,6,0,P|123:276|174:279,1,101.920001244141,14|0,0:2|0:2,0:0:0:0:
371,123,52927,1,0,0:2:0:0:
105,114,53100,1,8,0:2:0:0:
301,285,53272,2,0,P|294:235|292:184,1,101.920001244141,0|0,0:2|0:2,0:0:0:0:
433,28,53617,1,8,0:2:0:0:
213,143,53789,1,0,0:2:0:0:
447,323,53962,6,0,P|455:273|457:222,1,101.920001244141,12|0,0:2|0:2,0:0:0:0:
391,37,54307,1,0,0:2:0:0:
281,309,54479,2,0,P|274:259|272:208,1,101.920001244141,8|0,0:2|0:2,0:0:0:0:
225,31,54824,1,0,0:2:0:0:
74,310,54996,2,0,P|82:260|84:209,1,101.920001244141,8|0,0:2|0:2,0:0:0:0:
209,26,55341,6,0,P|159:30|110:45,1,101.920001244141,14|0,0:2|0:2,0:0:0:0:
235,228,55686,1,0,0:2:0:0:
409,18,55858,1,8,0:2:0:0:
178,124,56031,2,0,P|227:139|278:143,1,101.920001244141,0|0,0:2|0:0,0:0:0:0:
456,149,56376,1,8,0:2:0:0:
213,266,56548,1,0,0:2:0:0:
399,37,56720,6,0,P|349:41|300:56,1,101.920001244141,12|0,0:2|0:2,0:0:0:0:
132,223,57065,1,0,0:2:0:0:
396,197,57238,2,0,P|447:201|496:216,1,101.920001244141,8|0,0:2|0:2,0:0:0:0:
298,331,57582,1,8,0:3:0:0:
375,66,57755,1,4,0:3:0:0:
439,289,57927,1,4,0:3:0:0:
204,208,58100,6,0,P|196:259|194:310,1,101.920001244141,14|0,0:2|0:2,0:0:0:0:
285,74,58445,1,0,0:2:0:0:
275,322,58617,1,8,0:2:0:0:
92,165,58789,2,0,P|94:115|103:64,1,101.920001244141,0|0,0:2|0:2,0:0:0:0:
317,197,59134,1,8,0:2:0:0:
86,284,59307,1,0,0:2:0:0:
285,74,59479,6,0,P|294:125|296:176,1,101.920001244141,14|0,0:2|0:2,0:0:0:0:
210,344,59824,1,0,0:2:0:0:
439,217,59996,2,0,P|431:268|429:319,1,101.920001244141,8|0,0:2|0:2,0:0:0:0:
222,228,60341,1,0,0:2:0:0:
388,29,60513,2,0,P|397:80|399:131,1,101.920001244141,8|0,0:2|0:2,0:0:0:0:
227,321,60858,6,0,P|179:336|128:340,1,101.920001244141,8|0,0:2|0:2,0:0:0:0:
256,130,61203,1,0,0:2:0:0:
344,342,61376,1,8,0:2:0:0:
142,223,61548,2,0,P|94:209|43:205,1,101.920001244141,0|0,0:2|0:2,0:0:0:0:
367,213,61893,1,8,0:2:0:0:
128,340,62065,1,0,0:2:0:0:
290,113,62238,6,0,P|341:117|390:132,1,101.920001244141,8|0,0:2|0:2,0:0:0:0:
248,342,62582,1,0,0:2:0:0:
126,138,62755,2,0,P|76:142|27:157,1,101.920001244141,8|0,0:2|0:2,0:0:0:0:
319,273,63100,1,8,0:2:0:0:
216,29,63272,1,8,0:2:0:0:
93,226,63445,1,8,0:2:0:0:
290,113,63617,6,0,L|295:299,1,167.439994379151,4|8,1:2|0:2,0:0:0:0:
348,369,64134,1,2,0:2:0:0:
410,283,64307,2,0,P|449:269|490:273,1,83.7199971895753,2|0,1:2|0:2,0:0:0:0:
324,379,64651,2,0,P|282:382|243:368,1,83.7199971895753,10|0,0:2|0:2,0:0:0:0:
132,237,64996,6,0,P|81:248|62:355,1,167.439994379151,2|8,1:2|0:2,0:0:0:0:
189,171,65513,2,0,P|146:152|104:153,1,83.7199971895753,2|0,0:2|1:2,0:0:0:0:
289,187,65858,2,0,P|283:140|262:104,1,83.7199971895753,2|8,0:2|0:2,0:0:0:0:
220,269,66203,1,2,0:2:0:0:
109,151,66376,5,0,1:2:0:0:
109,151,66548,1,0,0:0:0:0:
271,85,66720,1,8,0:2:0:0:
189,171,66893,1,0,0:0:0:0:
182,1,67065,1,0,1:2:0:0:
182,1,67238,2,0,P|185:56|185:93,1,83.7199971895753,2|8,0:2|0:2,0:0:0:0:
234,251,67582,6,0,P|262:218|391:221,1,167.439994379151,2|0,0:2|0:0,0:0:0:0:
477,352,68100,1,8,0:2:0:0:
426,275,68272,1,2,0:2:0:0:
324,378,68445,1,2,1:2:0:0:
324,378,68618,2,0,P|327:323|327:286,1,83.7199971895753,2|8,0:2|0:2,0:0:0:0:
334,117,68962,1,10,0:2:0:0:
476,207,69134,5,0,1:2:0:0:
476,207,69307,1,0,0:0:0:0:
436,31,69479,1,8,0:2:0:0:
456,121,69651,1,2,0:2:0:0:
299,26,69824,1,2,1:2:0:0:
299,26,69996,2,0,P|253:15|211:22,1,83.7199971895753,2|8,0:2|0:2,0:0:0:0:
140,156,70341,6,0,P|99:166|58:162,1,83.7199971895753,2|0,0:2|1:2,0:0:0:0:
217,39,70686,2,0,P|258:34|298:45,1,83.7199971895753,2|8,0:2|0:2,0:0:0:0:
96,83,71031,2,0,L|93:-3,1,83.7199971895753,2|0,0:2|1:2,0:0:0:0:
253,121,71376,2,0,L|250:204,1,83.7199971895753,2|8,0:2|0:2,0:0:0:0:
246,324,71720,1,2,0:2:0:0:
90,214,71893,6,0,B|71:299|112:278|90:379,1,167.439994379151,0|8,1:2|0:2,0:0:0:0:
180,247,72410,1,0,0:2:0:0:
276,340,72582,2,0,P|324:341|363:339,1,83.7199971895753,0|0,1:2|0:2,0:0:0:0:
455,198,72927,2,0,P|413:196|371:197,1,83.7199971895753,8|0,0:2|0:2,0:0:0:0:
191,222,73272,5,0,1:2:0:0:
272,159,73445,2,0,P|276:201|280:261,1,83.7199971895753,0|8,0:2|0:2,0:0:0:0:
202,90,73789,1,0,0:2:0:0:
352,129,73962,1,0,1:2:0:0:
207,251,74134,1,0,0:2:0:0:
306,39,74307,1,8,0:2:0:0:
428,253,74479,1,8,0:2:0:0:
272,159,74651,6,0,P|196:109|107:125,1,185.640001133057,4|8,1:2|0:2,0:0:0:0:
38,207,75169,1,2,0:2:0:0:
169,313,75341,2,0,P|179:268|172:223,1,92.8200005665283,2|0,1:2|0:2,0:0:0:0:
26,84,75686,2,0,P|18:129|28:174,1,92.8200005665283,10|0,0:2|0:2,0:0:0:0:
220,33,76031,6,0,B|340:28|283:62|402:56,1,185.640001133057,2|8,1:2|0:2,0:0:0:0:
512,164,76548,2,0,P|469:147|423:150,1,92.8200005665283,2|0,0:2|1:2,0:0:0:0:
353,260,76893,2,0,P|395:243|441:246,1,92.8200005665283,2|8,0:2|0:2,0:0:0:0:
322,166,77238,1,2,0:2:0:0:
276,317,77410,5,0,1:2:0:0:
276,317,77582,1,0,0:0:0:0:
127,186,77755,1,8,0:2:0:0:
169,313,77927,1,2,0:2:0:0:
240,141,78100,1,2,1:2:0:0:
240,141,78272,2,0,P|246:192|243:237,1,92.8200005665283,2|8,0:2|0:2,0:0:0:0:
177,43,78617,6,0,P|219:26|265:29,1,92.8200005665283,2|0,0:2|1:2,0:0:0:0:
127,186,78962,2,0,P|81:189|38:172,1,92.8200005665283,2|8,0:2|0:2,0:0:0:0:
178,62,79307,2,0,P|220:45|266:48,1,92.8200005665283,2|0,0:2|1:2,0:0:0:0:
128,205,79652,2,0,P|82:208|39:191,1,92.8200005665283,2|8,0:2|0:2,0:0:0:0:
100,97,79996,1,2,0:2:0:0:
243,233,80169,5,0,1:2:0:0:
240,141,80341,1,0,0:0:0:0:
154,319,80513,1,8,0:2:0:0:
128,205,80686,1,0,0:0:0:0:
244,315,80858,2,0,L|354:309,1,92.8200005665283,0|0,1:2|0:2,0:0:0:0:
482,194,81203,2,0,L|372:200,1,92.8200005665283,8|0,0:2|0:2,0:0:0:0:
233,48,81548,5,6,1:2:0:0:
233,48,81720,2,0,P|239:98|239:152,1,92.8200005665283,0|8,0:2|0:2,0:0:0:0:
352,291,82065,2,0,P|352:244|358:198,1,92.8200005665283,0|6,0:2|1:2,0:0:0:0:
374,81,82410,1,0,0:2:0:0:
201,244,82582,1,8,0:2:0:0:
182,260,82927,6,0,P|98:229|66:145,1,185.640001133057,6|8,1:2|0:2,0:0:0:0:
103,15,83445,1,0,0:2:0:0:
170,155,83617,2,0,P|176:105|176:51,1,92.8200005665283,4|0,1:2|0:2,0:0:0:0:
322,220,83962,2,0,P|316:170|316:116,1,92.8200005665283,12|0,0:2|0:2,0:0:0:0:
268,336,85686,6,0,P|316:349|360:349,1,92.8200005665283,6|0,0:2|0:2,0:0:0:0:
224,145,86031,2,0,P|178:145|134:158,1,92.8200005665283,8|0,0:2|0:0,0:0:0:0:
392,231,86376,1,2,0:2:0:0:
310,46,86549,1,0,0:2:0:0:
205,270,86721,1,8,0:2:0:0:
474,211,86893,1,2,0:2:0:0:
474,211,86980,1,2,0:2:0:0:
474,211,87066,5,2,0:2:0:0:
259,152,87238,1,2,0:2:0:0:
465,309,87411,1,8,0:2:0:0:
211,363,87583,2,0,P|207:317|206:271,1,92.8200005665283,2|0,0:2|0:2,0:0:0:0:
398,139,87928,2,0,P|397:186|393:232,1,92.8200005665283,2|8,0:2|0:2,0:0:0:0:
267,55,88273,1,2,0:2:0:0:
113,243,88445,6,0,P|32:210|25:122,1,185.640001133057,6|8,0:2|0:2,0:0:0:0:
214,199,88962,2,0,P|259:211|306:213,1,92.8200005665283,0|0,0:0|0:0,0:0:0:0:
113,243,89307,1,0,0:2:0:0:
272,69,89480,2,0,P|317:58|364:56,1,92.8200005665283,8|2,0:2|0:2,0:0:0:0:
441,276,89824,5,2,0:2:0:0:
469,82,89997,1,2,0:2:0:0:
307,316,90169,1,8,0:2:0:0:
199,87,90342,2,0,P|288:116|380:128,1,185.640001133057,2|2,0:2|0:2,0:0:0:0:
183,343,90859,1,8,0:2:0:0:
67,112,91031,1,8,0:2:0:0:
67,112,91118,1,8,0:2:0:0:
68,112,91204,6,0,P|62:158|61:205,1,92.8200005665283,6|0,0:2|0:2,0:0:0:0:
217,349,91549,2,0,P|217:303|211:257,1,92.8200005665283,8|0,0:2|0:2,0:0:0:0:
191,54,91893,1,2,0:2:0:0:
315,220,92066,1,0,0:2:0:0:
68,112,92238,1,8,0:2:0:0:
295,117,92411,1,0,0:2:0:0:
44,253,92583,6,0,P|89:265|136:267,1,92.8200005665283,2|0,0:2|0:2,0:0:0:0:
329,137,92928,1,10,0:2:0:0:
185,29,93100,2,0,P|139:31|94:43,1,92.8200005665283,2|0,0:2|0:2,0:0:0:0:
225,243,93445,1,2,0:2:0:0:
411,75,93618,2,0,P|457:77|502:89,1,92.8200005665283,8|0,0:2|0:2,0:0:0:0:
271,322,93962,5,14,0:2:0:0:
140,120,94135,1,0,0:2:0:0:
419,183,94307,1,0,0:2:0:0:
139,298,94480,5,12,0:2:0:0:
257,38,94652,1,0,0:2:0:0:
398,311,94824,1,0,0:2:0:0:
113,100,94997,5,12,0:2:0:0:
456,164,95169,1,0,0:2:0:0:
259,340,95342,5,14,0:2:0:0:
246,67,95514,1,2,0:2:0:0:
52,240,95686,1,0,0:2:0:0:
366,287,95859,5,10,0:2:0:0:
366,287,95945,1,8,0:2:0:0:
366,287,96031,1,8,0:2:0:0:
123,139,96204,1,2,0:2:0:0:
393,50,96376,1,8,0:2:0:0:
189,306,96549,1,8,0:2:0:0:
189,306,96635,1,8,0:2:0:0:
190,307,96721,6,0,P|183:261|183:214,1,92.8200005665283,6|0,0:2|0:2,0:0:0:0:
390,306,97066,2,0,P|397:261|397:214,1,92.8200005665283,8|0,0:2|0:0,0:0:0:0:
206,51,97411,1,2,0:2:0:0:
414,16,97583,1,0,0:2:0:0:
183,214,97755,1,8,0:2:0:0:
366,287,97928,1,2,0:2:0:0:
178,73,98100,6,0,P|133:81|89:97,1,92.8200005665283,2|2,0:2|0:2,0:0:0:0:
264,293,98445,1,8,0:2:0:0:
424,104,98618,2,0,P|498:156|502:245,1,185.640001133057,2|2,0:2|0:2,0:0:0:0:
307,37,99135,1,8,0:2:0:0:
193,236,99307,1,0,0:2:0:0:
51,33,99480,6,0,P|44:79|44:126,1,92.8200005665283,6|0,0:2|0:2,0:0:0:0:
246,306,99824,2,0,P|232:215|231:122,1,185.640001133057,8|0,0:2|0:2,0:0:0:0:
137,331,100342,1,0,0:2:0:0:
361,378,100514,2,0,P|369:333|369:286,1,92.8200005665283,8|0,0:2|0:2,0:0:0:0:
311,68,100859,5,0,0:2:0:0:
193,236,101031,1,0,0:2:0:0:
400,150,101204,2,0,P|447:150|492:159,1,92.8200005665283,8|0,0:2|0:0,0:0:0:0:
279,357,101549,2,0,P|271:312|271:266,1,92.8200005665283,2|2,0:2|0:2,0:0:0:0:
63,152,101893,6,0,P|64:199|55:244,1,92.8200005665283,10|0,0:2|0:2,0:0:0:0:
399,144,102238,5,14,0:2:0:0:
124,74,102411,1,0,0:2:0:0:
405,56,102583,5,8,0:2:0:0:
83,149,102755,1,0,0:2:0:0:
336,292,102928,5,12,0:2:0:0:
225,47,103100,1,0,0:2:0:0:
232,320,103273,5,8,0:2:0:0:
303,35,103445,1,0,0:2:0:0:
401,262,103618,6,0,P|447:257|491:244,1,92.8200005665283,14|0,0:2|0:0,0:0:0:0:
287,68,103962,1,8,0:2:0:0:
102,236,104135,2,0,P|55:231|11:218,1,92.8200005665283,0|12,0:2|0:2,0:0:0:0:
269,180,104480,1,0,0:0:0:0:
18,327,104652,1,8,0:2:0:0:
67,93,104824,1,0,0:2:0:0:
244,320,104997,5,14,0:2:0:0:
218,74,105169,1,0,0:2:0:0:
11,218,105342,1,0,0:2:0:0:
351,145,105514,5,14,0:2:0:0:
94,44,105686,1,0,0:2:0:0:
144,309,105859,1,0,0:2:0:0:
220,29,106031,5,14,0:2:0:0:
266,296,106204,1,0,0:2:0:0:
62,120,106376,5,14,0:2:0:0:
339,106,106549,1,0,0:2:0:0:
133,297,106721,1,0,0:2:0:0:
295,21,106893,5,10,0:2:0:0:
383,255,107066,1,8,0:2:0:0:
162,35,107238,1,8,0:2:0:0:
466,197,107411,1,8,0:2:0:0:
86,143,107583,1,8,0:2:0:0:
438,123,107755,6,0,P|389:108|338:105,1,101.920001244141,14|0,0:2|0:2,0:0:0:0:
141,261,108100,1,0,0:2:0:0:
407,270,108273,1,8,0:2:0:0:
211,99,108445,2,0,P|218:149|220:200,1,101.920001244141,0|0,0:2|0:2,0:0:0:0:
79,356,108790,1,8,0:2:0:0:
299,241,108962,1,0,0:2:0:0:
65,61,109135,6,0,P|57:111|55:162,1,101.920001244141,12|0,0:2|0:2,0:0:0:0:
121,347,109480,1,0,0:2:0:0:
231,75,109652,2,0,P|238:125|240:176,1,101.920001244141,8|0,0:2|0:2,0:0:0:0:
287,353,109997,1,0,0:2:0:0:
438,74,110169,2,0,P|430:124|428:175,1,101.920001244141,8|0,0:2|0:2,0:0:0:0:
303,358,110514,6,0,P|353:354|402:339,1,101.920001244141,14|0,0:2|0:2,0:0:0:0:
277,156,110859,1,0,0:2:0:0:
103,366,111031,1,8,0:2:0:0:
334,260,111204,2,0,P|285:245|234:241,1,101.920001244141,0|0,0:2|0:0,0:0:0:0:
56,235,111549,1,8,0:2:0:0:
299,118,111721,1,0,0:2:0:0:
113,347,111893,6,0,P|163:343|212:328,1,101.920001244141,12|0,0:2|0:2,0:0:0:0:
380,161,112238,1,0,0:2:0:0:
116,187,112411,2,0,P|65:183|16:168,1,101.920001244141,8|0,0:2|0:2,0:0:0:0:
214,53,112755,1,8,0:3:0:0:
137,318,112928,1,4,0:3:0:0:
73,95,113100,1,4,0:3:0:0:
308,176,113273,6,0,P|316:125|318:74,1,101.920001244141,14|0,0:2|0:2,0:0:0:0:
227,310,113618,1,0,0:2:0:0:
237,62,113790,1,8,0:2:0:0:
420,219,113962,2,0,P|418:269|409:320,1,101.920001244141,0|0,0:2|0:2,0:0:0:0:
195,187,114307,1,8,0:2:0:0:
426,100,114480,1,0,0:2:0:0:
227,310,114652,6,0,P|218:259|216:208,1,101.920001244141,14|0,0:2|0:2,0:0:0:0:
302,40,114997,1,0,0:2:0:0:
73,167,115169,2,0,P|81:116|83:65,1,101.920001244141,8|0,0:2|0:2,0:0:0:0:
290,156,115514,1,0,0:2:0:0:
124,355,115686,2,0,P|115:304|113:253,1,101.920001244141,8|0,0:2|0:2,0:0:0:0:
285,63,116031,6,0,P|333:48|384:44,1,101.920001244141,14|0,0:2|0:2,0:0:0:0:
256,254,116376,1,0,0:2:0:0:
168,42,116549,1,8,0:2:0:0:
370,161,116721,2,0,P|418:175|469:179,1,101.920001244141,0|0,0:2|0:2,0:0:0:0:
145,171,117066,1,8,0:2:0:0:
384,44,117238,1,0,0:2:0:0:
222,271,117411,6,0,P|171:267|122:252,1,101.920001244141,14|0,0:2|0:0,0:0:0:0:
264,42,117755,1,0,0:2:0:0:
386,246,117928,2,0,P|436:242|485:227,1,101.920001244141,8|0,0:2|0:2,0:0:0:0:
157,149,118273,1,8,0:2:0:0:
358,40,118445,2,0,P|368:99|371:146,1,101.920001244141,8|8,0:2|0:2,0:0:0:0:
296,355,118790,5,10,0:2:0:0:
320,200,118962,1,0,0:2:0:0:
166,335,119135,1,0,0:2:0:0:
391,303,119307,1,12,0:2:0:0:
200,226,119480,1,0,0:2:0:0:
392,119,119652,1,0,0:2:0:0:
296,355,119824,1,8,0:2:0:0:
169,141,119997,1,0,0:2:0:0:
169,141,120083,1,0,0:2:0:0:
169,141,120169,5,14,0:2:0:0:
291,207,120342,1,0,0:2:0:0:
95,227,120514,1,0,0:2:0:0:
295,65,120686,1,8,0:2:0:0:
334,293,120859,1,0,0:2:0:0:
169,141,121031,1,0,0:2:0:0:
415,70,121204,1,12,0:2:0:0:
291,207,121376,1,0,0:2:0:0:
512,356,121549,5,6,0:2:0:0:
