osu file format v14

[General]
AudioFilename: audio.mp3
AudioLeadIn: 0
PreviewTime: 29048
Countdown: 0
SampleSet: Soft
StackLeniency: 0.7
Mode: 0
LetterboxInBreaks: 0
WidescreenStoryboard: 1

[Editor]
DistanceSpacing: 1.1
BeatDivisor: 4
GridSize: 8
TimelineZoom: 1

[Metadata]
Title:Start Again
TitleUnicode:Start Again
Artist:ONE OK ROCK
ArtistUnicode:ONE OK ROCK
Creator:A r M i N
Version:Normal
Source:
Tags:Fueled by Ramen OOR Ambitions A-Sketch Sotarks Armin A_r_M_i_N MiracleE Onlybiscuit Nikakis
BeatmapID:2166352
BeatmapSetID:1035167

[Difficulty]
HPDrainRate:3
CircleSize:3
OverallDifficulty:3
ApproachRate:4
SliderMultiplier:1.1
SliderTickRate:1

[Events]
//Background and Video events
0,0,"BG1.jpg",0,0
//Break Periods
//Storyboard Layer 0 (Background)
//Storyboard Layer 1 (Fail)
//Storyboard Layer 2 (Pass)
//Storyboard Layer 3 (Foreground)
//Storyboard Layer 4 (Overlay)
//Storyboard Sound Samples

[TimingPoints]
8445,344.827586206897,4,2,22,52,1,0
19479,-100,4,2,22,62,0,0
29824,-100,4,2,22,72,0,0
30513,-100,4,1,22,82,0,1
38789,-100,4,1,22,82,0,0
41548,-100,4,1,22,82,0,1
46979,-100,4,1,22,82,0,0
47065,-100,4,1,22,92,0,1
49651,-100,4,1,22,92,0,0
51203,-100,4,2,22,92,0,0
52238,-100,4,1,22,92,0,0
52582,-100,4,1,22,72,0,0
63617,-100,4,2,22,72,0,0
85686,-100,4,1,22,82,0,1
93962,-100,4,1,22,82,0,0
96720,-100,4,1,22,82,0,1
102151,-100,4,1,22,82,0,0
102238,-100,4,1,22,92,0,1
107755,-100,4,1,22,72,0,0

[Colours]
Combo1 : 247,183,140
Combo2 : 238,149,175
Combo3 : 106,101,154
Combo4 : 177,54,57
SliderBorder : 252,227,245
SliderTrackOverride : 23,9,34

[HitObjects]
40,32,8445,6,0,P|59:81|75:137,1,110,2|2,0:0|0:0,0:0:0:0:
148,218,9134,2,0,P|163:165|182:113,1,110,2|0,0:0|0:0,0:0:0:0:
258,33,9824,2,0,P|313:35|360:65,1,110,2|2,0:0|0:0,0:0:0:0:
395,167,10513,2,0,P|366:213|364:267,1,110,2|0,0:0|0:0,0:0:0:0:
395,313,11031,6,0,B|309:291|322:362|237:340,1,165,2|2,0:0|0:0,0:0:0:0:
155,269,11893,2,0,P|139:216|120:164,1,110,2|0,0:0|0:0,0:0:0:0:
42,86,12582,2,0,P|88:57|142:55,1,110,2|2,0:0|0:0,0:0:0:0:
193,77,13100,2,0,P|247:75|293:46,1,110,2|2,0:0|0:0,0:0:0:0:
398,81,13789,6,0,B|434:180|434:180|398:227,1,165,2|0,0:0|0:0,0:0:0:0:
328,312,14651,2,0,P|276:292|223:277,1,110,2|2,0:0|0:0,0:0:0:0:
142,203,15341,2,0,P|193:183|246:168,1,110,2|0,0:0|0:0,0:0:0:0:
300,158,15858,2,0,P|298:103|269:57,1,110,2|2,0:0|0:0,0:0:0:0:
165,22,16548,6,0,B|84:44|84:44|45:69|39:113,1,165,2|2,0:0|0:0,0:0:0:0:
66,156,17238,1,2,0:0:0:0:
97,200,17410,2,0,P|78:208|49:225,2,55,2|2|2,0:0|0:0|0:0,0:0:0:0:
169,282,18100,2,0,B|255:260|242:331|327:309,2,165,2|2|2,0:0|0:0|0:0,0:0:0:0:
61,303,19479,6,0,P|76:250|97:200,1,110,6|2,1:2|3:2,0:0:0:0:
173,120,20169,1,2,3:2:0:0:
266,178,20513,1,2,3:2:0:0:
341,97,20858,2,0,P|395:98|441:127,1,110,2|0,3:2|3:2,0:0:0:0:
496,222,21548,2,0,P|475:272|460:325,1,110,2|2,3:2|3:2,0:0:0:0:
412,354,22065,1,2,0:2:0:0:
365,323,22238,6,0,P|310:324|264:353,1,110,2|2,3:2|3:2,0:0:0:0:
164,307,22927,2,0,P|149:254|128:203,1,110,2|0,3:2|3:2,0:0:0:0:
96,158,23445,2,0,P|142:129|196:127,1,110,2|0,0:2|0:0,0:0:0:0:
295,175,24134,1,2,0:2:0:0:
360,86,24479,1,2,0:2:0:0:
456,138,24824,6,0,B|492:237|492:237|456:284,1,165,2|2,0:2|3:2,0:0:0:0:
383,367,25686,2,0,P|332:346|279:331,1,110,2|2,3:2|3:2,0:0:0:0:
217,239,26376,2,0,P|166:259|113:274,1,110,2|2,3:2|3:2,0:0:0:0:
22,212,27065,2,0,P|23:157|52:111,1,110,2|2,3:2|3:2,0:0:0:0:
102,87,27582,1,2,0:3:0:0:
150,111,27755,6,0,P|204:109|250:80,1,110,4|4,1:3|1:3,0:0:0:0:
339,15,28445,2,0,P|393:16|439:45,1,110,4|4,1:3|1:3,0:0:0:0:
474,149,29134,1,4,1:3:0:0:
385,215,29479,1,4,1:3:0:0:
441,309,29824,2,0,P|414:316|389:326,1,55,4|0,1:3|1:0,0:0:0:0:
356,371,30169,2,0,P|329:363|304:353,1,55,8|8,1:2|1:2,0:0:0:0:
265,314,30513,6,0,P|238:321|213:331,2,55,6|0|8,0:2|0:2|0:2,0:0:0:0:
327,223,31203,2,0,P|325:168|296:122,1,110,2|8,0:2|0:2,0:0:0:0:
195,77,31893,2,0,P|202:50|212:25,2,55,2|2|8,0:2|0:2|0:2,0:0:0:0:
186,131,32410,2,0,P|134:151|81:166,1,110,2|2,0:2|0:2,0:0:0:0:
34,137,32927,1,8,0:2:0:0:
4,242,33272,6,0,P|50:270|104:272,1,110,4|8,0:2|0:2,0:0:0:0:
152,299,33789,2,0,P|198:270|252:268,1,110,0|0,0:0|0:2,0:0:0:0:
288,226,34307,1,8,0:2:0:0:
351,315,34651,2,0,P|361:340|368:367,2,55,2|2|8,0:2|0:2|0:2,0:0:0:0:
390,276,35169,2,0,P|404:223|425:171,1,110,2|2,0:2|0:2,0:0:0:0:
458,128,35686,1,8,0:2:0:0:
356,88,36031,6,0,P|349:61|338:35,2,55,6|0|8,0:2|0:2|0:2,0:0:0:0:
318,128,36548,2,0,P|263:126|217:97,1,110,0|0,0:2|0:2,0:0:0:0:
191,48,37065,1,8,0:2:0:0:
84,76,37410,2,0,P|58:65|32:58,2,55,2|0|10,0:2|0:2|0:2,0:0:0:0:
111,124,37927,2,0,P|90:174|76:228,1,110,2|2,0:2|0:2,0:0:0:0:
111,270,38445,1,8,0:2:0:0:
206,288,38789,6,0,P|195:313|188:339,2,55,14|0|0,0:2|0:2|0:2,0:0:0:0:
254,262,39307,2,0,P|247:235|236:210,2,55,12|0|0,0:2|0:2|0:2,0:0:0:0:
300,292,39824,1,12,0:2:0:0:
399,245,40169,2,0,P|388:219|381:193,2,55,14|2|0,0:2|0:2|0:2,0:0:0:0:
447,271,40686,2,0,P|440:297|429:322,2,55,10|8|2,0:2|0:2|0:2,0:0:0:0:
496,245,41203,1,8,0:2:0:0:
455,142,41548,6,0,P|408:113|354:111,1,110,6|8,0:2|0:2,0:0:0:0:
262,50,42238,2,0,P|215:78|161:80,1,110,2|8,0:2|0:2,0:0:0:0:
51,72,42927,2,0,P|58:45|68:20,2,55,2|2|8,0:2|0:2|0:2,0:0:0:0:
60,126,43445,2,0,P|81:176|95:230,1,110,2|2,0:2|0:2,0:0:0:0:
77,282,43962,1,8,0:2:0:0:
186,292,44307,6,0,P|175:317|168:343,2,55,6|0|8,0:2|0:2|0:2,0:0:0:0:
228,256,44824,2,0,P|282:257|328:286,1,110,0|0,0:0|0:2,0:0:0:0:
353,335,45341,1,8,0:2:0:0:
436,262,45686,2,0,P|461:272|487:279,2,55,0|0|8,0:2|0:2|0:2,0:0:0:0:
373,170,46376,1,2,0:2:0:0:
462,106,46720,1,10,0:2:0:0:
400,15,47065,6,0,P|345:16|299:45,1,110,0|0,0:0|0:0,0:0:0:0:
238,137,47755,2,0,P|183:135|137:106,1,110,0|0,0:0|0:0,0:0:0:0:
35,148,48445,2,0,P|55:189|81:263,1,110,0|0,0:0|0:0,0:0:0:0:
144,336,49134,2,0,P|162:284|186:234,1,110,0|0,0:0|0:0,0:0:0:0:
256,192,49651,12,0,51203,0:0:0:0:
131,179,52582,6,0,B|119:230|119:230|142:285|142:285|131:336,2,165,14|8|8,0:2|0:2|0:2,0:0:0:0:
155,71,53962,2,0,P|65:90|24:149,2,165,12|8|8,1:2|1:2|1:2,0:0:0:0:
226,149,55341,6,0,P|287:217|359:223,2,165,14|8|8,0:2|0:2|0:2,0:0:0:0:
250,41,56720,2,0,B|301:15|301:15|330:62|331:117,2,165,12|8|4,0:2|0:2|0:3,0:0:0:0:
232,94,57927,1,4,0:3:0:0:
226,149,58100,6,0,B|140:127|153:198|68:176,2,165,14|8|8,1:2|1:2|1:2,0:0:0:0:
311,217,59479,2,0,P|293:304|283:381,2,165,14|8|8,0:2|1:2|0:2,0:0:0:0:
374,127,60858,6,0,P|464:108|505:49,2,165,8|8|8,0:2|0:2|0:2,0:0:0:0:
269,92,62238,2,0,P|179:111|138:170,1,165,8|8,0:2|0:2,0:0:0:0:
104,210,62927,2,0,P|113:235|120:262,1,55,0|8,0:2|0:2,0:0:0:0:
169,287,63272,2,0,P|159:312|151:339,1,55,8|8,0:2|0:2,0:0:0:0:
200,364,63617,6,0,P|252:344|305:329,1,110,4|8,1:2|0:2,0:0:0:0:
378,247,64307,1,2,1:2:0:0:
283,191,64651,1,10,0:2:0:0:
352,105,64996,2,0,P|300:85|247:70,1,110,2|8,1:2|0:2,0:0:0:0:
216,24,65513,2,0,P|164:43|111:58,1,110,2|2,0:2|0:2,0:0:0:0:
61,34,66031,1,8,0:2:0:0:
41,142,66376,6,0,P|61:194|76:247,1,110,0|8,1:2|0:2,0:0:0:0:
87,355,67065,2,0,P|61:344|34:337,2,55,0|2|8,1:2|0:2|0:2,0:0:0:0:
135,328,67582,2,0,P|187:312|239:293,1,110,2|0,0:2|0:0,0:0:0:0:
267,245,68100,1,8,0:2:0:0:
344,323,68445,2,0,P|398:321|444:292,1,110,2|8,1:2|0:2,0:0:0:0:
471,244,68962,1,10,0:2:0:0:
435,201,69134,6,0,P|415:149|400:96,1,110,0|8,1:2|0:2,0:0:0:0:
321,19,69824,2,0,P|266:20|220:49,1,110,2|8,1:2|0:2,0:0:0:0:
199,100,70341,2,0,P|152:128|98:130,1,110,2|0,0:2|0:2,0:0:0:0:
53,98,70858,1,8,0:2:0:0:
14,201,71203,2,0,P|33:252|48:305,1,110,0|8,1:2|0:2,0:0:0:0:
145,358,71893,6,0,P|199:356|245:327,1,110,0|8,1:2|0:2,0:0:0:0:
276,281,72410,1,0,0:2:0:0:
255,229,72582,2,0,P|261:202|272:176,2,55,0|0|8,1:2|0:2|0:2,0:0:0:0:
364,214,73272,2,0,P|427:253|416:343,2,165,0|0|8,1:2|1:2|0:2,0:0:0:0:
309,220,74479,1,8,0:2:0:0:
255,229,74651,6,0,P|202:213|150:194,1,110,4|8,1:2|0:2,0:0:0:0:
73,115,75341,1,2,1:2:0:0:
148,34,75686,1,10,0:2:0:0:
225,112,76031,2,0,P|279:109|326:82,1,110,2|8,1:2|0:2,0:0:0:0:
354,34,76548,2,0,P|408:36|455:63,1,110,2|2,0:2|0:2,0:0:0:0:
483,111,77065,1,8,0:2:0:0:
391,171,77410,6,0,P|372:222|356:275,1,110,0|8,1:2|0:2,0:0:0:0:
256,321,78100,2,0,P|266:346|272:373,2,55,2|2|8,1:2|0:2|0:2,0:0:0:0:
218,280,78617,2,0,P|163:282|116:309,1,110,2|2,0:2|0:2,0:0:0:0:
9,334,79307,2,0,P|24:281|43:229,1,110,2|2,0:2|0:2,0:0:0:0:
29,120,79996,6,0,P|81:104|133:85,1,110,2|0,0:2|0:0,0:0:0:0:
164,39,80513,2,0,P|215:57|268:73,1,110,8|0,0:2|1:2,0:0:0:0:
367,26,81203,1,8,0:2:0:0:
438,110,81548,2,0,P|435:164|408:211,1,110,6|8,1:2|0:2,0:0:0:0:
307,256,82238,2,0,P|255:237|202:221,1,110,6|8,1:2|0:2,0:0:0:0:
116,152,82927,6,0,P|167:133|220:117,1,110,6|8,1:2|0:2,0:0:0:0:
279,24,83617,1,4,1:2:0:0:
376,75,83962,1,12,0:2:0:0:
376,75,85686,6,0,P|383:48|393:23,2,55,6|0|8,0:2|0:2|0:2,0:0:0:0:
405,181,86376,2,0,P|358:209|304:211,1,110,2|8,0:2|0:2,0:0:0:0:
218,142,87065,2,0,P|211:115|201:90,2,55,2|2|8,0:2|0:2|0:2,0:0:0:0:
175,177,87582,2,0,P|155:228|140:281,1,110,2|2,0:2|0:2,0:0:0:0:
99,318,88100,1,8,0:2:0:0:
190,378,88445,6,0,P|244:376|290:347,1,110,6|8,0:2|0:2,0:0:0:0:
309,295,88962,2,0,P|310:240|339:194,1,110,0|0,0:0|0:2,0:0:0:0:
391,176,89479,1,8,0:2:0:0:
330,84,89824,2,0,P|337:57|347:32,2,55,2|2|8,0:2|0:2|0:2,0:0:0:0:
284,115,90341,2,0,P|231:130|179:149,1,110,2|2,0:2|0:2,0:0:0:0:
144,192,90858,1,8,0:2:0:0:
62,117,91203,6,0,P|68:90|79:65,2,55,6|0|8,0:2|0:2|0:2,0:0:0:0:
19,152,91720,2,0,P|38:203|53:256,1,110,0|0,0:2|0:2,0:0:0:0:
24,303,92238,1,8,0:2:0:0:
131,325,92582,2,0,P|120:350|113:376,2,55,2|0|10,0:2|0:2|0:2,0:0:0:0:
166,282,93100,2,0,P|212:310|266:312,1,110,2|2,0:2|0:2,0:0:0:0:
315,286,93617,1,8,0:2:0:0:
385,201,93962,6,0,P|411:208|436:219,2,55,14|0|0,0:2|0:2|0:2,0:0:0:0:
346,160,94479,2,0,P|319:167|294:178,2,55,12|0|0,0:2|0:2|0:2,0:0:0:0:
366,108,94996,1,12,0:2:0:0:
268,56,95341,2,0,P|275:29|286:4,2,55,14|2|0,0:2|0:2|0:2,0:0:0:0:
215,71,95858,2,0,P|226:96|233:122,2,55,10|8|2,0:2|0:2|0:2,0:0:0:0:
162,54,96376,1,8,0:2:0:0:
81,128,96720,6,0,P|83:182|112:228,1,110,6|8,0:2|0:2,0:0:0:0:
219,253,97410,2,0,P|264:223|319:221,1,110,2|8,0:2|0:2,0:0:0:0:
420,264,98100,2,0,P|409:289|402:316,2,55,2|2|8,0:2|0:2|0:2,0:0:0:0:
464,231,98617,2,0,P|449:178|429:126,1,110,2|2,0:2|0:2,0:0:0:0:
460,80,99134,1,8,0:2:0:0:
351,62,99479,6,0,P|343:35|332:10,2,55,6|0|8,0:2|0:2|0:2,0:0:0:0:
314,103,99996,2,0,P|294:154|279:207,1,110,0|0,0:0|0:2,0:0:0:0:
294,260,100513,1,8,0:2:0:0:
400,288,100858,2,0,P|410:313|417:339,2,55,0|0|8,0:2|0:2|0:2,0:0:0:0:
383,178,101548,1,2,0:2:0:0:
296,110,101893,1,10,0:2:0:0:
198,158,102238,6,0,L|141:145,1,55,14|0,0:2|0:2,0:0:0:0:
91,130,102583,2,0,L|61:180,1,55,8|0,0:2|0:2,0:0:0:0:
37,226,102928,1,12,0:2:0:0:
114,304,103273,1,8,0:2:0:0:
214,259,103618,6,0,L|271:272,1,55,14|0,0:2|0:0,0:0:0:0:
321,287,103962,2,0,L|350:236,1,55,8|0,0:2|0:2,0:0:0:0:
375,191,104307,1,12,0:2:0:0:
298,113,104652,1,8,0:2:0:0:
198,158,104997,6,0,P|184:104|163:54,1,110,14|0,0:2|0:2,0:0:0:0:
115,26,105514,2,0,P|61:27|15:56,1,110,14|0,0:2|0:2,0:0:0:0:
0,109,106031,1,14,0:2:0:0:
54,201,106376,2,0,P|43:226|36:252,2,55,14|0|0,0:2|0:2|0:2,0:0:0:0:
103,175,106893,1,10,0:2:0:0:
145,212,107066,2,0,L|198:199,1,55,8|0,0:2|0:0,0:0:0:0:
235,158,107411,2,0,L|288:170,1,55,8|0,0:2|0:0,0:0:0:0:
324,212,107755,6,0,B|410:190|397:261|482:239,2,165,14|8|8,0:2|0:2|0:2,0:0:0:0:
218,238,109135,2,0,P|265:304|345:319,2,165,12|8|8,1:2|1:2|1:2,0:0:0:0:
245,132,110514,6,0,B|276:31|276:31|247:9|211:5,2,165,14|8|8,0:2|0:2|0:2,0:0:0:0:
139,163,111893,2,0,B|34:127|34:127|57:122|83:103,2,165,12|8|4,0:2|0:2|0:3,0:0:0:0:
178,202,113100,1,4,0:3:0:0:
219,239,113273,6,0,P|170:309|132:381,2,165,14|8|8,0:2|1:2|1:2,0:0:0:0:
312,180,114652,2,0,B|366:210|366:210|413:192|413:192|462:216,2,165,14|8|8,0:2|1:2|0:2,0:0:0:0:
225,110,116031,6,0,P|295:70|374:88,2,165,14|8|8,0:2|0:2|0:2,0:0:0:0:
203,218,117411,2,0,B|117:196|130:267|45:245,1,165,14|0,0:2|0:0,0:0:0:0:
8,205,118100,2,0,P|15:178|25:152,1,55,0|8,0:2|0:2,0:0:0:0:
68,118,118445,2,0,P|60:91|50:65,1,55,8|8,0:2|0:2,0:0:0:0:
19,20,118790,6,0,P|86:42|181:57,1,165,10|12,0:2|0:2,0:0:0:0:
341,24,119824,1,8,0:2:0:0:
418,101,120169,2,0,P|396:168|381:263,1,165,14|8,0:2|0:2,0:0:0:0:
218,232,121204,1,12,0:2:0:0:
151,319,121549,1,6,0:2:0:0:
