osu file format v14

[General]
AudioFilename: audio.mp3
AudioLeadIn: 0
PreviewTime: 29048
Countdown: 0
SampleSet: Normal
StackLeniency: 0.7
Mode: 0
LetterboxInBreaks: 0
WidescreenStoryboard: 0

[Editor]
Bookmarks: 91376
DistanceSpacing: 1.2
BeatDivisor: 4
GridSize: 8
TimelineZoom: 1.3

[Metadata]
Title:Start Again
TitleUnicode:Start Again
Artist:ONE OK ROCK
ArtistUnicode:ONE OK ROCK
Creator:A r M i N
Version:MiracleE's Insane
Source:
Tags:Fueled by Ramen OOR Ambitions A-Sketch Sotarks Armin A_r_M_i_N MiracleE Onlybiscuit Nikakis
BeatmapID:2168425
BeatmapSetID:1035167

[Difficulty]
HPDrainRate:5.4
CircleSize:4
OverallDifficulty:8
ApproachRate:9
SliderMultiplier:1.62
SliderTickRate:1

[Events]
//Background and Video events
0,0,"BG1.jpg",0,0
//Break Periods
2,49851,51551
//Storyboard Layer 0 (Background)
//Storyboard Layer 1 (Fail)
//Storyboard Layer 2 (Pass)
//Storyboard Layer 3 (Foreground)
//Storyboard Layer 4 (Overlay)
//Storyboard Sound Samples

[TimingPoints]
8445,344.827586206897,4,2,22,52,1,0
8445,-138.888888888889,4,2,22,52,0,0
19479,-121.951219512195,4,2,22,62,0,0
29134,-98.0392156862744,4,2,22,62,0,0
29824,-98.0392156862745,4,2,22,72,0,0
30513,-89.2857142857143,4,1,22,82,0,1
38789,-83.3333333333333,4,1,22,82,0,0
41548,-90.9090909090909,4,1,22,82,0,1
46979,-83.3333333333333,4,1,22,82,0,0
47065,-83.3333333333333,4,1,22,92,0,1
47324,-83.3333333333333,4,1,22,5,0,1
47410,-83.3333333333333,4,1,22,92,0,1
47669,-83.3333333333333,4,1,22,5,0,1
47755,-83.3333333333333,4,1,22,92,0,1
48013,-83.3333333333333,4,1,22,5,0,1
48100,-83.3333333333333,4,1,22,92,0,1
48358,-83.3333333333333,4,1,22,5,0,1
48445,-83.3333333333333,4,1,22,92,0,1
48703,-83.3333333333333,4,1,22,5,0,1
48789,-83.3333333333333,4,1,22,92,0,1
49048,-83.3333333333333,4,1,22,5,0,1
49134,-83.3333333333333,4,1,22,92,0,1
49651,-166.666666666667,4,1,22,92,0,0
52496,-166.666666666667,4,1,22,5,0,0
52582,-90.9090909090909,4,1,22,82,0,0
63617,-125,4,2,22,72,0,0
84307,-166.666666666667,4,2,22,72,0,0
85686,-89.2857142857143,4,1,22,82,0,1
93962,-83.3333333333333,4,1,22,82,0,0
96720,-89.2857142857143,4,1,22,82,0,1
102151,-83.3333333333333,4,1,22,82,0,0
102238,-83.3333333333333,4,1,22,92,0,1
107755,-90.9090909090909,4,1,22,72,0,0
118789,-125,4,1,22,72,0,0

[Colours]
Combo1 : 247,183,140
Combo2 : 238,149,175
Combo3 : 106,101,154
Combo4 : 177,54,57
SliderBorder : 252,227,245
SliderTrackOverride : 23,9,34

[HitObjects]
136,112,8445,6,0,P|132:156|126:187,3,58.3200014238282,2|0|2|0,0:0|0:0|0:0|0:0,0:0:0:0:
69,255,9134,2,0,P|99:279|126:283,1,58.3200014238282,2|0,0:0|0:0,0:0:0:0:
175,339,9479,2,0,P|213:338|236:323,1,58.3200014238282,0|2,0:0|0:0,0:0:0:0:
279,237,9824,2,0,P|338:201|400:197,1,116.640002847656,2|2,0:0|0:0,0:0:0:0:
472,245,10341,1,0,0:0:0:0:
472,245,10513,2,0,P|478:197|484:173,1,58.3200014238282,2|0,0:0|0:0,0:0:0:0:
503,96,10858,1,0,0:0:0:0:
503,96,11031,1,2,0:0:0:0:
373,177,11203,6,0,L|309:162,3,58.3200014238282,2|0|2|0,0:0|0:0|0:0|0:0,0:0:0:0:
210,245,11893,2,0,P|246:246|274:232,1,58.3200014238282,2|0,0:0|0:0,0:0:0:0:
241,101,12238,2,0,P|228:136|224:164,1,58.3200014238282,0|2,0:0|0:0,0:0:0:0:
106,244,12582,2,0,P|98:183|75:123,1,116.640002847656,2|2,0:0|0:0,0:0:0:0:
229,89,13100,2,0,P|216:124|212:152,1,58.3200014238282,2|0,0:0|0:0,0:0:0:0:
337,169,13445,2,0,P|331:138|320:109,1,58.3200014238282,2|0,0:0|0:0,0:0:0:0:
253,257,13789,1,2,0:0:0:0:
253,257,13962,6,0,P|261:299|269:319,3,58.3200014238282,0|0|0|2,0:0|0:0|0:0|0:0,0:0:0:0:
384,242,14651,2,0,P|379:272|369:301,1,58.3200014238282,2|0,0:0|0:0,0:0:0:0:
337,169,14996,2,0,P|365:150|401:139,1,58.3200014238282,2|0,0:0|0:0,0:0:0:0:
266,245,15341,2,0,P|236:234|211:216,1,58.3200014238282,2|0,0:0|0:0,0:0:0:0:
130,126,15686,1,0,0:0:0:0:
130,126,15858,2,0,L|125:189,1,58.3200014238282,2|0,0:0|0:0,0:0:0:0:
38,258,16203,2,0,L|33:196,1,58.3200014238282,2|0,0:0|0:0,0:0:0:0:
211,216,16548,1,2,0:0:0:0:
47,79,16720,5,2,0:0:0:0:
47,79,17065,2,0,P|91:53|112:48,1,58.3200014238282,2|2,0:0|0:0,0:0:0:0:
180,36,17410,2,0,P|224:62|245:67,1,58.3200014238282,2|2,0:0|0:0,0:0:0:0:
308,137,17755,2,0,P|315:96|321:72,1,58.3200014238282,2|0,0:0|0:0,0:0:0:0:
428,19,18100,1,2,0:0:0:0:
428,19,18272,2,0,P|446:75|453:148,1,116.640002847656,2|2,0:0|0:0,0:0:0:0:
357,240,18962,5,0,0:0:0:0:
430,164,19134,1,2,0:0:0:0:
458,267,19307,1,0,0:0:0:0:
231,200,19479,6,0,P|223:160|210:132,1,66.4200010134888,6|2,1:2|0:2,0:0:0:0:
325,258,19824,1,2,3:2:0:0:
351,129,19996,1,0,0:2:0:0:
234,283,20169,2,0,P|191:299|156:291,1,66.4200010134888,2|0,3:2|0:2,0:0:0:0:
51,219,20513,2,0,P|85:216|117:231,1,66.4200010134888,2|0,3:2|0:2,0:0:0:0:
72,377,20858,6,0,P|64:329|57:295,1,66.4200010134888,2|0,3:2|0:0,0:0:0:0:
209,206,21203,2,0,P|202:240|196:275,1,66.4200010134888,0|2,3:2|0:2,0:0:0:0:
78,149,21548,2,0,P|84:183|90:218,1,66.4200010134888,2|0,3:2|0:2,0:0:0:0:
221,114,21893,1,2,3:2:0:0:
137,78,22065,1,2,0:2:0:0:
308,140,22238,6,0,P|304:186|298:221,1,66.4200010134888,2|2,3:2|0:2,0:0:0:0:
380,92,22582,1,2,3:2:0:0:
217,203,22755,1,0,0:2:0:0:
217,203,22927,2,0,P|211:168|209:132,1,66.4200010134888,2|0,3:2|0:0,0:0:0:0:
298,294,23272,1,0,3:2:0:0:
142,252,23445,1,2,0:2:0:0:
300,210,23617,6,0,B|389:198|357:246|442:250,1,132.840002026978,2|0,3:2|3:2,0:0:0:0:
338,378,24134,2,0,P|324:334|324:309,1,66.4200010134888,2|0,0:2|3:2,0:0:0:0:
461,257,24479,2,0,P|459:292|446:325,1,66.4200010134888,2|0,0:2|3:2,0:0:0:0:
370,183,24824,1,2,0:2:0:0:
304,368,24996,6,0,L|293:297,1,66.4200010134888,2|0,3:2|0:2,0:0:0:0:
217,180,25341,1,2,3:2:0:0:
347,207,25513,1,0,0:2:0:0:
191,320,25686,2,0,P|123:301|99:259,1,99.6300015202332,2|0,3:2|0:0,0:0:0:0:
131,192,26031,2,0,P|148:144|149:88,1,99.6300015202332,2|0,3:2|0:0,0:0:0:0:
87,21,26376,5,2,3:2:0:0:
29,208,26720,1,2,3:2:0:0:
191,16,27065,1,2,3:2:0:0:
231,244,27410,1,2,3:2:0:0:
304,98,27582,1,2,0:3:0:0:
302,330,27755,6,0,L|306:297,3,33.2100005067444,4|0|0|0,1:3|0:0|0:0|0:0,0:0:0:0:
231,244,28100,2,0,L|235:211,3,33.2100005067444,4|0|0|0,1:3|0:0|0:0|0:0,0:0:0:0:
149,286,28445,2,0,L|116:281,3,33.2100005067444,4|0|0|0,1:3|0:0|0:0|0:0,0:0:0:0:
111,190,28789,2,0,L|144:195,3,33.2100005067444,4|0|0|0,1:3|0:0|0:0|0:0,0:0:0:0:
203,125,29134,6,0,P|208:105|220:88,3,41.3100002521362,4|0|4|0,1:3|1:0|1:3|1:0,0:0:0:0:
243,218,29479,1,4,1:3:0:0:
243,218,29565,1,0,1:0:0:0:
243,218,29651,2,0,L|296:212,1,41.3100002521362,4|0,1:3|1:0,0:0:0:0:
152,244,29824,2,0,L|148:287,3,41.3100002521362,4|0|0|0,1:3|1:0|1:0|1:0,0:0:0:0:
207,351,30169,1,8,1:2:0:0:
233,351,30255,1,8,1:2:0:0:
259,345,30341,1,8,1:2:0:0:
283,334,30427,1,8,1:2:0:0:
304,317,30513,6,0,P|319:252|324:215,1,90.7200011074219,6|0,0:2|0:2,0:0:0:0:
190,72,30858,2,0,B|171:189|231:130|224:273,1,181.440002214844,8|2,0:2|0:2,0:0:0:0:
117,224,31376,1,0,0:2:0:0:
267,103,31548,2,0,P|318:78|359:81,1,90.7200011074219,8|2,0:2|0:2,0:0:0:0:
355,334,31893,5,2,0:2:0:0:
355,334,32065,2,0,P|340:269|335:232,1,90.7200011074219,2|8,0:2|0:2,0:0:0:0:
480,128,32410,2,0,P|429:153|388:150,1,90.7200011074219,2|0,0:2|0:2,0:0:0:0:
183,78,32755,2,0,P|227:79|266:102,1,90.7200011074219,2|8,0:2|0:2,0:0:0:0:
235,269,33100,1,2,0:2:0:0:
382,50,33272,6,0,P|375:111|363:142,1,90.7200011074219,4|0,0:2|0:0,0:0:0:0:
177,191,33617,1,8,0:2:0:0:
413,219,33789,2,0,P|367:275|258:277,1,181.440002214844,0|0,0:0|0:2,0:0:0:0:
98,140,34307,2,0,P|158:138|198:168,1,90.7200011074219,8|2,0:2|0:2,0:0:0:0:
144,347,34651,5,2,0:2:0:0:
144,347,34824,2,0,P|134:263|130:249,1,90.7200011074219,2|8,0:2|0:2,0:0:0:0:
302,165,35169,2,0,P|292:209|290:254,1,90.7200011074219,2|0,0:2|0:2,0:0:0:0:
255,100,35513,1,2,0:2:0:0:
368,265,35686,1,8,0:2:0:0:
183,152,35858,1,8,0:2:0:0:
183,152,35945,1,8,0:2:0:0:
183,152,36031,6,0,P|123:129|87:122,1,90.7200011074219,6|0,0:2|0:2,0:0:0:0:
280,74,36376,2,0,P|340:51|376:44,1,90.7200011074219,8|0,0:2|0:2,0:0:0:0:
235,259,36720,2,0,P|209:211|210:168,1,90.7200011074219,2|0,0:2|0:2,0:0:0:0:
366,287,37065,2,0,P|392:239|391:196,1,90.7200011074219,8|0,0:2|0:2,0:0:0:0:
170,331,37410,5,2,0:2:0:0:
170,331,37582,2,0,P|217:359|257:366,1,90.7200011074219,0|10,0:2|0:2,0:0:0:0:
329,136,37927,2,0,P|311:183|307:227,1,90.7200011074219,2|0,0:2|0:2,0:0:0:0:
486,325,38272,2,0,P|480:280|463:238,1,90.7200011074219,2|8,0:2|0:2,0:0:0:0:
374,52,38617,1,0,0:2:0:0:
237,267,38789,6,0,P|185:248|128:237,1,97.1999970336915,14|0,0:2|0:2,0:0:0:0:
278,48,39134,1,0,0:2:0:0:
322,335,39307,2,0,P|270:354|213:365,1,97.1999970336915,12|0,0:2|0:2,0:0:0:0:
359,77,39651,1,0,0:2:0:0:
359,77,39824,2,0,L|376:175,1,97.1999970336915,12|0,0:2|0:2,0:0:0:0:
126,236,40169,5,14,0:2:0:0:
126,236,40341,2,0,P|171:200|215:193,1,97.1999970336915,2|0,0:2|0:2,0:0:0:0:
400,277,40686,2,0,P|406:307|413:327,2,48.5999985168458,10|8|8,0:2|0:2|0:2,0:0:0:0:
267,98,41031,1,2,0:2:0:0:
473,174,41203,1,8,0:2:0:0:
262,308,41376,1,8,0:2:0:0:
262,308,41462,1,8,0:2:0:0:
262,308,41548,6,0,P|242:246|239:212,1,89.1000027191163,6|0,0:2|0:2,0:0:0:0:
490,113,41893,2,0,P|423:194|331:189,1,178.200005438233,8|2,0:2|0:2,0:0:0:0:
405,9,42410,1,0,0:2:0:0:
405,9,42582,2,0,P|401:76|397:108,1,89.1000027191163,8|2,0:2|0:2,0:0:0:0:
203,188,42927,5,2,0:2:0:0:
203,188,43100,2,0,P|197:139|195:91,1,89.1000027191163,2|8,0:2|0:2,0:0:0:0:
373,203,43445,2,0,P|369:270|365:302,1,89.1000027191163,2|0,0:2|0:2,0:0:0:0:
282,132,43789,1,2,0:2:0:0:
464,253,43962,2,0,P|460:320|456:352,1,89.1000027191163,8|0,0:2|0:2,0:0:0:0:
203,188,44307,6,0,P|267:165|304:163,1,89.1000027191163,6|0,0:2|0:2,0:0:0:0:
258,350,44651,2,0,P|164:353|104:281,1,178.200005438233,8|0,0:2|0:2,0:0:0:0:
127,118,45169,1,0,0:2:0:0:
265,254,45341,2,0,P|329:277|366:279,1,89.1000027191163,8|0,0:2|0:2,0:0:0:0:
371,110,45686,5,0,0:2:0:0:
432,232,45858,1,0,0:2:0:0:
257,62,46031,2,0,P|268:133|275:165,1,89.1000027191163,8|0,0:2|0:0,0:0:0:0:
167,297,46376,2,0,P|175:253|181:209,1,89.1000027191163,2|2,0:2|0:2,0:0:0:0:
21,55,46720,2,0,P|57:128|121:121,1,133.650004078674,10|0,0:2|0:0,0:0:0:0:
123,106,47065,6,0,P|167:76|266:63,1,145.799995550537,0|0,0:0|0:0,0:0:0:0:
308,122,47410,2,0,P|352:152|451:165,1,145.799995550537,0|0,0:0|0:0,0:0:0:0:
508,97,47755,2,0,P|451:72|409:139,1,145.799995550537,0|0,0:0|0:0,0:0:0:0:
468,195,48100,2,0,P|491:246|494:338,1,145.799995550537,0|0,0:0|0:0,0:0:0:0:
375,357,48445,6,0,P|331:317|234:299,1,145.799995550537,0|0,0:0|0:0,0:0:0:0:
154,288,48789,2,0,P|224:274|280:228,1,145.799995550537,0|0,0:0|0:0,0:0:0:0:
247,125,49134,2,0,P|238:173|225:224,1,97.1999970336915,0|0,0:0|0:0,0:0:0:0:
177,70,49479,1,0,0:0:0:0:
380,213,49651,5,0,0:0:0:0:
102,246,52151,6,0,P|116:186|131:153,1,97.1999970336915
194,108,52582,6,0,B|307:106|241:182|365:189,1,178.200005438233,14|0,0:2|0:2,0:0:0:0:
227,285,53100,1,8,0:2:0:0:
227,285,53272,2,0,P|206:235|206:198,1,89.1000027191163,0|0,0:2|0:2,0:0:0:0:
382,258,53617,2,0,P|379:302|360:342,1,89.1000027191163,8|0,0:2|0:2,0:0:0:0:
309,118,53962,5,12,0:2:0:0:
309,118,54134,2,0,P|356:91|395:86,1,89.1000027191163,0|0,0:2|0:2,0:0:0:0:
187,213,54479,2,0,P|143:204|106:180,1,89.1000027191163,8|0,0:2|0:2,0:0:0:0:
299,244,54824,1,0,0:2:0:0:
139,94,54996,2,0,P|185:56|215:50,1,89.1000027191163,8|0,0:2|0:2,0:0:0:0:
273,308,55341,6,0,P|272:232|293:127,1,178.200005438233,14|0,0:2|0:2,0:0:0:0:
388,227,55858,1,8,0:2:0:0:
195,296,56031,2,0,P|152:283|121:252,1,89.1000027191163,0|0,0:2|0:0,0:0:0:0:
350,293,56376,2,0,P|371:342|378:377,1,89.1000027191163,8|0,0:2|0:2,0:0:0:0:
134,333,56720,5,12,0:2:0:0:
134,333,56893,2,0,P|102:301|89:259,1,89.1000027191163,0|0,0:2|0:0,0:0:0:0:
215,118,57238,2,0,P|229:160|222:203,1,89.1000027191163,8|0,0:2|0:2,0:0:0:0:
16,279,57582,1,8,0:3:0:0:
103,69,57755,1,4,0:3:0:0:
103,69,57927,1,4,0:3:0:0:
219,293,58100,6,0,P|283:351|361:311,1,178.200005438233,14|0,0:2|0:2,0:0:0:0:
446,189,58617,1,8,0:2:0:0:
446,189,58789,2,0,P|394:158|364:161,1,89.1000027191163,0|0,0:2|0:2,0:0:0:0:
212,256,59134,2,0,P|255:253|290:226,1,89.1000027191163,8|0,0:2|0:2,0:0:0:0:
320,30,59479,5,14,0:2:0:0:
320,30,59651,2,0,P|304:83|302:123,1,89.1000027191163,0|0,0:2|0:2,0:0:0:0:
405,282,59996,2,0,P|400:237|386:195,1,89.1000027191163,8|0,0:2|0:2,0:0:0:0:
321,350,60341,1,0,0:2:0:0:
176,220,60513,2,0,P|181:175|195:133,1,89.1000027191163,8|0,0:2|0:2,0:0:0:0:
332,312,60858,6,0,P|293:371|181:371,1,178.200005438233,8|0,0:2|0:2,0:0:0:0:
34,307,61376,1,8,0:2:0:0:
34,307,61548,2,0,P|80:276|120:272,1,89.1000027191163,0|0,0:2|0:2,0:0:0:0:
281,202,61893,2,0,P|237:193|202:166,1,89.1000027191163,8|0,0:2|0:2,0:0:0:0:
80,42,62238,5,8,0:2:0:0:
80,42,62410,2,0,P|110:97|117:133,1,89.1000027191163,0|0,0:2|0:2,0:0:0:0:
176,281,62755,2,0,P|188:238|211:200,1,89.1000027191163,8|0,0:2|0:2,0:0:0:0:
370,116,63100,1,8,0:2:0:0:
276,338,63272,1,8,0:2:0:0:
199,104,63445,1,8,0:2:0:0:
431,205,63617,6,0,P|417:267|358:269,1,129.6,4|8,1:2|0:2,0:0:0:0:
210,200,64134,1,2,0:2:0:0:
210,200,64307,2,0,P|258:172|279:173,1,64.8,2|0,1:2|0:2,0:0:0:0:
140,272,64651,2,0,P|108:264|84:243,1,64.8,10|0,0:2|0:2,0:0:0:0:
133,60,64996,6,0,P|139:104|143:131,1,64.8,2|0,1:2|0:0,0:0:0:0:
263,27,65341,1,8,0:2:0:0:
263,27,65513,2,0,P|258:59|254:91,1,64.8,2|0,0:2|1:2,0:0:0:0:
365,167,65858,2,0,P|360:134|356:102,1,64.8,2|8,0:2|0:2,0:0:0:0:
455,197,66203,1,2,0:2:0:0:
318,278,66376,6,0,B|240:277|278:331|189:325,1,129.6,0|8,1:2|0:2,0:0:0:0:
87,276,66893,1,0,0:0:0:0:
181,142,67065,1,0,1:2:0:0:
181,142,67238,2,0,P|202:185|207:215,1,64.8,2|8,0:2|0:2,0:0:0:0:
342,301,67582,6,0,P|361:196|381:162,1,129.6,2|0,0:2|0:0,0:0:0:0:
442,297,68100,1,8,0:2:0:0:
265,258,68272,1,2,0:2:0:0:
412,147,68445,1,2,1:2:0:0:
412,147,68617,2,0,P|432:186|435:215,1,64.8,2|8,0:2|0:2,0:0:0:0:
334,324,68962,1,10,0:2:0:0:
205,201,69134,6,0,P|265:138|321:156,1,129.6,0|8,1:2|0:2,0:0:0:0:
249,295,69651,1,2,0:2:0:0:
100,228,69824,1,2,1:2:0:0:
100,228,69996,2,0,P|56:203|37:200,1,64.8,2|8,0:2|0:2,0:0:0:0:
149,343,70341,6,0,P|158:302|167:275,1,64.8,2|0,0:2|1:2,0:0:0:0:
79,140,70686,2,0,P|88:170|95:202,1,64.8,0|8,0:2|0:2,0:0:0:0:
174,68,71031,2,0,P|213:42|241:39,1,64.8,2|0,0:2|1:2,0:0:0:0:
319,152,71376,2,0,P|288:143|263:122,1,64.8,0|8,0:2|0:2,0:0:0:0:
376,60,71720,1,2,0:2:0:0:
434,253,71893,5,0,1:2:0:0:
434,253,72238,2,0,P|401:276|378:278,1,64.8,8|0,0:2|0:2,0:0:0:0:
245,218,72582,2,0,P|257:259|261:286,2,64.8,0|0|8,1:2|0:2|0:2,0:0:0:0:
330,126,73100,1,0,0:2:0:0:
164,226,73272,5,0,1:2:0:0:
164,226,73445,2,0,P|132:221|107:201,1,64.8,0|8,0:2|0:2,0:0:0:0:
179,81,73789,1,0,0:2:0:0:
245,218,73962,1,0,1:0:0:0:
245,218,74134,1,0,0:2:0:0:
91,127,74307,1,8,0:2:0:0:
91,127,74479,1,8,0:2:0:0:
36,303,74651,6,0,P|61:322|92:327,1,64.8,4|0,1:2|0:0,0:0:0:0:
219,346,74996,2,0,P|244:326|275:321,1,64.8,8|2,0:2|0:2,0:0:0:0:
402,355,75341,2,0,P|409:323|422:293,1,64.8,2|0,1:2|0:2,0:0:0:0:
344,177,75686,2,0,P|356:206|364:238,1,64.8,10|0,0:2|0:2,0:0:0:0:
256,171,76031,6,0,P|268:126|355:93,1,129.6,2|8,1:2|0:2,0:0:0:0:
434,176,76548,2,0,P|476:198|500:196,1,64.8,2|0,0:2|1:2,0:0:0:0:
412,48,76893,2,0,P|380:51|353:69,1,64.8,2|8,0:2|0:2,0:0:0:0:
265,200,77238,1,2,0:2:0:0:
112,117,77410,6,0,P|144:120|171:138,1,64.8,0|0,1:2|0:0,0:0:0:0:
280,233,77755,2,0,P|253:250|221:253,1,64.8,8|2,0:2|0:2,0:0:0:0:
63,201,78100,1,2,1:2:0:0:
63,201,78272,2,0,P|75:246|79:273,1,64.8,2|8,0:2|0:2,0:0:0:0:
217,348,78617,1,2,0:2:0:0:
217,348,78703,1,0,0:2:0:0:
217,348,78789,6,0,P|222:316|231:285,1,64.8,0|2,1:2|0:2,0:0:0:0:
349,207,79134,1,8,0:2:0:0:
349,207,79307,2,0,P|358:238|363:269,1,64.8,2|0,0:2|1:2,0:0:0:0:
225,187,79651,2,0,P|230:155|239:124,1,64.8,2|8,0:2|0:2,0:0:0:0:
344,92,79996,1,2,0:2:0:0:
155,145,80169,6,0,P|112:135|93:119,1,64.8,0|0,1:2|0:0,0:0:0:0:
251,205,80513,1,8,0:2:0:0:
251,205,80686,2,0,P|272:251|275:274,1,64.8,0|0,0:0|1:2,0:0:0:0:
107,308,81031,1,0,0:2:0:0:
107,308,81204,2,0,P|114:276|130:248,1,64.8,8|0,0:2|0:2,0:0:0:0:
273,353,81548,5,6,1:2:0:0:
273,353,81720,2,0,P|323:372|340:368,1,64.8,0|8,0:2|0:2,0:0:0:0:
427,250,82065,2,0,P|436:298|440:321,1,64.8,0|6,0:2|1:2,0:0:0:0:
293,248,82410,2,0,P|298:216|304:184,1,64.8,0|8,0:2|0:2,0:0:0:0:
383,119,82755,1,0,0:2:0:0:
205,235,82927,6,0,P|199:203|193:171,1,64.8,6|0,1:2|0:0,0:0:0:0:
261,44,83272,1,8,0:2:0:0:
261,44,83445,1,0,0:2:0:0:
317,207,83617,1,4,1:2:0:0:
317,207,83789,1,0,0:2:0:0:
113,179,83962,2,0,P|117:139|131:114,1,64.8,12|0,0:2|0:2,0:0:0:0:
305,290,84307,6,0,P|230:349|178:324,1,145.799995550537,2|2,0:0|0:0,0:0:0:0:
295,192,85169,2,0,P|327:174|410:187,1,121.499996292114,2|0,0:0|0:0,0:0:0:0:
438,229,85686,6,0,P|428:179|432:134,1,90.7200011074219,6|0,0:2|0:2,0:0:0:0:
352,18,86031,2,0,P|346:77|315:207,1,181.440002214844,8|2,0:2|0:2,0:0:0:0:
155,298,86548,1,0,0:2:0:0:
155,298,86720,2,0,P|196:270|245:272,1,90.7200011074219,8|2,0:2|0:2,0:0:0:0:
364,369,87065,5,2,0:2:0:0:
364,369,87238,2,0,P|343:321|341:276,1,90.7200011074219,2|8,0:2|0:2,0:0:0:0:
489,200,87582,2,0,P|452:226|408:228,1,90.7200011074219,2|0,0:2|0:2,0:0:0:0:
252,134,87927,2,0,P|296:136|332:162,1,90.7200011074219,2|8,0:2|0:2,0:0:0:0:
195,253,88272,1,2,0:2:0:0:
197,65,88445,6,0,P|233:38|277:36,1,90.7200011074219,6|0,0:2|0:0,0:0:0:0:
105,191,88789,1,8,0:2:0:0:
105,191,88962,2,0,P|97:133|68:12,1,181.440002214844,0|0,0:0|0:2,0:0:0:0:
273,205,89479,2,0,P|237:232|193:234,1,90.7200011074219,8|2,0:2|0:2,0:0:0:0:
328,128,89824,5,2,0:2:0:0:
328,128,89996,2,0,P|372:130|408:156,1,90.7200011074219,2|8,0:2|0:2,0:0:0:0:
351,347,90341,2,0,P|345:303|330:247,1,90.7200011074219,2|0,0:2|0:2,0:0:0:0:
484,176,90686,1,2,0:2:0:0:
448,366,90858,1,8,0:2:0:0:
273,205,91031,1,8,0:2:0:0:
273,205,91117,1,8,0:2:0:0:
273,205,91203,6,0,P|279:161|294:105,1,90.7200011074219,6|0,0:2|0:2,0:0:0:0:
207,266,91548,2,0,P|161:294|115:290,1,90.7200011074219,8|0,0:2|0:2,0:0:0:0:
18,173,91893,2,0,P|62:174|99:200,1,90.7200011074219,2|0,0:2|0:2,0:0:0:0:
96,368,92238,2,0,P|58:331|46:284,1,90.7200011074219,8|0,0:2|0:2,0:0:0:0:
161,96,92582,5,2,0:2:0:0:
161,96,92755,2,0,P|183:144|192:190,1,90.7200011074219,0|10,0:2|0:2,0:0:0:0:
274,315,93100,2,0,P|284:270|304:230,1,90.7200011074219,2|0,0:2|0:2,0:0:0:0:
433,89,93445,2,0,P|396:122|355:126,1,90.7200011074219,2|8,0:2|0:2,0:0:0:0:
186,82,93789,1,0,0:2:0:0:
462,24,93962,6,0,P|479:78|489:134,1,97.1999970336915,14|0,0:2|0:2,0:0:0:0:
423,271,94307,1,0,0:2:0:0:
194,163,94479,2,0,P|203:115|218:69,1,97.1999970336915,12|0,0:2|0:2,0:0:0:0:
413,301,94824,1,0,0:2:0:0:
413,301,94996,2,0,P|363:333|313:330,1,97.1999970336915,12|0,0:2|0:2,0:0:0:0:
110,182,95341,5,14,0:2:0:0:
110,182,95513,2,0,P|138:239|147:276,1,97.1999970336915,2|0,0:2|0:2,0:0:0:0:
309,146,95858,1,10,0:2:0:0:
309,146,95945,1,8,0:2:0:0:
309,146,96031,2,0,P|281:203|272:240,1,97.1999970336915,8|2,0:2|0:2,0:0:0:0:
205,83,96376,1,8,0:2:0:0:
360,220,96548,1,8,0:2:0:0:
360,220,96634,1,8,0:2:0:0:
360,220,96720,6,0,P|411:247|453:240,1,90.7200011074219,6|0,0:2|0:2,0:0:0:0:
365,24,97065,2,0,P|273:32|240:134,1,181.440002214844,8|2,0:2|0:2,0:0:0:0:
260,303,97582,1,0,0:2:0:0:
260,303,97755,2,0,P|274:250|275:206,1,90.7200011074219,8|2,0:2|0:2,0:0:0:0:
80,106,98100,5,2,0:2:0:0:
80,106,98272,2,0,P|129:134|170:130,1,90.7200011074219,2|8,0:2|0:2,0:0:0:0:
335,175,98617,2,0,P|290:176|253:201,1,90.7200011074219,2|0,0:2|0:2,0:0:0:0:
119,343,98962,1,2,0:2:0:0:
119,343,99134,2,0,P|140:291|139:250,1,90.7200011074219,8|0,0:2|0:2,0:0:0:0:
52,89,99479,6,0,P|54:134|73:175,1,90.7200011074219,6|0,0:2|0:2,0:0:0:0:
169,49,99824,2,0,P|216:20|339:18,1,181.440002214844,8|0,0:2|0:2,0:0:0:0:
457,126,100341,1,0,0:2:0:0:
297,220,100513,2,0,P|277:175|275:130,1,90.7200011074219,8|0,0:2|0:2,0:0:0:0:
388,288,100858,5,0,0:2:0:0:
198,234,101031,1,0,0:2:0:0:
198,234,101203,2,0,P|178:189|176:144,1,90.7200011074219,8|0,0:2|0:0,0:0:0:0:
283,330,101548,2,0,P|230:366|188:359,1,90.7200011074219,2|2,0:2|0:2,0:0:0:0:
45,236,101893,2,0,P|44:168|111:122,1,136.080001661133,10|0,0:2|0:0,0:0:0:0:
123,106,102238,6,0,P|177:75|217:71,1,97.1999970336915,14|0,0:2|0:2,0:0:0:0:
143,325,102583,2,0,P|95:316|55:289,1,97.1999970336915,8|0,0:2|0:2,0:0:0:0:
306,141,102928,6,0,P|373:118|410:113,1,97.1999970336915,12|0,0:2|0:2,0:0:0:0:
180,209,103273,2,0,P|132:199|87:181,1,97.1999970336915,8|0,0:2|0:0,0:0:0:0:
321,54,103618,5,14,0:2:0:0:
207,293,103790,1,0,0:2:0:0:
221,8,103962,5,8,0:2:0:0:
323,244,104135,1,0,0:2:0:0:
77,106,104307,6,0,P|85:45|98:9,1,97.1999970336915,12|0,0:2|0:0,0:0:0:0:
291,152,104652,1,8,0:2:0:0:
91,268,104824,1,0,0:2:0:0:
321,54,104997,6,0,P|335:100|340:148,1,97.1999970336915,14|0,0:2|0:0,0:0:0:0:
277,333,105342,1,0,0:2:0:0:
100,133,105514,2,0,P|162:100|201:101,1,97.1999970336915,14|0,0:2|0:2,0:0:0:0:
327,233,105859,1,0,0:2:0:0:
122,335,106031,2,0,P|74:328|34:301,1,97.1999970336915,14|0,0:2|0:2,0:0:0:0:
292,239,106376,6,0,L|399:257,1,97.1999970336915,14|0,0:2|0:2,0:0:0:0:
154,207,106721,2,0,L|58:223,1,97.1999970336915,0|10,0:2|0:2,0:0:0:0:
214,26,107066,1,8,0:2:0:0:
254,311,107238,1,8,0:2:0:0:
89,79,107411,1,8,0:2:0:0:
50,366,107583,1,8,0:2:0:0:
267,132,107755,6,0,P|305:109|362:108,1,89.1000027191163,14|0,0:2|0:2,0:0:0:0:
145,222,108100,1,0,0:2:0:0:
145,222,108273,2,0,P|100:218|63:195,1,89.1000027191163,8|0,0:2|0:2,0:0:0:0:
274,61,108618,1,0,0:2:0:0:
274,61,108790,2,0,P|316:74|354:116,1,89.1000027191163,8|0,0:2|0:2,0:0:0:0:
263,356,109135,5,12,0:2:0:0:
263,356,109307,2,0,P|248:296|251:260,1,89.1000027191163,0|0,0:2|0:2,0:0:0:0:
426,179,109652,2,0,P|425:223|412:265,1,89.1000027191163,8|0,0:2|0:2,0:0:0:0:
193,193,109997,1,0,0:2:0:0:
193,193,110169,2,0,P|193:148|206:106,1,89.1000027191163,8|0,0:2|0:2,0:0:0:0:
414,37,110514,6,0,P|369:16|326:19,1,89.1000027191163,14|0,0:2|0:2,0:0:0:0:
117,106,110859,1,0,0:2:0:0:
117,106,111031,2,0,P|161:106|200:86,1,89.1000027191163,8|0,0:2|0:2,0:0:0:0:
422,20,111376,1,0,0:2:0:0:
422,20,111549,2,0,P|377:-1|334:2,1,89.1000027191163,8|0,0:2|0:2,0:0:0:0:
280,221,111893,5,12,0:2:0:0:
280,221,112066,2,0,P|287:156|288:122,1,89.1000027191163,0|0,0:2|0:0,0:0:0:0:
122,15,112411,2,0,P|124:59|129:103,1,89.1000027191163,8|0,0:2|0:2,0:0:0:0:
153,268,112755,1,8,0:3:0:0:
361,193,112928,1,4,0:3:0:0:
187,171,113100,1,4,0:3:0:0:
325,344,113273,6,0,P|384:329|406:305,1,89.1000027191163,14|0,0:2|0:2,0:0:0:0:
184,282,113618,1,0,0:2:0:0:
184,282,113790,2,0,P|122:264|85:257,1,89.1000027191163,8|0,0:2|0:2,0:0:0:0:
333,209,114135,1,0,0:2:0:0:
333,209,114307,2,0,P|395:191|432:184,1,89.1000027191163,8|0,0:2|0:2,0:0:0:0:
155,159,114652,5,14,0:2:0:0:
155,159,114824,2,0,P|132:110|135:74,1,89.1000027191163,0|0,0:2|0:2,0:0:0:0:
306,221,115169,2,0,P|329:172|326:136,1,89.1000027191163,8|0,0:2|0:2,0:0:0:0:
208,247,115514,1,0,0:2:0:0:
274,46,115686,2,0,P|323:28|366:30,1,89.1000027191163,8|0,0:2|0:2,0:0:0:0:
184,267,116031,6,0,P|139:266|98:249,1,89.1000027191163,14|0,0:2|0:2,0:0:0:0:
316,323,116376,1,0,0:2:0:0:
316,323,116549,2,0,P|360:322|401:305,1,89.1000027191163,8|0,0:2|0:0,0:0:0:0:
217,167,116893,1,0,0:2:0:0:
217,167,117066,2,0,P|175:150|131:149,1,89.1000027191163,8|0,0:2|0:2,0:0:0:0:
371,236,117411,5,14,0:2:0:0:
371,236,117583,2,0,P|403:182|409:147,1,89.1000027191163,0|0,0:2|0:2,0:0:0:0:
165,230,117928,2,0,P|177:272|202:309,1,89.1000027191163,8|0,0:2|0:2,0:0:0:0:
313,116,118273,1,8,0:2:0:0:
284,306,118445,1,8,0:2:0:0:
131,149,118618,1,8,0:2:0:0:
371,236,118790,6,0,P|419:231|444:219,2,64.8,10|0|0,0:2|0:2|0:2,0:0:0:0:
289,143,119307,2,0,P|258:132|226:131,2,64.8,12|0|0,0:2|0:2|0:2,0:0:0:0:
226,252,119824,2,0,P|195:262|163:263,1,64.8,8|0,0:2|0:2,0:0:0:0:
101,223,120083,1,0,0:2:0:0:
101,223,120169,6,0,P|115:178|114:157,1,64.8,14|0,0:2|0:2,0:0:0:0:
196,79,120514,1,0,0:2:0:0:
196,79,120686,2,0,P|197:111|209:141,1,64.8,8|0,0:2|0:2,0:0:0:0:
324,60,121031,1,0,0:2:0:0:
324,60,121204,2,0,P|322:92|310:122,1,64.8,12|0,0:2|0:2,0:0:0:0:
232,342,121549,5,6,0:2:0:0:
