osu file format v14

[General]
AudioFilename: audio.mp3
AudioLeadIn: 0
PreviewTime: 29048
Countdown: 0
SampleSet: Normal
StackLeniency: 0.7
Mode: 0
LetterboxInBreaks: 0
WidescreenStoryboard: 1

[Editor]
Bookmarks: 47065,102238
DistanceSpacing: 1.2
BeatDivisor: 4
GridSize: 4
TimelineZoom: 1.2

[Metadata]
Title:Start Again
TitleUnicode:Start Again
Artist:ONE OK ROCK
ArtistUnicode:ONE OK ROCK
Creator:A r M i N
Version:A r M i Nakis' Hard
Source:
Tags:Fueled by Ramen OOR Ambitions A-Sketch Sotarks Armin A_r_M_i_N MiracleE Onlybiscuit Nikakis
BeatmapID:2164617
BeatmapSetID:1035167

[Difficulty]
HPDrainRate:5
CircleSize:3.8
OverallDifficulty:6
ApproachRate:8
SliderMultiplier:1.5
SliderTickRate:1

[Events]
//Background and Video events
0,0,"BG1.jpg",0,0
//Break Periods
//Storyboard Layer 0 (Background)
//Storyboard Layer 1 (Fail)
//Storyboard Layer 2 (Pass)
//Storyboard Layer 3 (Foreground)
//Storyboard Layer 4 (Overlay)
//Storyboard Sound Samples

[TimingPoints]
8445,344.827586206897,4,2,22,52,1,0
8445,-117.647058823529,4,2,22,52,0,0
19479,-100,4,2,22,62,0,0
29824,-100,4,2,22,72,0,0
30513,-100,4,1,22,82,0,1
38789,-100,4,1,22,82,0,0
41548,-100,4,1,22,82,0,1
46979,-100,4,1,22,82,0,0
47065,-100,4,1,22,92,0,1
49651,-100,4,1,22,92,0,0
51031,-100,4,2,22,5,0,0
51203,-100,4,2,22,92,0,0
52582,-100,4,1,22,82,0,0
63617,-100,4,2,22,72,0,0
85686,-100,4,1,22,82,0,1
93962,-100,4,1,22,82,0,0
96720,-100,4,1,22,82,0,1
102151,-100,4,1,22,82,0,0
102238,-100,4,1,22,92,0,1
107755,-100,4,1,22,72,0,0

[Colours]
Combo1 : 247,183,140
Combo2 : 238,149,175
Combo3 : 106,101,154
Combo4 : 177,54,57
SliderBorder : 252,227,245
SliderTrackOverride : 23,9,34

[HitObjects]
34,184,8445,5,2,0:0:0:0:
34,184,8617,1,0,0:0:0:0:
121,215,8789,1,2,0:0:0:0:
121,215,8962,1,0,0:0:0:0:
195,166,9134,2,0,L|190:102,1,63.7500012159348,2|0,0:0|0:0,0:0:0:0:
250,35,9479,2,0,P|288:27|324:38,1,63.7500012159348,0|2,0:0|0:0,0:0:0:0:
359,107,9824,6,0,L|354:170,1,63.7500012159348,2|0,0:0|0:0,0:0:0:0:
318,252,10169,2,0,L|322:315,1,63.7500012159348,2|0,0:0|0:0,0:0:0:0:
396,364,10513,2,0,P|452:371|490:302,1,127.50000243187,2|0,0:0|0:0,0:0:0:0:
468,233,11031,1,2,0:0:0:0:
384,262,11203,5,2,0:0:0:0:
384,262,11376,1,0,0:0:0:0:
303,224,11548,1,2,0:0:0:0:
303,224,11720,1,0,0:0:0:0:
353,150,11893,2,0,P|361:112|350:76,1,63.7500012159348,2|0,0:0|0:0,0:0:0:0:
288,29,12238,2,0,L|225:33,1,63.7500012159348,0|2,0:0|0:0,0:0:0:0:
148,79,12582,6,0,B|126:115|126:115|136:227,1,127.50000243187,2|2,0:0|0:0,0:0:0:0:
185,273,13100,2,0,L|181:352,1,63.7500012159348,2|0,0:0|0:0,0:0:0:0:
101,377,13445,2,0,P|52:383|34:377,1,63.7500012159348,2|0,0:0|0:0,0:0:0:0:
0,299,13789,1,2,0:0:0:0:
81,261,13962,5,0,0:0:0:0:
81,261,14134,1,0,0:0:0:0:
164,292,14307,1,0,0:0:0:0:
164,292,14479,1,2,0:0:0:0:
226,228,14651,2,0,L|230:160,1,63.7500012159348,2|0,0:0|0:0,0:0:0:0:
177,91,14996,2,0,L|173:27,1,63.7500012159348,2|0,0:0|0:0,0:0:0:0:
260,7,15341,6,0,P|304:16|330:99,1,127.50000243187,2|0,0:0|0:0,0:0:0:0:
292,161,15858,2,0,P|230:164|208:155,1,63.7500012159348,2|0,0:0|0:0,0:0:0:0:
142,141,16203,2,0,L|138:209,1,63.7500012159348,2|0,0:0|0:0,0:0:0:0:
133,294,16548,1,2,0:0:0:0:
217,264,16720,6,0,B|248:255|248:255|281:260,1,63.7500012159348,2|0,0:0|0:0,0:0:0:0:
356,304,17065,2,0,B|365:335|365:335|359:368,2,63.7500012159348,2|2|2,0:0|0:0|0:0,0:0:0:0:
279,259,17582,1,2,0:0:0:0:
358,217,17755,2,0,P|394:208|440:226,1,63.7500012159348,2|0,0:0|0:0,0:0:0:0:
496,258,18100,1,2,0:0:0:0:
499,169,18272,2,0,L|503:104,1,63.7500012159348,2|0,0:0|0:0,0:0:0:0:
446,35,18617,2,0,B|404:40|404:40|350:24|350:24|318:29,1,127.50000243187,2|0,0:0|0:0,0:0:0:0:
245,75,19134,2,0,B|250:95|250:95|242:127|242:127|248:143,1,63.7500012159348,2|0,0:0|0:0,0:0:0:0:
283,218,19479,6,0,P|325:228|359:220,1,75,6|2,1:2|0:2,0:0:0:0:
318,132,19824,2,0,P|281:125|245:135,1,75,2|0,3:2|0:2,0:0:0:0:
192,208,20169,2,0,L|197:282,1,75,2|0,3:2|0:2,0:0:0:0:
134,347,20513,6,0,P|92:357|58:349,1,75,2|0,3:2|0:2,0:0:0:0:
28,266,20858,2,0,B|20:228|20:228|27:191,1,75,2|0,3:2|0:0,0:0:0:0:
83,122,21203,2,0,B|123:116|123:116|156:124,1,75,0|2,3:2|0:2,0:0:0:0:
230,175,21548,2,0,L|222:298,1,112.5,2|0,3:2|0:0,0:0:0:0:
224,332,21893,1,2,3:2:0:0:
224,332,22065,1,2,0:2:0:0:
308,364,22238,6,0,P|350:374|384:366,1,75,2|2,3:2|0:2,0:0:0:0:
443,303,22582,2,0,L|437:218,1,75,2|0,3:2|0:2,0:0:0:0:
382,156,22927,2,0,B|372:119|372:119|387:42,1,112.5,2|0,3:2|0:0,0:0:0:0:
399,2,23272,1,0,3:2:0:0:
314,34,23445,2,0,L|159:26,1,150,2|0,0:2|0:0,0:0:0:0:
84,68,23962,1,0,3:2:0:0:
127,146,24134,2,0,P|138:194|120:237,1,75,2|0,0:2|3:2,0:0:0:0:
86,296,24479,2,0,P|75:344|93:387,1,75,2|0,0:2|3:2,0:0:0:0:
170,382,24824,1,2,0:2:0:0:
225,311,24996,6,0,L|219:210,1,75,2|0,3:2|0:2,0:0:0:0:
244,149,25341,2,0,L|250:48,1,75,2|0,3:2|0:2,0:0:0:0:
316,14,25686,2,0,B|356:2|356:2|388:9,1,75,2|0,3:2|0:2,0:0:0:0:
430,89,26031,2,0,B|394:101|394:101|357:93,1,75,2|0,3:2|0:2,0:0:0:0:
268,77,26376,6,0,L|193:82,1,75,2|2,3:2|0:3,0:0:0:0:
152,162,26720,2,0,L|226:167,1,75,2|2,3:2|0:3,0:0:0:0:
283,238,27065,2,0,P|293:287|280:321,1,75,2|2,3:2|0:3,0:0:0:0:
221,373,27410,1,2,3:2:0:0:
221,373,27582,1,2,0:3:0:0:
181,291,27755,6,0,L|185:254,3,37.5,4|0|0|0,1:3|0:0|0:0|0:0,0:0:0:0:
189,208,28100,2,0,L|185:171,3,37.5,4|0|0|0,1:3|0:0|0:0|0:0,0:0:0:0:
181,125,28445,2,0,L|185:88,3,37.5,4|0|0|0,1:3|0:0|0:0|0:0,0:0:0:0:
164,47,28789,2,0,L|127:43,3,37.5,4|0|0|0,1:3|0:0|0:0|0:0,0:0:0:0:
84,26,29134,6,0,L|47:30,3,37.5,4|0|4|0,1:3|1:0|1:3|1:0,0:0:0:0:
30,72,29479,2,0,L|26:109,3,37.5,4|0|4|0,1:3|1:0|1:3|1:0,0:0:0:0:
46,149,29824,2,0,L|83:145,3,37.5,4|0|0|0,1:3|1:0|1:0|1:0,0:0:0:0:
126,128,30169,2,0,L|163:132,3,37.5,8|8|8|8,1:2|1:2|1:2|1:2,0:0:0:0:
207,138,30513,5,6,0:2:0:0:
290,104,30686,1,0,0:2:0:0:
345,174,30858,2,0,P|356:203|352:248,1,75,8|0,0:2|0:0,0:0:0:0:
284,306,31203,2,0,L|122:297,1,150,2|8,0:2|0:2,0:0:0:0:
54,256,31720,1,2,0:2:0:0:
115,189,31893,6,0,L|189:181,1,75,2|2,0:2|0:2,0:0:0:0:
268,137,32238,1,8,0:2:0:0:
192,88,32410,2,0,P|181:39|194:6,1,75,2|0,0:2|0:2,0:0:0:0:
277,2,32755,2,0,L|387:10,1,75,2|8,0:2|0:2,0:0:0:0:
411,75,33100,1,2,0:2:0:0:
348,141,33272,6,0,B|314:163|314:163|223:153,1,112.5,4|0,0:2|0:0,0:0:0:0:
197,149,33617,1,8,0:2:0:0:
142,220,33789,2,0,P|130:255|137:291,1,75,0|0,0:0|0:2,0:0:0:0:
208,348,34134,2,0,L|298:342,1,75,0|8,0:2|0:2,0:0:0:0:
360,296,34479,1,2,0:2:0:0:
320,215,34651,5,2,0:2:0:0:
353,131,34824,2,0,B|366:94|366:94|356:51,1,75,2|8,0:2|0:2,0:0:0:0:
276,20,35169,2,0,L|201:13,1,75,2|0,0:2|0:2,0:0:0:0:
128,66,35513,1,2,0:2:0:0:
183,137,35686,2,0,L|257:130,1,75,8|8,0:2|0:2,0:0:0:0:
296,154,35945,1,8,0:2:0:0:
296,154,36031,6,0,P|308:201|286:249,1,75,6|0,0:2|0:2,0:0:0:0:
241,292,36376,2,0,P|229:339|251:387,1,75,8|0,0:2|0:2,0:0:0:0:
323,379,36720,2,0,L|483:368,1,150,2|8,0:2|0:2,0:0:0:0:
494,280,37238,1,0,0:2:0:0:
413,240,37410,6,0,L|291:233,1,112.5,2|0,0:2|0:0,0:0:0:0:
255,232,37755,1,10,0:2:0:0:
203,158,37927,2,0,P|191:114|201:81,1,75,2|0,0:2|0:2,0:0:0:0:
267,29,38272,1,2,0:2:0:0:
315,105,38445,2,0,L|312:193,1,75,8|0,0:2|0:2,0:0:0:0:
243,237,38789,6,0,L|168:239,2,75,14|0|0,0:2|0:2|0:2,0:0:0:0:
306,302,39307,2,0,L|380:304,2,75,12|0|0,0:2|0:2|0:2,0:0:0:0:
225,342,39824,2,0,P|176:353|132:333,1,75,12|0,0:2|0:2,0:0:0:0:
85,286,40169,6,0,L|93:201,2,75,14|2|0,0:2|0:2|0:2,0:0:0:0:
178,269,40686,1,10,0:2:0:0:
178,269,40772,1,8,0:2:0:0:
178,269,40858,2,0,L|263:255,1,75,8|2,0:2|0:2,0:0:0:0:
302,181,41203,1,8,0:2:0:0:
242,115,41376,1,8,0:2:0:0:
242,115,41462,1,8,0:2:0:0:
242,115,41548,5,6,0:2:0:0:
276,32,41720,1,0,0:2:0:0:
188,8,41893,2,0,P|136:0|110:9,1,75,8|0,0:2|0:0,0:0:0:0:
49,67,42238,2,0,L|60:231,1,150,2|8,0:2|0:2,0:0:0:0:
117,285,42755,1,2,0:2:0:0:
159,206,42927,6,0,L|165:122,1,75,2|2,0:2|0:2,0:0:0:0:
228,66,43272,1,8,0:2:0:0:
294,126,43445,2,0,P|347:134|383:116,1,75,2|0,0:2|0:2,0:0:0:0:
409,48,43789,2,0,P|373:38|336:46,1,75,2|8,0:2|0:2,0:0:0:0:
294,126,44134,1,0,0:2:0:0:
340,202,44307,6,0,P|349:237|341:274,1,75,6|0,0:2|0:2,0:0:0:0:
273,333,44651,2,0,L|116:321,1,150,8|0,0:2|0:2,0:0:0:0:
50,268,45169,1,0,0:2:0:0:
123,215,45341,2,0,L|219:210,1,75,8|0,0:2|0:2,0:0:0:0:
274,163,45686,5,0,0:2:0:0:
274,163,45858,1,0,0:2:0:0:
203,106,46031,2,0,L|107:101,1,75,8|0,0:2|0:0,0:0:0:0:
50,56,46376,1,2,0:2:0:0:
133,24,46548,2,0,B|174:14|174:14|217:30,1,75,2|10,0:2|0:2,0:0:0:0:
288,60,46893,1,0,0:2:0:0:
317,144,47065,6,0,B|287:190|287:190|320:287,2,150,0|0|0,1:2|0:2|0:0,0:0:0:0:
403,302,48100,1,0,0:0:0:0:
223,285,48445,6,0,L|75:314,2,150,0|0|0,0:0|0:0|0:0,0:0:0:0:
126,133,49479,1,0,0:0:0:0:
256,192,49651,12,0,51031,0:0:0:0:
256,192,51203,12,0,52151,0:0:0:0:
137,300,52582,6,0,P|135:340|116:375,2,75,14|0|0,0:2|0:2|0:2,0:0:0:0:
76,232,53100,2,0,P|42:210|21:176,2,75,8|0|0,0:2|0:2|0:2,0:0:0:0:
164,214,53617,2,0,P|199:195|239:194,1,75,8|0,0:2|0:2,0:0:0:0:
308,244,53962,6,0,L|322:317,2,75,12|0|0,0:2|0:2|0:2,0:0:0:0:
395,221,54479,2,0,L|409:294,2,75,8|0|0,0:2|0:2|0:2,0:0:0:0:
480,193,54996,2,0,L|466:120,1,75,8|0,0:2|0:2,0:0:0:0:
380,89,55341,6,0,P|401:55|435:34,2,75,14|0|0,0:2|0:2|0:2,0:0:0:0:
327,162,55858,2,0,P|287:160|252:141,2,75,8|0|0,0:2|0:2|0:2,0:0:0:0:
395,221,56376,2,0,P|413:256|414:296,1,75,8|0,0:2|0:2,0:0:0:0:
358,360,56720,6,0,P|390:377|428:380,2,75,12|0|0,0:2|0:2|0:2,0:0:0:0:
323,276,57238,1,8,0:2:0:0:
238,307,57410,2,0,L|165:293,1,75,0|8,0:2|0:3,0:0:0:0:
111,219,57755,2,0,P|128:186|130:148,1,75,4|4,0:3|0:3,0:0:0:0:
88,69,58100,6,0,P|57:48|37:16,2,75,14|0|0,0:2|0:2|0:2,0:0:0:0:
178,71,58617,2,0,P|211:54|248:53,2,75,8|0|0,0:2|0:2|0:2,0:0:0:0:
131,149,59134,2,0,P|128:186|111:219,1,75,8|0,0:2|0:2,0:0:0:0:
60,294,59479,6,0,L|74:367,2,75,14|0|0,0:2|0:2|0:2,0:0:0:0:
149,302,59996,2,0,L|163:375,2,75,8|0|0,0:2|0:2|0:2,0:0:0:0:
238,310,60513,2,0,L|311:296,1,75,8|0,0:2|0:2,0:0:0:0:
397,324,60858,6,0,P|416:355|447:376,2,75,8|0|0,0:2|0:2|0:2,0:0:0:0:
379,234,61376,2,0,P|396:201|398:163,2,75,8|0|0,0:2|0:2|0:2,0:0:0:0:
312,296,61893,2,0,P|274:297|241:313,1,75,8|0,0:2|0:2,0:0:0:0:
165,264,62238,6,0,P|127:262|94:246,2,75,8|0|0,0:2|0:2|0:2,0:0:0:0:
238,212,62755,1,8,0:2:0:0:
192,134,62927,1,0,0:2:0:0:
192,134,63100,1,8,0:2:0:0:
246,62,63272,1,8,0:2:0:0:
246,62,63445,1,8,0:2:0:0:
171,12,63617,6,0,L|23:40,1,150,4|8,1:2|0:2,0:0:0:0:
78,112,64134,1,2,0:2:0:0:
16,177,64307,2,0,P|0:244|40:307,1,150,2|10,1:2|0:2,0:0:0:0:
192,211,64996,6,0,P|264:204|317:254,1,150,2|8,1:2|0:2,0:0:0:0:
341,341,65513,2,0,P|376:323|398:294,1,75,2|0,0:2|1:2,0:0:0:0:
479,258,65858,2,0,P|472:219|451:189,1,75,2|8,0:2|0:2,0:0:0:0:
374,145,66203,1,2,0:2:0:0:
417,65,66376,6,0,P|363:114|291:108,1,150,0|8,1:2|0:2,0:0:0:0:
234,38,66893,1,0,0:0:0:0:
150,71,67065,2,0,P|113:65|82:44,2,75,0|2|8,1:2|0:2|0:2,0:0:0:0:
208,139,67582,1,2,0:2:0:0:
291,108,67755,6,0,P|241:161|247:233,1,150,0|8,1:2|0:2,0:0:0:0:
310,297,68272,1,2,0:2:0:0:
376,235,68445,2,0,L|449:221,1,75,2|2,1:2|0:2,0:0:0:0:
501,147,68789,1,8,0:2:0:0:
426,95,68962,1,10,0:2:0:0:
471,17,69134,6,0,L|398:3,1,75,0|0,1:2|0:0,0:0:0:0:
339,71,69479,2,0,L|266:85,1,75,8|2,0:2|0:2,0:0:0:0:
198,24,69824,1,2,1:2:0:0:
180,112,69996,2,0,L|166:185,1,75,2|8,0:2|0:2,0:0:0:0:
93,239,70341,6,0,L|107:312,1,75,2|0,0:2|1:2,0:0:0:0:
179,366,70686,2,0,P|215:360|246:339,1,75,0|8,0:2|0:2,0:0:0:0:
291,261,71031,2,0,P|327:266|358:287,1,75,2|0,0:2|1:2,0:0:0:0:
440,324,71376,2,0,L|454:251,1,75,0|8,0:2|0:2,0:0:0:0:
510,180,71720,1,2,0:2:0:0:
455,108,71893,6,0,P|382:101|329:151,1,150,0|8,1:2|0:2,0:0:0:0:
325,241,72410,1,0,0:2:0:0:
393,299,72582,2,0,P|429:304|460:325,2,75,0|0|8,1:2|0:2|0:2,0:0:0:0:
226,369,73272,5,0,1:2:0:0:
163,303,73445,2,0,L|177:230,1,75,0|8,0:2|0:2,0:0:0:0:
135,150,73789,2,0,P|188:199|260:193,1,150,0|0,1:2|0:2,0:0:0:0:
313,119,74307,1,8,0:2:0:0:
397,148,74479,1,8,0:2:0:0:
461,85,74651,6,0,P|445:157|429:234,1,150,4|8,1:2|0:2,0:0:0:0:
495,293,75169,1,2,0:2:0:0:
425,349,75341,2,0,P|388:343|357:322,1,75,2|0,1:2|0:2,0:0:0:0:
300,252,75686,2,0,P|263:257|232:278,1,75,10|0,0:2|0:2,0:0:0:0:
198,361,76031,6,0,P|204:288|154:235,1,150,2|8,1:2|0:2,0:0:0:0:
64,240,76548,2,0,P|69:203|90:172,1,75,2|0,0:2|1:2,0:0:0:0:
77,82,76893,2,0,P|113:75|149:85,1,75,2|8,0:2|0:2,0:0:0:0:
221,31,77238,1,2,0:2:0:0:
267,107,77410,6,0,B|343:87|332:151|408:132,1,150,0|8,1:2|0:2,0:0:0:0:
479,75,77927,1,2,0:2:0:0:
509,159,78100,2,0,L|495:232,1,75,2|2,1:2|0:2,0:0:0:0:
446,308,78445,1,8,0:2:0:0:
368,263,78617,6,0,P|331:268|300:289,1,75,2|0,0:2|1:2,0:0:0:0:
247,362,78962,2,0,P|210:356|179:335,1,75,2|8,0:2|0:2,0:0:0:0:
136,256,79307,2,0,L|150:183,1,75,2|0,0:2|1:2,0:0:0:0:
228,139,79651,2,0,L|214:66,1,75,2|8,0:2|0:2,0:0:0:0:
285,10,79996,1,2,0:2:0:0:
340,81,80169,6,0,L|413:95,1,75,0|0,1:2|0:0,0:0:0:0:
462,170,80513,1,8,0:2:0:0:
379,207,80686,2,0,P|329:260|335:332,1,150,0|0,1:2|0:2,0:0:0:0:
413,377,81203,1,8,0:2:0:0:
235,348,81548,6,0,L|87:319,1,150,6|8,1:2|0:2,0:0:0:0:
140,147,82238,2,0,L|168:294,1,150,6|8,1:2|0:2,0:0:0:0:
50,161,82927,6,0,P|65:95|133:56,1,150,6|8,1:2|0:2,0:0:0:0:
214,95,83445,1,0,0:2:0:0:
278,32,83617,2,0,P|314:37|345:58,1,75,4|0,1:2|0:2,0:0:0:0:
384,139,83962,2,0,L|355:286,1,150,12|0,0:2|0:0,0:0:0:0:
355,286,85686,6,0,P|324:264|287:259,1,75,6|0,0:2|0:2,0:0:0:0:
208,302,86031,2,0,P|257:249|251:176,1,150,8|2,0:2|0:2,0:0:0:0:
183,117,86548,1,0,0:2:0:0:
252,60,86720,2,0,L|325:74,1,75,8|2,0:2|0:2,0:0:0:0:
405,31,87065,6,0,L|419:104,1,75,2|2,0:2|0:2,0:0:0:0:
485,166,87410,1,8,0:2:0:0:
432,238,87582,2,0,B|356:218|367:282|291:263,1,150,2|2,0:2|0:2,0:0:0:0:
213,213,88100,2,0,P|176:218|145:239,1,75,8|2,0:2|0:2,0:0:0:0:
66,282,88445,6,0,L|52:209,1,75,6|0,0:2|0:0,0:0:0:0:
1,133,88789,1,8,0:2:0:0:
57,62,88962,2,0,B|146:27|146:27|169:41|188:61,1,150,0|0,0:0|0:2,0:0:0:0:
253,123,89479,2,0,P|289:117|320:96,1,75,8|2,0:2|0:2,0:0:0:0:
367,19,89824,5,2,0:2:0:0:
410,97,89996,2,0,L|424:170,1,75,2|8,0:2|0:2,0:0:0:0:
500,218,90341,2,0,L|486:291,1,75,2|0,0:2|0:2,0:0:0:0:
418,351,90686,1,2,0:2:0:0:
365,278,90858,2,0,P|334:256|297:251,1,75,8|8,0:2|0:2,0:0:0:0:
262,222,91117,1,8,0:2:0:0:
262,222,91203,6,0,P|231:243|194:248,1,75,6|0,0:2|0:2,0:0:0:0:
116,203,91548,1,8,0:2:0:0:
49,263,91720,2,0,P|70:192|87:114,1,150,0|0,0:2|0:2,0:0:0:0:
157,60,92238,2,0,P|193:65|224:86,1,75,8|0,0:2|0:2,0:0:0:0:
270,163,92582,5,2,0:2:0:0:
342,216,92755,2,0,P|378:210|409:189,1,75,0|10,0:2|0:2,0:0:0:0:
424,100,93100,2,0,P|379:43|307:48,1,150,2|2,0:2|0:2,0:0:0:0:
224,86,93617,2,0,L|151:72,1,75,8|0,0:2|0:2,0:0:0:0:
86,135,93962,6,0,P|72:169|75:206,2,75,14|0|0,0:2|0:2|0:2,0:0:0:0:
63,47,94479,2,0,P|40:17|7:1,2,75,12|0|0,0:2|0:2|0:2,0:0:0:0:
151,72,94996,2,0,P|187:66|218:45,1,75,12|0,0:2|0:2,0:0:0:0:
292,97,95341,6,0,P|278:131|281:168,2,75,14|2|0,0:2|0:2|0:2,0:0:0:0:
381,111,95858,1,10,0:2:0:0:
381,111,95945,1,8,0:2:0:0:
381,111,96031,2,0,P|383:148|370:182,1,75,8|2,0:2|0:2,0:0:0:0:
313,253,96376,1,8,0:2:0:0:
224,240,96548,1,8,0:2:0:0:
224,240,96634,1,8,0:2:0:0:
224,240,96720,6,0,L|151:254,1,75,6|0,0:2|0:2,0:0:0:0:
78,200,97065,2,0,P|73:127|130:83,1,150,8|2,0:2|0:2,0:0:0:0:
213,118,97582,1,0,0:2:0:0:
268,46,97755,2,0,P|302:32|339:34,1,75,8|2,0:2|0:2,0:0:0:0:
419,77,98100,6,0,L|405:150,1,75,2|2,0:2|0:2,0:0:0:0:
344,217,98445,1,8,0:2:0:0:
389,294,98617,2,0,P|336:245|263:251,1,150,2|2,0:2|0:2,0:0:0:0:
201,317,99134,2,0,P|163:318|129:305,1,75,8|0,0:2|0:2,0:0:0:0:
80,229,99479,6,0,L|94:156,1,75,6|0,0:2|0:2,0:0:0:0:
35,86,99824,1,8,0:2:0:0:
123,70,99996,2,0,B|173:62|173:62|219:77|219:77|270:70,1,150,0|0,0:0|0:2,0:0:0:0:
354,99,100513,2,0,P|367:133|365:170,1,75,8|0,0:2|0:2,0:0:0:0:
304,237,100858,6,0,P|302:274|315:308,1,75,0|0,0:2|0:2,0:0:0:0:
394,352,101203,1,8,0:2:0:0:
479,324,101376,2,0,P|498:254|450:199,1,150,0|2,0:0|0:2,0:0:0:0:
365,170,101893,2,0,L|351:97,1,75,10|0,0:2|0:2,0:0:0:0:
396,18,102238,6,0,B|437:10|437:10|473:20,1,75,14|0,0:2|0:2,0:0:0:0:
509,101,102583,2,0,L|505:184,1,75,8|0,0:2|0:2,0:0:0:0:
480,262,102928,2,0,L|484:345,1,75,12|0,0:2|0:2,0:0:0:0:
399,368,103273,2,0,P|355:379|323:371,1,75,8|0,0:2|0:0,0:0:0:0:
246,332,103618,6,0,L|249:257,1,75,14|0,0:2|0:0,0:0:0:0:
282,172,103962,2,0,L|278:97,1,75,8|0,0:2|0:2,0:0:0:0:
218,29,104307,2,0,P|182:18|145:24,1,75,12|0,0:2|0:0,0:0:0:0:
80,87,104652,2,0,L|76:161,1,75,8|0,0:2|0:2,0:0:0:0:
88,251,104997,6,0,L|91:325,2,75,14|0|0,0:2|0:0|0:2,0:0:0:0:
158,194,105514,2,0,L|161:119,2,75,14|0|0,0:2|0:2|0:2,0:0:0:0:
212,266,106031,2,0,P|257:277|302:258,1,75,14|0,0:2|0:2,0:0:0:0:
344,202,106376,2,0,L|340:127,2,75,14|0|0,0:2|0:2|0:2,0:0:0:0:
383,283,106893,5,10,0:2:0:0:
341,362,107066,1,8,0:2:0:0:
341,362,107238,1,8,0:2:0:0:
265,313,107411,1,8,0:2:0:0:
265,313,107583,1,8,0:2:0:0:
185,271,107755,6,0,L|190:182,2,75,14|0|0,0:2|0:2|0:2,0:0:0:0:
189,363,108273,2,0,L|114:367,2,75,8|0|0,0:2|0:2|0:2,0:0:0:0:
265,313,108790,2,0,L|339:317,1,75,8|0,0:2|0:2,0:0:0:0:
397,247,109135,6,0,L|391:172,2,75,12|0|0,0:2|0:2|0:2,0:0:0:0:
308,228,109652,2,0,L|302:153,2,75,8|0|0,0:2|0:2|0:2,0:0:0:0:
226,266,110169,2,0,P|172:275|141:264,1,75,8|0,0:2|0:2,0:0:0:0:
83,212,110514,6,0,L|88:137,2,75,14|0|0,0:2|0:2|0:2,0:0:0:0:
153,269,111031,2,0,L|158:343,2,75,8|0|0,0:2|0:2|0:2,0:0:0:0:
177,181,111549,2,0,L|182:106,1,75,8|0,0:2|0:2,0:0:0:0:
123,37,111893,6,0,L|45:41,2,75,12|0|0,0:2|0:2|0:2,0:0:0:0:
100,124,112411,2,0,L|22:128,2,75,8|0|8,0:2|0:2|0:3,0:0:0:0:
176,171,112928,2,0,L|250:174,1,75,4|4,0:3|0:3,0:0:0:0:
311,107,113273,6,0,L|306:33,2,75,14|0|0,0:2|0:2|0:2,0:0:0:0:
350,188,113790,2,0,L|345:262,2,75,8|0|0,0:2|0:2|0:2,0:0:0:0:
260,176,114307,2,0,L|185:172,1,75,8|0,0:2|0:2,0:0:0:0:
121,236,114652,6,0,L|126:322,2,75,14|0|0,0:2|0:2|0:2,0:0:0:0:
208,258,115169,2,0,L|213:344,2,75,8|0|0,0:2|0:2|0:2,0:0:0:0:
252,179,115686,2,0,L|255:104,1,75,8|0,0:2|0:2,0:0:0:0:
312,34,116031,6,0,L|386:30,2,75,14|0|0,0:2|0:2|0:2,0:0:0:0:
255,104,116549,2,0,L|180:100,2,75,8|0|0,0:2|0:0|0:2,0:0:0:0:
331,151,117066,2,0,L|405:147,1,75,8|0,0:2|0:2,0:0:0:0:
466,214,117411,6,0,L|461:300,2,75,14|0|0,0:2|0:0|0:2,0:0:0:0:
405,147,117928,1,8,0:2:0:0:
322,183,118100,1,0,0:2:0:0:
322,183,118273,1,8,0:2:0:0:
238,148,118445,1,8,0:2:0:0:
238,148,118618,1,8,0:2:0:0:
159,192,118790,6,0,L|153:266,2,75,10|0|0,0:2|0:2|0:2,0:0:0:0:
203,113,119307,2,0,L|197:38,2,75,12|0|0,0:2|0:2|0:2,0:0:0:0:
261,181,119824,2,0,P|321:189|348:175,1,75,8|0,0:2|0:2,0:0:0:0:
372,162,120083,1,0,0:2:0:0:
372,162,120169,6,0,L|377:87,2,75,14|0|0,0:2|0:2|0:2,0:0:0:0:
405,246,120686,2,0,L|410:331,2,75,8|0|0,0:2|0:2|0:2,0:0:0:0:
317,224,121204,2,0,P|271:214|231:230,1,75,12|0,0:2|0:2,0:0:0:0:
173,276,121549,5,6,0:2:0:0:
