osu file format v14

[General]
AudioFilename: audio.mp3
AudioLeadIn: 0
PreviewTime: 29081
Countdown: 0
SampleSet: Soft
StackLeniency: 0.7
Mode: 3
LetterboxInBreaks: 0
SpecialStyle: 0
WidescreenStoryboard: 0

[Editor]
DistanceSpacing: 1.2
BeatDivisor: 4
GridSize: 32
TimelineZoom: 1

[Metadata]
Title:Start Again
TitleUnicode:Start Again
Artist:ONE OK ROCK
ArtistUnicode:ONE OK ROCK
Creator:- Theya -
Version:HD
Source:
Tags:人生×僕= Jinsei x Boku
BeatmapID:2016251
BeatmapSetID:962982

[Difficulty]
HPDrainRate:8
CircleSize:4
OverallDifficulty:8
ApproachRate:5
SliderMultiplier:1.4
SliderTickRate:1

[Events]
//Background and Video events
0,0,"030_Pq9AWP3.jpg",0,0
//Break Periods
//Storyboard Layer 0 (Background)
//Storyboard Layer 1 (Fail)
//Storyboard Layer 2 (Pass)
//Storyboard Layer 3 (Foreground)
//Storyboard Sound Samples

[TimingPoints]
8392,344.827586206897,4,2,22,60,1,0
47012,-100,4,2,22,60,0,1
52529,-100,4,2,22,60,0,0

[HitObjects]
64,192,8392,5,2,0:0:0:0:
320,192,8564,1,2,0:0:0:0:
192,192,8736,1,2,0:0:0:0:
448,192,8909,1,2,0:0:0:0:
64,192,9081,128,2,9426:0:0:0:0:
320,192,9254,1,2,0:0:0:0:
192,192,9426,128,2,9771:0:0:0:0:
320,192,9598,1,2,0:0:0:0:
448,192,9771,128,2,10116:0:0:0:0:
64,192,9943,1,2,0:0:0:0:
320,192,10116,128,2,10460:0:0:0:0:
192,192,10288,1,2,0:0:0:0:
64,192,10460,128,2,10805:0:0:0:0:
448,192,10633,1,2,0:0:0:0:
320,192,10805,128,2,10978:0:0:0:0:
192,192,10978,1,2,0:0:0:0:
64,192,11150,1,2,0:0:0:0:
320,192,11323,1,2,0:0:0:0:
448,192,11495,1,2,0:0:0:0:
192,192,11667,1,2,0:0:0:0:
448,192,11840,128,2,12185:0:0:0:0:
320,192,12012,1,2,0:0:0:0:
64,192,12185,128,2,12529:0:0:0:0:
192,192,12357,1,2,0:0:0:0:
320,192,12529,128,2,12874:0:0:0:0:
448,192,12702,1,2,0:0:0:0:
192,192,12874,1,2,0:0:0:0:
448,192,13047,128,2,13392:0:0:0:0:
64,192,13219,1,2,0:0:0:0:
192,192,13392,128,2,13736:0:0:0:0:
320,192,13564,1,2,0:0:0:0:
64,192,13736,1,2,0:0:0:0:
448,192,13909,1,2,0:0:0:0:
192,192,14081,1,2,0:0:0:0:
320,192,14254,1,2,0:0:0:0:
64,192,14426,1,2,0:0:0:0:
448,192,14598,128,2,14943:0:0:0:0:
192,192,14771,1,2,0:0:0:0:
320,192,14943,128,2,15288:0:0:0:0:
64,192,15116,1,2,0:0:0:0:
192,192,15288,128,2,15633:0:0:0:0:
448,192,15460,1,2,0:0:0:0:
64,192,15633,1,2,0:0:0:0:
320,192,15805,128,2,16150:0:0:0:0:
192,192,15978,1,2,0:0:0:0:
448,192,16150,128,2,16495:0:0:0:0:
64,192,16323,1,2,0:0:0:0:
320,192,16495,1,2,0:0:0:0:
192,192,16667,1,2,0:0:0:0:
64,192,16840,1,2,0:0:0:0:
320,192,17012,1,2,0:0:0:0:
448,192,17185,1,2,0:0:0:0:
192,192,17357,1,2,0:0:0:0:
64,192,17529,1,2,0:0:0:0:
448,192,17702,1,2,0:0:0:0:
320,192,17874,1,2,0:0:0:0:
192,192,18047,1,2,0:0:0:0:
320,192,18219,1,2,0:0:0:0:
448,192,18392,1,2,0:0:0:0:
64,192,18564,1,2,0:0:0:0:
192,192,18736,1,2,0:0:0:0:
320,192,18909,1,2,0:0:0:0:
448,192,19081,1,2,0:0:0:0:
192,192,19254,1,2,0:0:0:0:
320,192,19426,1,8,0:0:0:0:
448,192,19426,1,2,0:0:0:0:
64,192,19426,1,4,0:0:0:0:
192,192,19598,1,2,0:0:0:0:
320,192,19771,1,6,0:0:0:0:
448,192,19943,1,2,0:0:0:0:
192,192,20116,128,6,20460:0:0:0:0:
320,192,20288,1,2,0:0:0:0:
64,192,20460,128,6,20805:0:0:0:0:
192,192,20633,1,2,0:0:0:0:
320,192,20805,128,6,21150:0:0:0:0:
192,192,20978,1,2,0:0:0:0:
448,192,21150,128,6,21495:0:0:0:0:
64,192,21323,1,2,0:0:0:0:
192,192,21495,128,6,21840:0:0:0:0:
320,192,21667,1,2,0:0:0:0:
64,192,21840,1,6,0:0:0:0:
320,192,22012,1,2,0:0:0:0:
192,192,22185,1,6,0:0:0:0:
448,192,22357,1,2,0:0:0:0:
64,192,22529,1,6,0:0:0:0:
192,192,22702,1,2,0:0:0:0:
320,192,22874,128,6,23219:0:0:0:0:
64,192,23047,1,2,0:0:0:0:
448,192,23219,1,6,0:0:0:0:
192,192,23392,1,2,0:0:0:0:
64,192,23564,1,6,0:0:0:0:
320,192,23736,1,2,0:0:0:0:
448,192,23909,1,6,0:0:0:0:
192,192,24081,128,2,24426:0:0:0:0:
64,192,24254,1,6,0:0:0:0:
448,192,24426,128,2,24771:0:0:0:0:
320,192,24598,1,6,0:0:0:0:
64,192,24771,1,2,0:0:0:0:
192,192,24943,1,6,0:0:0:0:
320,192,25116,1,2,0:0:0:0:
448,192,25288,1,6,0:0:0:0:
192,192,25460,1,2,0:0:0:0:
64,192,25633,128,6,25978:0:0:0:0:
320,192,25805,1,2,0:0:0:0:
448,192,25978,128,6,26323:0:0:0:0:
64,192,26150,1,2,0:0:0:0:
192,192,26323,128,6,26667:0:0:0:0:
448,192,26495,1,2,0:0:0:0:
320,192,26667,128,6,27012:0:0:0:0:
192,192,26840,1,2,0:0:0:0:
64,192,27012,128,6,27357:0:0:0:0:
192,192,27185,1,2,0:0:0:0:
320,192,27357,1,6,0:0:0:0:
448,192,27529,1,2,0:0:0:0:
64,192,27702,1,8,0:0:0:0:
448,192,27702,1,2,0:0:0:0:
320,192,27702,1,0,0:0:0:0:
192,192,27788,1,0,0:0:0:0:
320,192,27874,1,0,0:0:0:0:
448,192,27960,1,0,0:0:0:0:
64,192,28047,1,8,0:0:0:0:
192,192,28047,1,0,0:0:0:0:
320,192,28133,1,0,0:0:0:0:
448,192,28219,1,0,0:0:0:0:
64,192,28305,1,0,0:0:0:0:
192,192,28392,1,0,0:0:0:0:
448,192,28392,1,8,0:0:0:0:
320,192,28478,1,0,0:0:0:0:
448,192,28564,1,0,0:0:0:0:
320,192,28650,1,0,0:0:0:0:
192,192,28736,1,0,0:0:0:0:
64,192,28736,1,8,0:0:0:0:
448,192,28823,1,0,0:0:0:0:
320,192,28909,1,0,0:0:0:0:
192,192,28995,1,0,0:0:0:0:
64,192,29081,1,0,0:0:0:0:
448,192,29081,1,8,0:0:0:0:
320,192,29167,1,0,0:0:0:0:
192,192,29254,1,0,0:0:0:0:
320,192,29340,1,0,0:0:0:0:
448,192,29426,1,0,0:0:0:0:
64,192,29426,1,8,0:0:0:0:
192,192,29512,1,0,0:0:0:0:
320,192,29598,1,0,0:0:0:0:
192,192,29685,1,0,0:0:0:0:
64,192,29771,1,0,0:0:0:0:
448,192,29771,1,8,0:0:0:0:
320,192,29857,1,0,0:0:0:0:
192,192,29943,1,0,0:0:0:0:
64,192,30029,1,0,0:0:0:0:
448,192,30116,1,0,0:0:0:0:
320,192,30116,1,8,0:0:0:0:
192,192,30202,1,0,0:0:0:0:
64,192,30288,1,0,0:0:0:0:
320,192,30374,1,0,0:0:0:0:
192,192,30460,1,8,0:0:0:0:
64,192,30460,1,0,0:0:0:0:
448,192,30633,1,0,0:0:0:0:
192,192,30805,1,8,0:0:0:0:
64,192,30805,1,0,0:0:0:0:
320,192,30805,1,4,0:0:0:0:
64,192,30978,1,0,0:0:0:0:
192,192,31150,1,0,0:0:0:0:
320,192,31323,1,0,0:0:0:0:
448,192,31323,1,8,0:0:0:0:
192,192,31495,1,4,0:0:0:0:
64,192,31495,1,8,0:0:0:0:
320,192,31495,1,0,0:0:0:0:
448,192,31667,1,0,0:0:0:0:
320,192,31754,1,0,0:0:0:0:
192,192,31840,1,8,0:0:0:0:
64,192,31840,1,0,0:0:0:0:
320,192,32012,1,0,0:0:0:0:
448,192,32012,1,0,0:0:0:0:
448,192,32185,1,4,0:0:0:0:
320,192,32185,1,0,0:0:0:0:
64,192,32185,1,8,0:0:0:0:
192,192,32357,1,8,0:0:0:0:
320,192,32357,1,0,0:0:0:0:
64,192,32529,1,0,0:0:0:0:
448,192,32702,1,8,0:0:0:0:
192,192,32702,1,0,0:0:0:0:
320,192,32874,1,4,0:0:0:0:
448,192,32874,1,0,0:0:0:0:
64,192,32874,1,8,0:0:0:0:
192,192,33047,1,8,0:0:0:0:
64,192,33047,1,0,0:0:0:0:
320,192,33219,1,8,0:0:0:0:
448,192,33219,1,0,0:0:0:0:
64,192,33392,1,0,0:0:0:0:
64,192,33564,1,0,0:0:0:0:
192,192,33564,1,8,0:0:0:0:
448,192,33564,1,4,0:0:0:0:
320,192,33736,1,0,0:0:0:0:
192,192,33909,1,0,0:0:0:0:
320,192,34081,1,8,0:0:0:0:
448,192,34081,1,0,0:0:0:0:
192,192,34254,1,8,0:0:0:0:
64,192,34254,1,4,0:0:0:0:
320,192,34254,1,0,0:0:0:0:
448,192,34426,1,0,0:0:0:0:
64,192,34598,1,0,0:0:0:0:
320,192,34598,1,8,0:0:0:0:
192,192,34771,1,0,0:0:0:0:
448,192,34771,1,8,0:0:0:0:
448,192,34943,1,0,0:0:0:0:
320,192,34943,1,8,0:0:0:0:
64,192,34943,1,4,0:0:0:0:
192,192,35116,1,8,0:0:0:0:
320,192,35116,1,0,0:0:0:0:
448,192,35288,1,0,0:0:0:0:
192,192,35460,1,8,0:0:0:0:
64,192,35460,1,0,0:0:0:0:
448,192,35633,1,0,0:0:0:0:
320,192,35633,1,8,0:0:0:0:
192,192,35633,1,4,0:0:0:0:
64,192,35805,1,0,0:0:0:0:
192,192,35805,1,8,0:0:0:0:
448,192,35892,1,0,0:0:0:0:
320,192,35892,1,8,0:0:0:0:
192,192,35978,1,8,0:0:0:0:
64,192,35978,1,0,0:0:0:0:
448,192,36150,1,8,0:0:0:0:
192,192,36150,1,0,0:0:0:0:
320,192,36323,1,8,0:0:0:0:
64,192,36323,1,4,0:0:0:0:
192,192,36323,1,0,0:0:0:0:
448,192,36495,1,8,0:0:0:0:
320,192,36495,1,0,0:0:0:0:
192,192,36667,1,0,0:0:0:0:
64,192,36840,1,8,0:0:0:0:
448,192,36840,1,0,0:0:0:0:
192,192,37012,1,8,0:0:0:0:
320,192,37012,1,4,0:0:0:0:
448,192,37012,1,0,0:0:0:0:
192,192,37185,1,0,0:0:0:0:
64,192,37357,1,0,0:0:0:0:
448,192,37529,1,8,0:0:0:0:
320,192,37529,1,0,0:0:0:0:
192,192,37702,1,0,0:0:0:0:
64,192,37702,1,4,0:0:0:0:
448,192,37702,1,8,0:0:0:0:
320,192,37874,1,0,0:0:0:0:
192,192,38047,1,0,0:0:0:0:
64,192,38219,1,0,0:0:0:0:
448,192,38219,1,8,0:0:0:0:
448,192,38392,1,0,0:0:0:0:
320,192,38392,1,4,0:0:0:0:
192,192,38392,1,8,0:0:0:0:
64,192,38564,1,8,0:0:0:0:
192,192,38564,1,0,0:0:0:0:
448,192,38736,1,4,0:0:0:0:
320,192,38736,1,8,0:0:0:0:
192,192,38736,1,0,0:0:0:0:
64,192,38909,1,0,0:0:0:0:
320,192,38909,1,8,0:0:0:0:
448,192,39081,1,8,0:0:0:0:
192,192,39081,1,0,0:0:0:0:
64,192,39254,1,8,0:0:0:0:
192,192,39254,1,0,0:0:0:0:
320,192,39254,1,4,0:0:0:0:
448,192,39426,1,0,0:0:0:0:
320,192,39426,1,8,0:0:0:0:
192,192,39598,1,8,0:0:0:0:
64,192,39598,1,0,0:0:0:0:
448,192,39771,1,4,0:0:0:0:
320,192,39771,1,8,0:0:0:0:
64,192,39771,1,0,0:0:0:0:
64,192,39943,1,0,0:0:0:0:
192,192,39943,1,8,0:0:0:0:
320,192,40116,1,8,0:0:0:0:
448,192,40116,1,4,0:0:0:0:
192,192,40116,1,0,0:0:0:0:
64,192,40288,1,0,0:0:0:0:
192,192,40288,1,8,0:0:0:0:
320,192,40460,1,8,0:0:0:0:
448,192,40460,1,0,0:0:0:0:
64,192,40633,1,0,0:0:0:0:
192,192,40633,1,8,0:0:0:0:
320,192,40719,1,0,0:0:0:0:
448,192,40805,1,0,0:0:0:0:
448,192,40978,1,0,0:0:0:0:
320,192,40978,1,8,0:0:0:0:
64,192,41150,1,4,0:0:0:0:
192,192,41150,1,8,0:0:0:0:
320,192,41150,1,0,0:0:0:0:
448,192,41236,1,0,0:0:0:0:
320,192,41323,1,0,0:0:0:0:
192,192,41409,1,0,0:0:0:0:
64,192,41495,1,0,0:0:0:0:
448,192,41495,1,8,0:0:0:0:
320,192,41667,1,0,0:0:0:0:
192,192,41667,1,8,0:0:0:0:
448,192,41840,1,8,0:0:0:0:
320,192,41840,1,4,0:0:0:0:
64,192,41840,1,0,0:0:0:0:
192,192,42012,1,0,0:0:0:0:
320,192,42185,1,0,0:0:0:0:
448,192,42357,1,0,0:0:0:0:
64,192,42357,1,8,0:0:0:0:
320,192,42529,1,4,0:0:0:0:
192,192,42529,1,8,0:0:0:0:
64,192,42529,1,0,0:0:0:0:
448,192,42702,1,0,0:0:0:0:
64,192,42874,1,0,0:0:0:0:
192,192,42874,1,8,0:0:0:0:
320,192,43047,1,0,0:0:0:0:
448,192,43047,1,8,0:0:0:0:
192,192,43219,1,4,0:0:0:0:
64,192,43219,1,8,0:0:0:0:
320,192,43219,1,0,0:0:0:0:
448,192,43392,1,8,0:0:0:0:
192,192,43392,1,0,0:0:0:0:
320,192,43564,1,0,0:0:0:0:
448,192,43736,1,0,0:0:0:0:
64,192,43736,1,8,0:0:0:0:
192,192,43909,1,8,0:0:0:0:
448,192,43909,1,0,0:0:0:0:
320,192,43909,1,4,0:0:0:0:
64,192,44081,1,0,0:0:0:0:
64,192,44254,1,0,0:0:0:0:
192,192,44254,1,8,0:0:0:0:
448,192,44426,1,0,0:0:0:0:
320,192,44426,1,8,0:0:0:0:
192,192,44598,1,8,0:0:0:0:
320,192,44598,1,0,0:0:0:0:
448,192,44598,1,4,0:0:0:0:
192,192,44771,1,0,0:0:0:0:
64,192,44943,1,0,0:0:0:0:
320,192,45116,1,8,0:0:0:0:
448,192,45116,1,0,0:0:0:0:
64,192,45288,1,0,0:0:0:0:
192,192,45288,1,4,0:0:0:0:
448,192,45288,1,8,0:0:0:0:
192,192,45460,1,0,0:0:0:0:
64,192,45633,1,0,0:0:0:0:
448,192,45633,1,8,0:0:0:0:
192,192,45805,1,8,0:0:0:0:
64,192,45805,1,0,0:0:0:0:
448,192,45978,1,0,0:0:0:0:
320,192,45978,1,4,0:0:0:0:
192,192,45978,1,8,0:0:0:0:
320,192,46150,1,0,0:0:0:0:
64,192,46323,1,0,0:0:0:0:
192,192,46495,1,8,0:0:0:0:
448,192,46495,1,0,0:0:0:0:
320,192,46667,1,8,0:0:0:0:
192,192,46667,1,0,0:0:0:0:
64,192,46667,1,4,0:0:0:0:
448,192,46840,1,0,0:0:0:0:
320,192,46840,1,8,0:0:0:0:
192,192,47012,1,8,0:0:0:0:
64,192,47012,1,0,0:0:0:0:
320,192,47012,1,4,0:0:0:0:
448,192,47185,1,0,0:0:0:0:
192,192,47185,1,8,0:0:0:0:
320,192,47357,1,8,0:0:0:0:
448,192,47357,1,0,0:0:0:0:
64,192,47357,1,4,0:0:0:0:
192,192,47529,1,8,0:0:0:0:
320,192,47529,1,0,0:0:0:0:
64,192,47702,1,4,0:0:0:0:
192,192,47702,1,0,0:0:0:0:
320,192,47702,1,8,0:0:0:0:
448,192,47874,1,0,0:0:0:0:
320,192,47874,1,8,0:0:0:0:
64,192,48047,1,0,0:0:0:0:
192,192,48047,1,8,0:0:0:0:
448,192,48047,1,4,0:0:0:0:
64,192,48219,1,0,0:0:0:0:
192,192,48219,1,8,0:0:0:0:
448,192,48392,1,0,0:0:0:0:
320,192,48392,1,8,0:0:0:0:
64,192,48392,1,4,0:0:0:0:
320,192,48564,1,0,0:0:0:0:
192,192,48564,1,8,0:0:0:0:
64,192,48736,1,0,0:0:0:0:
320,192,48736,1,8,0:0:0:0:
448,192,48736,1,4,0:0:0:0:
64,192,48909,1,0,0:0:0:0:
192,192,48909,1,8,0:0:0:0:
448,192,49081,1,0,0:0:0:0:
320,192,49081,1,8,0:0:0:0:
192,192,49081,1,4,0:0:0:0:
64,192,49254,1,8,0:0:0:0:
192,192,49254,1,0,0:0:0:0:
64,192,49426,1,4,0:0:0:0:
192,192,49426,1,8,0:0:0:0:
320,192,49426,1,0,0:0:0:0:
320,192,49598,1,8,0:0:0:0:
448,192,49598,1,0,0:0:0:0:
448,192,49771,1,8,0:0:0:0:
320,192,49771,1,4,0:0:0:0:
192,192,49771,1,0,0:0:0:0:
192,192,49943,1,8,0:0:0:0:
64,192,49943,1,0,0:0:0:0:
192,192,50116,1,8,0:0:0:0:
64,192,50116,1,0,0:0:0:0:
448,192,50288,1,4,0:0:0:0:
64,192,50288,1,0,0:0:0:0:
192,192,50288,1,8,0:0:0:0:
448,192,50460,1,0,0:0:0:0:
320,192,50460,1,8,0:0:0:0:
448,192,50633,1,0,0:0:0:0:
320,192,50633,1,8,0:0:0:0:
448,192,50805,1,0,0:0:0:0:
320,192,50805,1,8,0:0:0:0:
64,192,50805,1,4,0:0:0:0:
64,192,50978,1,0,0:0:0:0:
192,192,50978,1,8,0:0:0:0:
64,192,51150,1,0,0:0:0:0:
320,192,51150,1,4,0:0:0:0:
192,192,51150,1,8,0:0:0:0:
448,192,51323,1,8,0:0:0:0:
320,192,51323,1,0,0:0:0:0:
320,192,51495,1,8,0:0:0:0:
192,192,51495,1,0,0:0:0:0:
64,192,51667,1,0,0:0:0:0:
192,192,51667,1,0,0:0:0:0:
448,192,51840,1,0,0:0:0:0:
192,192,51840,1,0,0:0:0:0:
320,192,52012,1,0,0:0:0:0:
64,192,52012,1,0,0:0:0:0:
448,192,52185,1,0,0:0:0:0:
320,192,52185,1,0,0:0:0:0:
64,192,52357,1,0,0:0:0:0:
448,192,52357,1,0,0:0:0:0:
320,192,52529,1,4,0:0:0:0:
192,192,52529,1,8,0:0:0:0:
448,192,52529,1,0,0:0:0:0:
64,192,52702,1,0,0:0:0:0:
192,192,52702,1,8,0:0:0:0:
448,192,52874,1,0,0:0:0:0:
192,192,53047,1,4,0:0:0:0:
64,192,53047,1,0,0:0:0:0:
320,192,53047,1,8,0:0:0:0:
448,192,53219,1,0,0:0:0:0:
320,192,53219,1,8,0:0:0:0:
64,192,53392,1,0,0:0:0:0:
320,192,53564,1,0,0:0:0:0:
64,192,53564,1,8,0:0:0:0:
448,192,53564,1,4,0:0:0:0:
192,192,53736,1,0,0:0:0:0:
320,192,53736,1,8,0:0:0:0:
448,192,53909,1,4,0:0:0:0:
320,192,53909,1,8,0:0:0:0:
64,192,53909,1,0,0:0:0:0:
192,192,54081,1,8,0:0:0:0:
448,192,54081,1,0,0:0:0:0:
320,192,54254,1,0,0:0:0:0:
192,192,54426,1,8,0:0:0:0:
64,192,54426,1,4,0:0:0:0:
448,192,54426,1,0,0:0:0:0:
192,192,54598,1,0,0:0:0:0:
64,192,54598,1,8,0:0:0:0:
320,192,54771,1,0,0:0:0:0:
448,192,54943,1,8,0:0:0:0:
192,192,54943,1,4,0:0:0:0:
64,192,54943,1,0,0:0:0:0:
192,192,55116,1,0,0:0:0:0:
320,192,55116,1,8,0:0:0:0:
64,192,55288,1,0,0:0:0:0:
448,192,55288,1,4,0:0:0:0:
320,192,55288,1,8,0:0:0:0:
192,192,55460,1,8,0:0:0:0:
64,192,55460,1,0,0:0:0:0:
320,192,55633,1,0,0:0:0:0:
448,192,55805,1,0,0:0:0:0:
320,192,55805,1,4,0:0:0:0:
192,192,55805,1,8,0:0:0:0:
64,192,55978,1,0,0:0:0:0:
192,192,55978,1,8,0:0:0:0:
320,192,56150,1,0,0:0:0:0:
192,192,56323,1,4,0:0:0:0:
64,192,56323,1,0,0:0:0:0:
448,192,56323,1,8,0:0:0:0:
320,192,56495,1,8,0:0:0:0:
64,192,56495,1,0,0:0:0:0:
192,192,56667,1,8,0:0:0:0:
320,192,56667,1,0,0:0:0:0:
448,192,56667,1,4,0:0:0:0:
64,192,56840,1,0,0:0:0:0:
448,192,56840,1,8,0:0:0:0:
192,192,57012,1,0,0:0:0:0:
448,192,57185,1,4,0:0:0:0:
320,192,57185,1,8,0:0:0:0:
64,192,57185,1,0,0:0:0:0:
320,192,57357,1,8,0:0:0:0:
448,192,57357,1,0,0:0:0:0:
64,192,57529,1,0,0:0:0:0:
64,192,57702,1,0,0:0:0:0:
192,192,57702,1,0,0:0:0:0:
448,192,57874,1,0,0:0:0:0:
320,192,57874,1,0,0:0:0:0:
192,192,58047,1,8,0:0:0:0:
64,192,58047,1,0,0:0:0:0:
320,192,58047,1,4,0:0:0:0:
64,192,58219,1,8,0:0:0:0:
320,192,58219,1,0,0:0:0:0:
192,192,58392,1,0,0:0:0:0:
448,192,58564,1,4,0:0:0:0:
320,192,58564,1,8,0:0:0:0:
64,192,58564,1,0,0:0:0:0:
448,192,58736,1,8,0:0:0:0:
192,192,58736,1,0,0:0:0:0:
320,192,58909,1,0,0:0:0:0:
448,192,59081,1,4,0:0:0:0:
320,192,59081,1,8,0:0:0:0:
64,192,59081,1,0,0:0:0:0:
192,192,59254,1,0,0:0:0:0:
448,192,59254,1,8,0:0:0:0:
64,192,59426,1,0,0:0:0:0:
192,192,59426,1,4,0:0:0:0:
320,192,59426,1,8,0:0:0:0:
448,192,59598,1,0,0:0:0:0:
320,192,59598,1,8,0:0:0:0:
64,192,59771,1,0,0:0:0:0:
192,192,59943,1,8,0:0:0:0:
320,192,59943,1,4,0:0:0:0:
448,192,59943,1,0,0:0:0:0:
64,192,60116,1,0,0:0:0:0:
192,192,60116,1,8,0:0:0:0:
448,192,60288,1,0,0:0:0:0:
448,192,60460,1,8,0:0:0:0:
64,192,60460,1,0,0:0:0:0:
192,192,60460,1,4,0:0:0:0:
64,192,60633,1,0,0:0:0:0:
192,192,60633,1,8,0:0:0:0:
448,192,60805,1,0,0:0:0:0:
320,192,60805,1,4,0:0:0:0:
192,192,60805,1,8,0:0:0:0:
64,192,60978,1,8,0:0:0:0:
192,192,60978,1,0,0:0:0:0:
320,192,61150,1,0,0:0:0:0:
448,192,61323,1,0,0:0:0:0:
192,192,61323,1,8,0:0:0:0:
64,192,61323,1,4,0:0:0:0:
320,192,61495,1,8,0:0:0:0:
192,192,61495,1,0,0:0:0:0:
448,192,61667,1,0,0:0:0:0:
448,192,61840,1,8,0:0:0:0:
320,192,61840,1,4,0:0:0:0:
192,192,61840,1,0,0:0:0:0:
64,192,62012,1,0,0:0:0:0:
192,192,62012,1,8,0:0:0:0:
320,192,62185,1,4,0:0:0:0:
448,192,62185,1,0,0:0:0:0:
192,192,62185,1,8,0:0:0:0:
448,192,62357,1,8,0:0:0:0:
64,192,62357,1,0,0:0:0:0:
192,192,62529,1,0,0:0:0:0:
320,192,62702,1,8,0:0:0:0:
448,192,62702,1,4,0:0:0:0:
64,192,62702,1,0,0:0:0:0:
320,192,62874,1,0,0:0:0:0:
64,192,62874,1,0,0:0:0:0:
192,192,63047,1,0,0:0:0:0:
448,192,63047,1,0,0:0:0:0:
192,192,63219,1,0,0:0:0:0:
320,192,63219,1,0,0:0:0:0:
64,192,63392,1,0,0:0:0:0:
448,192,63392,1,0,0:0:0:0:
320,192,63564,1,8,0:0:0:0:
192,192,63564,1,4,0:0:0:0:
448,192,63564,1,0,0:0:0:0:
192,192,63736,1,0,0:0:0:0:
64,192,63736,1,0,0:0:0:0:
192,192,63909,1,0,0:0:0:0:
64,192,63909,1,0,0:0:0:0:
64,192,64081,1,0,0:0:0:0:
192,192,64081,1,4,0:0:0:0:
320,192,64081,1,8,0:0:0:0:
448,192,64254,1,0,0:0:0:0:
320,192,64254,1,0,0:0:0:0:
448,192,64426,1,0,0:0:0:0:
320,192,64426,1,0,0:0:0:0:
448,192,64598,1,4,0:0:0:0:
320,192,64598,1,8,0:0:0:0:
64,192,64598,1,0,0:0:0:0:
64,192,64771,1,0,0:0:0:0:
192,192,64771,1,0,0:0:0:0:
320,192,64857,1,0,0:0:0:0:
448,192,64943,1,0,0:0:0:0:
64,192,64943,1,4,0:0:0:0:
192,192,64943,1,8,0:0:0:0:
192,192,65116,1,0,0:0:0:0:
320,192,65116,1,0,0:0:0:0:
192,192,65288,1,0,0:0:0:0:
320,192,65288,1,0,0:0:0:0:
448,192,65460,1,8,0:0:0:0:
320,192,65460,1,4,0:0:0:0:
192,192,65460,1,0,0:0:0:0:
64,192,65633,1,0,0:0:0:0:
192,192,65633,1,0,0:0:0:0:
64,192,65805,1,0,0:0:0:0:
192,192,65805,1,0,0:0:0:0:
64,192,65978,1,0,0:0:0:0:
192,192,65978,1,8,0:0:0:0:
448,192,65978,1,4,0:0:0:0:
320,192,66150,1,0,0:0:0:0:
192,192,66150,1,0,0:0:0:0:
448,192,66323,1,8,0:0:0:0:
320,192,66323,1,4,0:0:0:0:
64,192,66323,128,0,66667:0:0:0:0:
192,192,66667,128,2,66840:0:0:0:0:
448,192,66840,128,2,67012:0:0:0:0:
320,192,67012,128,2,67185:0:0:0:0:
64,192,67185,128,2,67357:0:0:0:0:
192,192,67357,128,2,67529:0:0:0:0:
448,192,67702,128,2,67874:0:0:0:0:
192,192,67874,128,2,68047:0:0:0:0:
320,192,68219,128,2,68392:0:0:0:0:
64,192,68564,128,2,68736:0:0:0:0:
192,192,68736,128,2,68909:0:0:0:0:
320,192,68909,128,2,69081:0:0:0:0:
448,192,69081,1,6,0:0:0:0:
