osu file format v14

[General]
AudioFilename: One Ok Rock Re Make [Mp3glu.com].mp3
AudioLeadIn: 0
PreviewTime: -1
Countdown: 1
SampleSet: None
StackLeniency: 0.7
Mode: 0
LetterboxInBreaks: 0
WidescreenStoryboard: 0

[Editor]
DistanceSpacing: 0.8
BeatDivisor: 4
GridSize: 8
TimelineZoom: 1

[Metadata]
Title:Re:make
TitleUnicode:Re:make
Artist:ONE OK ROCK
ArtistUnicode:ONE OK ROCK
Creator:xIdrIZz
Version:Trust.
Source:
Tags:
BeatmapID:880857
BeatmapSetID:405216

[Difficulty]
HPDrainRate:6
CircleSize:4
OverallDifficulty:7
ApproachRate:9.6
SliderMultiplier:1.4
SliderTickRate:1

[Events]
//Background and Video events
0,0,"swordartonlineposter.jpg",0,0
//Break Periods
//Storyboard Layer 0 (Background)
//Storyboard Layer 1 (Fail)
//Storyboard Layer 2 (Pass)
//Storyboard Layer 3 (Foreground)
//Storyboard Sound Samples

[TimingPoints]
0,348.837209302326,4,1,0,88,1,0
47965,-80,4,3,0,100,0,1
59651,-100,4,1,0,88,0,0
92790,-80,4,3,0,100,0,1
115465,-133.333333333333,4,3,0,81,0,0
124883,-100,4,3,0,91,0,0
148081,-80,4,3,0,91,0,0
192906,-100,4,3,0,91,0,0

[HitObjects]
176,64,872,5,0,3:2:0:0:
80,144,1046,1,0,3:2:0:0:
240,144,1220,1,0,3:2:0:0:
96,128,1395,1,0,3:2:0:0:
96,224,1569,2,0,B|128:272|176:240|224:288,1,140,0|0,3:2|3:2,3:2:0:0:
304,320,2093,5,0,3:2:0:0:
400,256,2267,1,0,3:2:0:0:
464,128,2441,1,0,3:2:0:0:
368,48,2616,1,0,3:2:0:0:
288,176,2790,1,0,3:2:0:0:
224,48,2965,1,0,3:2:0:0:
176,224,3139,1,0,3:2:0:0:
384,112,3313,2,4,B|400:176|432:160|432:240,1,140,0|4,3:2|3:2,3:2:0:0:
176,160,3837,5,0,3:2:0:0:
336,192,4011,1,0,3:2:0:0:
192,288,4186,1,0,3:2:0:0:
272,112,4360,2,0,P|272:48|192:48,1,140,0|0,3:2|3:2,3:2:0:0:
144,176,4883,5,0,3:2:0:0:
304,240,5058,2,0,L|368:288,1,70,0|0,3:2|3:2,3:2:0:0:
208,240,5406,2,0,L|160:288,2,35,0|0|0,3:2|3:2|3:2,3:2:0:0:
256,160,5755,2,0,B|272:112|240:96|256:16,1,140,0|0,3:2|3:2,3:2:0:0:
176,192,6279,1,0,3:2:0:0:
352,176,6453,1,4,3:2:0:0:
304,96,6627,6,0,P|176:96|80:144,1,210,0|0,3:2|3:2,3:2:0:0:
176,224,7325,1,0,3:2:0:0:
320,304,7500,1,0,3:2:0:0:
160,336,7674,1,0,3:2:0:0:
336,208,7848,6,0,P|416:160|400:96,1,140,0|0,3:2|3:2,3:2:0:0:
352,48,8372,2,0,P|288:48|272:64,1,70,0|0,3:2|3:2,3:2:0:0:
144,96,8720,1,0,3:2:0:0:
128,240,8895,2,0,P|160:272|256:288,1,140,0|0,3:2|3:2,3:2:0:0:
400,128,9418,5,0,3:2:0:0:
160,224,9593,1,0,3:2:0:0:
336,144,9767,2,0,P|304:64|256:32,1,140,0|0,3:2|3:2,3:2:0:0:
144,64,10290,1,0,3:2:0:0:
128,192,10465,1,0,3:2:0:0:
224,272,10639,1,0,3:2:0:0:
336,304,10813,6,2,L|432:320,1,70,2|2,3:2|3:2,3:2:0:0:
400,176,11162,2,2,L|304:192,1,70,2|2,3:2|3:2,3:2:0:0:
336,64,11511,2,2,L|432:80,1,70,2|2,3:2|3:2,3:2:0:0:
288,128,12034,5,12,3:2:0:0:
288,256,12209,1,8,3:2:0:0:
160,176,12732,1,0,3:2:0:0:
160,176,12906,6,0,L|112:256,1,70,0|0,3:2|3:2,3:2:0:0:
256,272,13255,1,0,3:2:0:0:
400,224,13430,1,0,3:2:0:0:
400,224,13604,2,0,P|432:144|400:96,1,140,0|0,3:2|3:2,3:2:0:0:
256,96,14127,1,0,3:2:0:0:
144,192,14302,1,0,3:2:0:0:
144,192,14476,2,0,B|128:272|160:240|144:336,1,140,0|12,3:2|3:2,3:2:0:0:
256,336,15000,2,8,L|336:352,1,70,8|8,3:2|3:2,3:2:0:0:
432,256,15523,6,0,B|464:208|400:160|448:96,1,140,0|0,3:2|3:2,3:2:0:0:
224,64,16046,1,8,3:2:0:0:
336,176,16220,1,8,3:2:0:0:
144,144,16395,1,8,3:2:0:0:
352,144,16569,1,8,3:2:0:0:
240,64,16744,1,10,3:2:0:0:
112,144,16918,1,10,3:2:0:0:
128,272,17093,1,10,3:2:0:0:
288,304,17267,2,2,B|384:304|336:352|432:352,1,140,2|4,3:2|3:2,3:2:0:0:
432,160,17790,2,0,L|496:112,1,70,0|0,3:2|3:2,3:2:0:0:
208,256,18139,2,0,L|128:304,1,70,0|0,3:2|3:2,3:2:0:0:
432,320,18837,5,0,3:2:0:0:
320,288,19011,1,0,3:2:0:0:
432,176,19186,1,0,3:2:0:0:
208,256,19360,1,0,3:2:0:0:
288,144,19534,2,0,P|288:96|320:80,1,70,0|0,3:2|3:2,3:2:0:0:
384,80,19883,1,0,3:2:0:0:
448,176,20058,1,0,3:2:0:0:
384,272,20232,1,0,3:2:0:0:
272,320,20406,6,4,L|192:304,1,70,4|4,3:2|3:2,3:2:0:0:
128,240,20755,1,0,3:2:0:0:
144,144,20930,1,8,3:2:0:0:
208,80,21104,2,2,L|240:48,6,35,2|2|2|2|2|2|2,3:2|3:2|3:2|3:2|3:2|3:2|3:2,3:2:0:0:
368,112,21802,5,2,3:2:0:0:
368,112,21889,1,2,3:2:0:0:
368,112,21976,1,2,3:2:0:0:
368,112,22063,1,2,3:2:0:0:
368,112,22151,1,2,3:2:0:0:
368,112,22238,1,2,3:2:0:0:
368,112,22325,2,2,B|400:160|352:160|384:224,1,105,2|4,3:2|3:2,3:2:0:0:
128,208,22761,6,4,B|160:160|112:160|144:96,1,105,4|4,3:2|3:2,3:2:0:0:
240,80,23197,6,12,L|320:48,1,70,12|12,3:2|3:2,3:2:0:0:
416,112,23546,1,0,3:2:0:0:
400,224,23720,2,0,L|320:288,1,70,0|0,3:2|3:2,3:2:0:0:
192,288,24244,6,4,P|112:288|96:224,1,140,4|4,3:2|3:2,3:2:0:0:
64,128,24767,1,0,3:2:0:0:
240,192,24941,1,0,3:2:0:0:
144,64,25116,1,0,3:2:0:0:
160,224,25290,1,0,3:2:0:0:
160,144,25465,2,0,L|240:96,1,70,0|0,3:2|3:2,3:2:0:0:
320,80,25988,5,4,3:2:0:0:
416,176,26162,1,4,3:2:0:0:
320,256,26511,2,0,B|272:224|224:272|176:240,1,140,0|0,3:2|3:2,3:2:0:0:
80,160,27034,1,0,3:2:0:0:
176,128,27209,2,0,B|240:128|240:64|304:64,1,140,0|0,3:2|3:2,3:2:0:0:
400,112,27732,1,0,3:2:0:0:
416,224,27906,1,0,3:2:0:0:
288,288,28081,1,0,3:2:0:0:
304,176,28255,5,0,3:2:0:0:
400,320,28430,1,0,3:2:0:0:
288,288,28604,1,0,3:2:0:0:
208,160,28779,5,4,3:2:0:0:
224,288,28953,1,4,3:2:0:0:
96,256,29302,2,0,B|64:192|112:192|96:112,1,140,0|0,3:2|3:2,3:2:0:0:
176,64,29825,1,0,3:2:0:0:
352,128,30000,1,0,3:2:0:0:
176,144,30348,5,4,3:2:0:0:
352,208,30523,1,0,3:2:0:0:
304,80,30697,1,0,3:2:0:0:
224,288,30872,1,0,3:2:0:0:
96,208,31046,1,0,3:2:0:0:
128,336,31220,1,0,3:2:0:0:
192,160,31395,1,0,3:2:0:0:
320,240,31569,6,2,L|352:272,2,35,2|2|2,3:2|3:2|3:2,3:2:0:0:
256,160,31918,1,0,3:2:0:0:
160,288,32093,6,0,L|128:320,2,35,0|0|0,3:2|3:2|3:2,3:2:0:0:
256,160,32616,1,0,3:2:0:0:
80,128,32965,2,0,L|160:160,1,70,0|0,3:2|3:2,3:2:0:0:
144,153,33313,1,0,3:2:0:0:
352,176,33488,1,0,3:2:0:0:
224,176,33662,1,0,3:2:0:0:
256,288,33837,1,0,3:2:0:0:
256,176,34011,2,0,B|288:128|224:80|256:32,1,140,0|4,3:2|3:2,3:2:0:0:
432,208,36453,6,8,L|480:240,2,35,8|8|8,3:2|3:2|3:2,3:2:0:0:
320,288,36802,2,4,L|352:320,2,35,4|4|4,3:2|3:2|3:2,3:2:0:0:
176,256,37151,2,0,P|96:240|64:176,1,140,0|2,3:2|3:2,3:2:0:0:
176,48,37848,1,0,3:2:0:0:
352,48,38023,1,0,3:2:0:0:
432,176,38197,1,2,3:2:0:0:
320,240,38546,6,0,P|208:240|160:208,1,140,0|2,3:2|3:2,3:2:0:0:
112,144,39069,1,2,3:2:0:0:
208,32,39244,1,2,3:2:0:0:
352,48,39418,1,4,3:2:0:0:
416,176,39593,1,4,3:2:0:0:
320,272,39941,6,0,P|256:272|176:208,1,140,0|2,3:2|3:2,3:2:0:0:
288,160,40465,1,0,3:2:0:0:
384,96,40639,2,0,L|432:160,1,70,0|0,3:2|3:2,3:2:0:0:
432,240,40988,2,0,P|416:304|400:304,1,70,2|0,3:2|3:2,3:2:0:0:
288,304,41337,5,0,3:2:0:0:
160,288,41511,1,0,3:2:0:0:
288,208,41686,2,0,L|224:176,1,70,2|0,3:2|3:2,3:2:0:0:
224,176,42034,5,0,3:2:0:0:
112,160,42209,1,0,3:2:0:0:
208,80,42383,2,0,L|192:32,1,35,10|0,3:2|3:2,3:2:0:0:
304,96,42558,2,0,L|304:32,1,35,8|0,3:2|3:2,3:2:0:0:
384,144,42732,6,12,B|352:240|416:192|384:304,1,140,12|14,3:2|3:2,3:2:0:0:
288,304,43255,2,0,P|240:336|224:320,1,70,0|0,3:2|3:2,3:2:0:0:
160,240,43779,1,2,3:2:0:0:
112,128,44127,2,0,P|144:48|208:48,1,140,0|2,3:2|3:2,3:2:0:0:
192,128,44651,1,0,3:2:0:0:
336,16,44825,1,0,3:2:0:0:
272,208,45000,1,0,3:2:0:0:
240,288,45174,2,0,L|288:288,1,35,10|0,3:2|3:2,3:2:0:0:
240,288,45348,2,0,L|256:320,1,35,8|0,3:2|3:2,3:2:0:0:
240,288,45523,6,12,B|176:256|160:304|112:240,1,140,12|14,3:2|3:2,3:2:0:0:
48,160,46046,1,0,3:2:0:0:
128,64,46220,1,0,3:2:0:0:
240,80,46395,2,0,B|256:64|304:64|336:80,1,70,0|2,3:2|3:2,3:2:0:0:
432,128,46744,1,0,3:2:0:0:
432,128,46918,6,0,B|400:176|464:208|432:272,1,140,0|2,3:2|3:2,3:2:0:0:
336,336,47441,2,0,B|304:352|224:352|192:304,1,140,0|0,3:2|3:2,3:2:0:0:
128,288,47965,5,8,3:2:0:0:
112,272,48052,1,2,3:2:0:0:
96,256,48139,1,10,3:2:0:0:
80,240,48226,1,2,3:2:0:0:
64,224,48313,6,2,P|80:160|160:80,1,175,10|2,3:2|3:2,3:2:0:0:
256,32,48837,1,8,3:2:0:0:
448,176,49011,1,8,3:2:0:0:
240,160,49186,1,2,3:2:0:0:
448,64,49360,1,6,3:2:0:0:
448,256,49709,1,2,3:2:0:0:
448,256,49796,1,2,3:2:0:0:
448,256,49883,6,2,B|432:320|400:336|400:336,1,87.5,2|2,3:2|3:2,3:2:0:0:
272,336,50232,1,0,3:2:0:0:
128,288,50406,1,0,3:2:0:0:
64,160,50581,1,0,3:2:0:0:
128,80,50755,2,0,B|160:32|192:64|224:16,1,87.5,2|0,3:2|3:2,3:2:0:0:
336,48,51104,6,0,B|304:80|304:80|304:128,1,87.5,0|0,3:2|3:2,3:2:0:0:
448,128,51453,2,0,B|480:160|480:160|480:256|432:288,1,175,2|0,3:2|3:2,3:2:0:0:
320,320,51976,1,0,3:2:0:0:
112,256,52151,1,2,3:2:0:0:
320,192,52325,1,0,3:2:0:0:
112,144,52500,2,0,B|48:144|48:144|32:32,1,175,0|2,3:2|3:2,3:2:0:0:
128,16,53023,2,0,B|176:16|176:16|192:64,1,87.5,0|0,3:2|3:2,3:2:0:0:
352,80,53372,1,0,3:2:0:0:
352,80,53546,1,2,3:2:0:0:
384,352,53895,5,2,3:2:0:0:
384,352,53982,1,2,3:2:0:0:
384,352,54069,2,2,B|320:384|320:384|272:368,1,87.5,2|2,3:2|3:2,3:2:0:0:
176,336,54418,1,0,3:2:0:0:
48,160,54593,1,0,3:2:0:0:
192,272,54767,1,0,3:2:0:0:
32,224,54941,5,2,3:2:0:0:
128,176,55116,2,0,L|176:96,1,87.5,0|0,3:2|3:2,3:2:0:0:
224,176,55465,2,0,L|320:160,1,87.5,0|2,3:2|3:2,3:2:0:0:
272,64,55988,5,0,3:2:0:0:
464,144,56162,1,0,3:2:0:0:
352,288,56337,1,2,3:2:0:0:
352,288,56424,1,2,3:2:0:0:
352,288,56511,6,2,P|304:320|256:288,1,87.5,2|2,3:2|3:2,3:2:0:0:
80,192,56860,1,0,3:2:0:0:
80,192,57034,1,2,3:2:0:0:
80,192,57383,5,0,3:2:0:0:
128,320,57558,1,0,3:2:0:0:
272,256,57732,1,2,3:2:0:0:
192,144,57906,2,0,L|160:48,1,87.5,8|4,3:2|3:2,3:2:0:0:
256,32,58255,2,0,L|352:16,1,87.5,8|6,3:2|3:2,3:2:0:0:
384,128,58604,2,0,L|416:224,1,87.5,8|4,3:2|3:2,3:2:0:0:
411,211,58866,1,10,3:2:0:0:
411,211,58953,1,10,3:2:0:0:
320,320,59127,6,0,B|288:256|208:288|160:224,1,175,2|14,3:2|3:2,3:2:0:0:
112,112,59651,1,14,3:2:0:0:
368,64,60000,2,2,L|432:0,1,70,2|2,3:2|3:2,3:2:0:0:
400,144,60348,2,2,L|480:112,1,70,2|2,3:2|3:2,3:2:0:0:
96,240,60697,5,8,3:2:0:0:
96,240,61046,5,2,3:2:0:0:
384,48,61220,1,10,3:2:0:0:
384,240,61395,1,2,3:2:0:0:
240,144,61569,1,10,3:2:0:0:
112,64,61744,1,2,3:2:0:0:
272,256,61918,1,10,3:2:0:0:
352,48,62093,1,2,3:2:0:0:
304,192,62267,6,2,L|272:256,1,70,14|14,3:2|3:2,3:2:0:0:
80,272,62790,6,2,L|176:304,1,70,2|2,3:2|3:2,3:2:0:0:
432,272,63139,2,2,L|336:304,1,70,2|2,3:2|3:2,3:2:0:0:
256,288,63488,1,8,3:2:0:0:
256,288,63837,6,2,L|336:240,1,70,2|10,3:2|3:2,3:2:0:0:
448,192,64186,1,2,3:2:0:0:
240,80,64360,1,10,3:2:0:0:
64,192,64534,2,2,L|80:272,1,70,2|10,3:2|3:2,3:2:0:0:
128,304,64883,2,2,L|160:320,1,35,2|2,3:2|3:2,3:2:0:0:
304,320,65058,6,2,L|400:288,1,70,14|14,3:2|3:2,3:2:0:0:
224,48,65581,5,2,3:2:0:0:
64,144,65755,1,2,3:2:0:0:
224,256,65930,1,2,3:2:0:0:
304,224,66104,2,2,L|400:192,1,70,2|8,3:2|3:2,3:2:0:0:
368,192,66627,5,2,3:2:0:0:
48,192,66802,1,10,3:2:0:0:
352,112,66976,1,2,3:2:0:0:
64,112,67151,1,10,3:2:0:0:
208,112,67325,1,2,3:2:0:0:
208,208,67500,6,2,B|192:256|192:256|192:288|192:288,1,70,10|2,3:2|3:2,3:2:0:0:
368,160,67848,5,14,3:2:0:0:
304,304,68023,1,14,3:2:0:0:
304,304,68372,5,6,3:2:0:0:
176,112,68546,1,10,3:2:0:0:
192,304,68720,1,6,3:2:0:0:
320,112,68895,1,10,3:2:0:0:
128,224,69069,1,6,3:2:0:0:
320,192,69244,6,2,B|368:176|368:176|384:128,1,70,10|6,3:2|3:2,3:2:0:0:
320,48,69593,5,8,3:2:0:0:
112,128,69767,1,12,3:2:0:0:
320,176,69941,1,8,3:2:0:0:
96,240,70116,5,10,3:2:0:0:
96,240,70203,1,10,3:2:0:0:
96,240,70290,1,14,3:2:0:0:
144,304,70465,6,14,B|160:336|160:336|208:336,1,70,10|14,3:2|3:2,3:2:0:0:
400,48,70988,6,0,B|432:64|432:64|432:112,1,70,0|0,3:2|3:2,3:2:0:0:
432,208,71337,1,2,3:2:0:0:
432,208,71424,1,2,3:2:0:0:
432,208,71511,2,0,B|432:288|432:288|368:336,1,140,6|0,3:2|3:2,3:2:0:0:
240,320,72034,1,6,3:2:0:0:
96,240,72209,1,2,3:2:0:0:
240,320,72383,1,6,3:2:0:0:
176,176,72558,1,2,3:2:0:0:
240,320,72732,1,6,3:2:0:0:
288,176,72906,1,2,3:2:0:0:
320,320,73081,2,4,B|368:304|432:352|464:320,1,140,4|4,3:2|3:2,3:2:0:0:
448,224,73604,5,8,3:2:0:0:
288,144,73779,1,2,3:2:0:0:
448,96,73953,1,2,3:2:0:0:
288,32,74127,1,2,3:2:0:0:
288,32,74215,1,2,3:2:0:0:
288,32,74302,2,0,B|192:32|192:32|160:64,1,140,6|0,3:2|3:2,3:2:0:0:
64,144,74825,5,6,3:2:0:0:
224,208,75000,1,2,3:2:0:0:
64,272,75174,1,6,3:2:0:0:
224,320,75348,1,2,3:2:0:0:
64,368,75523,1,6,3:2:0:0:
224,208,75697,1,2,3:2:0:0:
336,112,75872,2,0,B|368:64|448:96|464:48,1,140,4|4,3:2|3:2,3:2:0:0:
112,304,76395,5,0,3:2:0:0:
256,336,76569,1,0,3:2:0:0:
224,160,76744,1,0,3:2:0:0:
256,336,76918,2,0,B|336:336|336:336|384:288,1,140,4|0,3:2|3:2,3:2:0:0:
432,240,77441,1,2,3:2:0:0:
464,112,77616,1,6,3:2:0:0:
320,48,77790,1,2,3:2:0:0:
160,112,77965,1,6,3:2:0:0:
96,256,78139,1,2,3:2:0:0:
208,304,78313,6,2,L|256:320,1,35,6|2,3:2|3:2,3:2:0:0:
304,320,78488,2,4,B|400:304|400:304|400:304,1,70,4|4,3:2|3:2,3:2:0:0:
416,256,78837,2,0,L|464:176,1,70,0|4,3:2|3:2,3:2:0:0:
64,48,79186,5,8,3:2:0:0:
272,112,79360,1,10,3:2:0:0:
64,208,79534,1,8,3:2:0:0:
272,272,79709,1,14,3:2:0:0:
272,272,80058,5,14,3:2:0:0:
64,208,80232,1,12,3:2:0:0:
272,112,80581,1,8,3:2:0:0:
64,48,80755,1,14,3:2:0:0:
64,208,80930,2,6,B|64:272|64:272|128:320,1,140,6|2,3:2|3:2,3:2:0:0:
256,336,81453,1,10,3:2:0:0:
384,320,81627,1,10,3:2:0:0:
384,320,81715,1,2,3:2:0:0:
384,320,81802,6,0,L|384:224,1,70,14|0,3:2|3:2,3:2:0:0:
384,96,82151,1,10,3:2:0:0:
384,96,82325,1,0,3:2:0:0:
176,96,82500,2,0,B|128:64|64:112|16:80,1,140,8|2,3:2|3:2,3:2:0:0:
64,176,83023,6,0,L|160:192,1,70,0|0,3:2|3:2,3:2:0:0:
128,272,83372,2,0,L|32:288,1,70,0|2,3:2|3:2,3:2:0:0:
256,240,83720,1,2,3:2:0:0:
256,240,83808,1,2,3:2:0:0:
256,240,83895,2,0,P|288:288|320:288,1,70,0|0,3:2|3:2,3:2:0:0:
464,272,84244,2,0,B|464:192|464:192|432:128,1,140,2|0,3:2|3:2,3:2:0:0:
336,48,84767,5,2,3:2:0:0:
336,48,84941,1,2,3:2:0:0:
336,48,85116,1,2,3:2:0:0:
208,48,85290,2,0,B|128:48|128:48|80:96,1,140,12|2,3:2|3:2,3:2:0:0:
80,256,85813,2,0,L|16:304,1,70,2|10,3:2|3:2,3:2:0:0:
240,128,86162,1,2,3:2:0:0:
48,176,86337,1,14,3:2:0:0:
208,272,86511,1,2,3:2:0:0:
384,288,86686,1,10,3:2:0:0:
208,272,86860,1,2,3:2:0:0:
384,288,87034,2,0,B|480:288|480:288|512:256,1,140,14|8,3:2|3:2,3:2:0:0:
128,112,87732,6,2,P|64:80|48:80,2,70,2|2|2,3:2|3:2|3:2,3:2:0:0:
240,192,88255,1,4,3:2:0:0:
352,288,88604,2,2,P|400:304|448:304,2,70,2|2|2,3:2|3:2|3:2,3:2:0:0:
176,144,89127,2,4,L|112:96,1,70,6|4,3:2|3:2,3:2:0:0:
336,256,89826,1,4,3:2:0:0:
336,256,90000,2,4,B|400:272|400:336|464:336,1,140,14|4,3:2|3:2,3:2:0:0:
144,112,90697,5,2,3:2:0:0:
256,304,90872,1,10,3:2:0:0:
368,112,91046,1,2,3:2:0:0:
256,192,91395,1,2,3:2:0:0:
144,256,91569,6,4,L|96:288,2,35,4|4|4,3:2|3:2|3:2,3:2:0:0:
368,64,92093,5,14,3:2:0:0:
368,64,92180,1,14,3:2:0:0:
368,64,92267,1,14,3:2:0:0:
192,32,92616,5,0,3:2:0:0:
144,32,92703,1,0,3:2:0:0:
96,48,92790,1,0,3:2:0:0:
64,80,92877,1,0,3:2:0:0:
48,112,92965,2,0,P|48:224|64:288,1,175,0|10,3:2|3:2,3:2:0:0:
208,304,93488,2,0,L|304:352,1,87.5,0|0,3:2|3:2,3:2:0:0:
384,288,93837,2,0,L|480:256,1,87.5,0|10,3:2|3:2,3:2:0:0:
464,128,94186,1,0,3:2:0:0:
464,128,94360,6,0,B|432:48|384:48|304:64,1,175,0|10,3:2|3:2,3:2:0:0:
192,64,94883,1,0,3:2:0:0:
64,128,95058,1,0,3:2:0:0:
32,256,95232,1,0,3:2:0:0:
32,256,95406,2,0,B|128:272|128:272|128:272,1,87.5,10|0,3:2|3:2,3:2:0:0:
160,288,95668,1,0,3:2:0:0:
208,304,95755,6,0,B|272:352|288:256|352:336|400:288,1,175,0|10,3:2|3:2,3:2:0:0:
448,176,96279,2,0,L|352:192,1,87.5,0|0,3:2|3:2,3:2:0:0:
384,48,96627,2,0,L|320:112,1,87.5,0|10,3:2|3:2,3:2:0:0:
240,192,96976,1,0,3:2:0:0:
240,192,97151,5,0,3:2:0:0:
112,96,97325,1,0,3:2:0:0:
368,96,97500,2,0,L|448:48,1,87.5,10|0,3:2|3:2,3:2:0:0:
240,192,97848,1,0,3:2:0:0:
112,256,98023,1,0,3:2:0:0:
288,320,98197,2,0,P|352:304|384:256,1,87.5,10|0,3:2|3:2,3:2:0:0:
400,256,98459,1,0,3:2:0:0:
432,208,98546,6,0,L|496:128,1,87.5,0|0,3:2|3:2,3:2:0:0:
416,48,98895,2,0,B|352:48|304:96|304:96|224:96,1,175,10|0,3:2|3:2,3:2:0:0:
176,288,99418,1,0,3:2:0:0:
320,112,99593,1,10,3:2:0:0:
368,288,99767,1,0,3:2:0:0:
368,288,99854,1,0,3:2:0:0:
368,288,99941,2,0,L|448:336,1,87.5,0|0,3:2|3:2,3:2:0:0:
176,160,100290,2,0,B|80:96|80:96|64:32,1,175,10|0,3:2|3:2,3:2:0:0:
288,64,100813,5,0,3:2:0:0:
432,112,100988,2,0,L|464:208,1,87.5,10|0,3:2|3:2,3:2:0:0:
464,224,101250,1,0,3:2:0:0:
464,272,101337,6,0,L|400:368,1,87.5,0|0,3:2|3:2,3:2:0:0:
160,240,101686,2,0,P|96:224|64:240,2,87.5,2|0|0,3:2|3:2|3:2,3:2:0:0:
352,320,102209,2,0,P|416:336|448:320,2,87.5,0|2|0,3:2|3:2|3:2,3:2:0:0:
256,288,102732,2,0,B|192:288|192:288|160:256,1,87.5,0|0,3:2|3:2,3:2:0:0:
32,224,103081,2,0,B|32:144|32:144|48:128,1,87.5,2|0,3:2|3:2,3:2:0:0:
64,96,103343,1,0,3:2:0:0:
96,64,103430,2,0,P|144:32|192:32,1,87.5,0|0,3:2|3:2,3:2:0:0:
272,48,103779,5,2,3:2:0:0:
304,56,103866,1,0,3:2:0:0:
336,64,103953,1,0,3:2:0:0:
368,88,104040,1,0,3:2:0:0:
408,120,104127,2,0,P|440:152|440:200,1,87.5,0|0,3:2|3:2,3:2:0:0:
352,208,104476,5,2,3:3:0:0:
80,208,104825,1,0,3:3:0:0:
352,208,105000,2,0,L|464:240,2,87.5,0|2|0,3:3|3:3|3:3,3:3:0:0:
240,160,105523,2,0,L|144:128,1,87.5,0|0,3:3|3:3,3:3:0:0:
128,112,105784,1,0,3:3:0:0:
112,96,105872,2,0,L|16:64,1,87.5,2|0,3:3|3:3,3:3:0:0:
96,208,106220,5,0,3:3:0:0:
256,272,106395,1,0,3:3:0:0:
400,208,106569,1,2,3:3:0:0:
160,112,106744,1,0,3:3:0:0:
272,272,106918,1,0,3:3:0:0:
272,112,107093,1,0,3:3:0:0:
112,256,107267,2,0,L|16:288,2,87.5,2|0|0,3:3|3:3|3:3,3:3:0:0:
384,128,107965,2,0,L|464:80,2,87.5,2|0|0,3:3|3:3|3:3,3:3:0:0:
256,192,108488,6,0,B|160:240|160:240|128:304,1,175,0|0,3:3|3:3,3:3:0:0:
272,336,109011,1,0,3:3:0:0:
400,320,109186,1,0,3:3:0:0:
448,208,109360,2,0,B|480:144|480:144|448:96,1,87.5,2|0,3:3|3:3,3:3:0:0:
432,96,109622,1,0,3:3:0:0:
384,80,109709,2,0,B|320:80|320:80|288:48|256:48|224:80,1,175,0|2,3:3|3:3,3:3:0:0:
96,176,110232,5,0,3:3:0:0:
96,176,110406,2,0,L|96:272,2,87.5,0|0|2,3:3|3:3|3:3,3:3:0:0:
192,176,110930,5,0,3:3:0:0:
192,176,111104,2,0,L|192:272,2,87.5,0|0|2,3:3|3:3|3:3,3:3:0:0:
80,96,111627,1,0,3:3:0:0:
192,32,111802,1,0,3:3:0:0:
288,112,111976,1,0,3:3:0:0:
400,144,112151,6,0,P|464:160|480:208,1,87.5,2|0,3:3|3:3,3:3:0:0:
416,208,112412,1,0,3:3:0:0:
368,240,112500,2,0,B|368:288|288:288|240:352,1,175,0|2,3:3|3:3,3:3:0:0:
160,256,113197,6,0,P|112:288|48:288,2,87.5,0|0|2,3:3|3:3|3:3,3:3:0:0:
192,96,113720,1,0,3:3:0:0:
400,64,113895,2,0,P|448:32|480:32,2,87.5,0|0|2,3:3|3:3|3:3,3:3:0:0:
384,256,114418,1,0,3:3:0:0:
256,192,114593,5,0,3:3:0:0:
256,192,114680,1,0,3:3:0:0:
256,192,114767,1,0,3:3:0:0:
192,288,114941,1,2,3:3:0:0:
256,96,115116,1,0,3:3:0:0:
384,240,115290,1,0,3:3:0:0:
176,192,115465,6,0,B|128:192|128:192|160:144|160:144|104:136|104:136|104:136,1,157.500006008148,0|0,3:2|3:2,3:2:0:0:
48,64,116337,1,0,3:2:0:0:
48,64,116512,1,0,3:2:0:0:
256,192,116860,5,10,3:2:0:0:
256,192,117209,5,10,3:2:0:0:
208,272,117732,6,0,B|160:272|160:272|192:304|192:304|128:336,1,157.500006008148,0|0,3:2|3:2,3:2:0:0:
352,272,118604,1,2,3:2:0:0:
352,272,118691,1,2,3:2:0:0:
352,272,118779,2,0,B|320:304|320:304|384:320,1,105.000004005432,0|0,3:2|3:2,3:2:0:0:
176,112,119302,5,2,3:2:0:0:
320,256,119476,1,0,3:2:0:0:
320,112,119651,1,0,3:2:0:0:
176,256,119825,1,2,3:2:0:0:
320,192,120000,1,8,3:2:0:0:
224,304,120174,1,10,3:2:0:0:
256,176,120348,5,10,3:2:0:0:
256,176,120436,1,10,3:2:0:0:
256,176,120523,2,0,B|288:160|288:160|224:144|224:144|256:112|256:112|256:48,1,210.000008010865,0|4,3:2|3:2,3:2:0:0:
256,160,122267,5,12,3:2:0:0:
256,160,122441,1,12,3:2:0:0:
176,304,122965,1,2,3:2:0:0:
176,304,123052,5,2,3:2:0:0:
176,304,123139,2,0,B|128:304|128:304|160:352|160:352|160:352,1,105.000004005432,8|0,3:2|3:2,3:2:0:0:
336,304,123663,5,0,3:2:0:0:
336,304,123750,2,0,B|368:304|368:304|416:256,1,78.7500030040742,0|0,3:2|3:2,3:2:0:0:
352,32,124359,5,2,3:2:0:0:
352,32,124447,1,2,3:2:0:0:
352,32,124534,1,2,3:2:0:0:
192,64,124883,5,2,3:2:0:0:
160,80,124970,1,2,3:2:0:0:
128,96,125058,1,2,3:2:0:0:
96,112,125145,1,2,3:2:0:0:
64,128,125232,1,0,3:2:0:0:
32,160,125319,1,2,3:2:0:0:
16,208,125406,1,0,3:2:0:0:
32,256,125494,1,2,3:2:0:0:
64,288,125581,6,8,B|128:336|128:336|272:336,1,210,8|8,3:2|3:2,3:2:0:0:
368,304,126279,1,2,3:2:0:0:
448,208,126453,1,0,3:2:0:0:
368,112,126627,1,2,3:2:0:0:
240,64,126802,1,0,3:2:0:0:
80,208,126976,2,0,P|48:240|48:288,2,70,10|0|10,3:2|3:2|3:2,3:2:0:0:
192,128,127500,6,0,B|240:80|240:80|336:80,1,140,8|0,3:2|3:2,3:2:0:0:
432,208,128023,2,0,P|464:224|480:272,2,70,10|0|10,3:2|3:2|3:2,3:2:0:0:
320,128,128546,6,0,B|288:80|288:80|192:80,1,140,8|0,3:2|3:2,3:2:0:0:
96,128,129069,1,2,3:2:0:0:
16,256,129244,1,0,3:2:0:0:
192,256,129418,1,2,3:2:0:0:
80,336,129593,1,0,3:2:0:0:
176,160,129767,1,2,3:2:0:0:
256,64,129941,2,0,B|352:64|352:64|416:96,1,140,0|0,3:2|3:2,3:2:0:0:
224,176,130465,5,2,3:2:0:0:
416,192,130639,1,0,3:2:0:0:
256,320,130813,1,2,3:2:0:0:
464,336,130988,1,8,3:2:0:0:
464,336,131075,1,8,3:2:0:0:
464,336,131162,1,8,3:2:0:0:
304,224,131337,6,0,P|224:208|176:144,1,140,8|0,3:2|3:2,3:2:0:0:
80,288,131860,1,2,3:2:0:0:
16,112,132034,1,0,3:2:0:0:
240,160,132209,1,2,3:2:0:0:
96,288,132383,1,0,3:2:0:0:
256,144,132558,1,0,3:2:0:0:
256,144,132732,6,0,P|288:80|368:80,1,140,0|0,3:2|3:2,3:2:0:0:
448,112,133255,2,0,L|496:176,1,70,2|0,3:2|3:2,3:2:0:0:
448,224,133604,2,0,L|416:320,1,70,2|0,3:2|3:2,3:2:0:0:
368,304,133866,1,0,3:2:0:0:
320,320,133953,2,0,B|208:320|208:320|128:256,1,210,2|0,3:2|3:2,3:2:0:0:
128,256,134825,5,0,3:2:0:0:
128,256,135000,1,0,3:2:0:0:
128,256,135174,1,0,3:2:0:0:
64,192,135348,1,0,3:2:0:0:
48,96,135523,1,2,3:2:0:0:
144,32,135697,1,2,3:2:0:0:
256,48,135872,1,2,3:2:0:0:
416,80,136046,1,2,3:2:0:0:
256,144,136220,1,10,3:2:0:0:
416,192,136395,1,10,3:2:0:0:
256,256,136569,1,0,3:2:0:0:
128,320,136744,1,8,3:2:0:0:
128,320,136831,5,8,3:2:0:0:
128,320,136918,2,0,B|80:336|80:336|32:320,1,70,2|0,3:2|3:2,3:2:0:0:
64,144,137267,1,0,3:2:0:0:
48,240,137441,6,0,P|48:304|64:320,2,70,2|0|2,3:2|3:2|3:2,3:2:0:0:
64,144,137965,2,0,B|96:48|96:48|144:32,1,140,0|6,3:2|3:2,3:2:0:0:
176,192,138488,1,2,3:2:0:0:
288,64,138662,1,0,3:2:0:0:
336,224,138837,1,2,3:2:0:0:
448,80,139011,1,0,3:2:0:0:
496,240,139186,2,0,B|480:288|480:288|432:304,1,70,2|0,3:2|3:2,3:2:0:0:
208,320,139534,5,8,3:2:0:0:
208,320,139622,1,8,3:2:0:0:
208,320,139709,2,0,B|112:320|112:320|64:288,1,140,2|0,3:2|3:2,3:2:0:0:
112,192,140232,2,0,P|160:176|192:160,2,70,2|0|2,3:2|3:2|3:2,3:2:0:0:
112,64,140755,1,0,3:2:0:0:
112,64,140930,1,2,3:2:0:0:
320,208,141104,5,8,3:2:0:0:
320,208,141191,1,8,3:2:0:0:
320,208,141279,1,8,3:2:0:0:
176,240,141453,5,8,3:2:0:0:
320,352,141627,1,8,3:2:0:0:
336,336,141976,1,8,3:2:0:0:
192,224,142151,1,8,3:2:0:0:
336,112,142500,5,8,3:2:0:0:
336,112,142587,1,8,3:2:0:0:
336,112,142674,1,12,3:2:0:0:
336,272,142848,5,8,3:2:0:0:
336,272,142936,1,8,3:2:0:0:
336,272,143023,1,12,3:2:0:0:
128,272,143197,6,8,L|80:272,2,35,8|8|12,3:2|3:2|3:2,3:2:0:0:
128,112,143546,2,8,L|128:64,2,35,8|8|12,3:2|3:2|3:2,3:2:0:0:
272,192,143895,2,8,L|320:192,4,35,8|8|8|8|8,3:2|3:2|3:2|3:2|3:2,3:2:0:0:
272,304,144418,5,0,3:2:0:0:
448,192,144593,1,6,3:2:0:0:
336,96,144767,1,0,3:2:0:0:
256,240,144941,1,6,3:2:0:0:
176,128,145290,5,10,3:2:0:0:
144,112,145377,1,10,3:2:0:0:
112,96,145465,2,6,L|48:64,1,70,6|6,3:2|3:2,3:2:0:0:
336,176,145813,5,10,3:2:0:0:
368,192,145901,1,10,3:2:0:0:
400,208,145988,2,4,L|464:240,1,70,6|4,3:2|3:2,3:2:0:0:
192,224,146337,5,10,3:2:0:0:
160,256,146424,1,10,3:2:0:0:
128,288,146511,2,4,L|64:352,1,70,6|4,3:2|3:2,3:2:0:0:
256,144,146860,5,10,3:2:0:0:
288,96,146947,1,10,3:2:0:0:
320,48,147034,2,4,L|352:0,2,35,6|4|4,3:2|3:2|3:2,3:2:0:0:
64,48,147383,5,8,3:2:0:0:
80,80,147470,1,10,3:2:0:0:
64,112,147558,1,8,3:2:0:0:
96,144,147645,1,10,3:2:0:0:
64,176,147732,1,8,3:2:0:0:
80,208,147819,1,10,3:2:0:0:
64,240,147906,1,8,3:2:0:0:
80,288,147994,1,10,3:2:0:0:
112,320,148081,6,12,B|160:336|160:336|288:320,1,175,14|10,3:2|3:2,3:2:0:0:
368,304,148604,2,8,B|400:288|400:288|416:208,1,87.5,8|10,3:2|3:2,3:2:0:0:
352,112,148953,1,8,3:2:0:0:
352,112,149040,1,8,3:2:0:0:
352,112,149127,6,8,B|304:80|304:80|176:64,1,175,10|10,3:2|3:2,3:2:0:0:
80,176,149651,1,8,3:2:0:0:
176,288,149825,2,8,P|224:336|272:352,2,87.5,10|8|10,3:2|3:2|3:2,3:2:0:0:
160,160,150348,1,8,3:2:0:0:
256,48,150523,1,10,3:2:0:0:
352,160,150697,1,8,3:2:0:0:
352,160,150784,1,8,3:2:0:0:
352,160,150872,6,8,B|400:192|400:192|384:320,1,175,10|10,3:2|3:2,3:2:0:0:
144,304,151395,1,8,3:2:0:0:
192,160,151569,1,10,3:2:0:0:
256,304,151744,1,8,3:2:0:0:
64,192,151918,2,8,P|64:128|96:96,1,87.5,10|8,3:2|3:2,3:2:0:0:
352,96,152267,5,10,3:2:0:0:
160,256,152441,1,8,3:2:0:0:
256,64,152616,1,10,3:2:0:0:
336,240,152790,1,8,3:2:0:0:
160,96,152965,5,10,3:2:0:0:
256,304,153139,1,8,3:2:0:0:
352,96,153313,1,10,3:2:0:0:
336,240,153488,1,8,3:2:0:0:
144,256,153662,5,10,3:2:0:0:
144,256,153750,1,8,3:2:0:0:
144,256,153837,2,8,B|112:240|112:240|80:176,1,87.5,10|10,3:2|3:2,3:2:0:0:
112,48,154186,1,10,3:2:0:0:
144,48,154273,2,10,L|192:64,3,43.75,10|10|10|10,3:2|3:2|3:2|3:2,3:2:0:0:
288,64,154709,2,8,P|368:48|448:96,1,175,10|10,3:2|3:2,3:2:0:0:
448,192,155232,1,8,3:2:0:0:
368,304,155406,1,10,3:2:0:0:
272,192,155581,1,8,3:2:0:0:
272,192,155668,1,8,3:2:0:0:
272,192,155755,2,8,B|256:80|256:80|320:16,1,175,10|10,3:2|3:2,3:2:0:0:
432,32,156279,1,0,3:2:0:0:
432,32,156366,1,0,3:2:0:0:
432,32,156453,6,0,B|464:128|464:128|416:208,1,175,2|2,3:2|3:2,3:2:0:0:
384,272,156976,2,0,L|336:352,1,87.5,0|2,3:2|3:2,3:2:0:0:
200,296,157325,6,0,L|160:328,2,43.75,0|0|2,3:2|3:2|3:2,3:2:0:0:
128,192,157674,2,0,L|56:208,2,43.75,0|0|2,3:2|3:2|3:2,3:2:0:0:
176,80,158023,1,0,3:2:0:0:
192,80,158110,1,0,3:2:0:0:
208,80,158197,1,2,3:2:0:0:
224,80,158284,1,0,3:2:0:0:
240,80,158372,6,0,B|312:88|312:88|336:120,1,87.5,0|2,3:2|3:2,3:2:0:0:
328,184,158720,6,0,B|312:224|312:224|248:256,1,87.5,0|2,3:2|3:2,3:2:0:0:
232,256,158982,1,0,3:2:0:0:
200,264,159069,1,0,3:2:0:0:
168,264,159156,1,0,3:2:0:0:
136,264,159244,6,0,B|56:256|56:256|32:160,1,175,2|2,3:2|3:2,3:2:0:0:
120,80,159767,2,0,P|184:16|192:16,1,87.5,0|2,3:2|3:2,3:2:0:0:
248,72,160116,2,0,B|304:72|304:72|336:88,1,87.5,0|2,3:2|3:2,3:2:0:0:
432,128,160465,1,0,3:2:0:0:
432,128,160552,1,0,3:2:0:0:
432,128,160639,6,0,B|464:144|464:144|456:232,1,87.5,2|0,3:2|3:2,3:2:0:0:
192,120,160988,5,2,3:2:0:0:
320,264,161162,1,0,3:2:0:0:
256,96,161686,5,2,3:2:0:0:
256,280,161860,2,0,L|256:368,1,87.5,0|2,3:2|3:2,3:2:0:0:
320,88,162383,5,2,3:2:0:0:
192,304,162558,2,0,B|152:328|152:328|48:248,1,175,0|0,3:2|3:2,3:2:0:0:
56,136,163081,1,2,3:2:0:0:
56,136,163255,2,0,B|88:88|88:88|144:120,1,87.5,0|2,3:2|3:2,3:2:0:0:
160,112,163517,1,0,3:2:0:0:
216,112,163604,6,0,B|288:136|288:136|352:56,1,175,0|0,3:2|3:2,3:2:0:0:
360,200,164127,1,2,3:2:0:0:
232,352,164302,1,0,3:2:0:0:
440,352,164476,1,2,3:2:0:0:
192,216,164651,1,0,3:2:0:0:
192,216,164738,1,0,3:2:0:0:
192,216,164825,6,0,B|96:200|96:200|40:136,1,175,2|2,3:2|3:2,3:2:0:0:
296,144,165348,1,0,3:2:0:0:
192,32,165523,1,0,3:2:0:0:
440,64,165697,1,2,3:2:0:0:
440,64,165784,1,0,3:2:0:0:
440,64,165872,6,0,B|480:112|480:112|472:224,1,175,0|2,3:2|3:2,3:2:0:0:
408,288,166395,2,0,P|344:352|336:352,1,87.5,0|0,3:2|3:2,3:2:0:0:
256,288,166744,2,0,P|184:248|160:248,1,87.5,2|0,3:2|3:2,3:2:0:0:
80,176,167093,1,0,3:2:0:0:
80,176,167180,1,0,3:2:0:0:
80,176,167267,6,0,B|48:112|48:112|128:32,1,175,2|0,3:2|3:2,3:2:0:0:
240,56,167790,1,10,3:2:0:0:
264,32,167877,1,10,3:2:0:0:
296,24,167965,1,10,3:2:0:0:
328,24,168052,1,10,3:2:0:0:
360,40,168139,1,10,3:2:0:0:
384,64,168226,1,10,3:2:0:0:
400,96,168313,1,10,3:2:0:0:
448,208,168488,5,10,3:2:0:0:
456,240,168575,1,10,3:2:0:0:
456,272,168662,1,10,3:2:0:0:
448,304,168750,1,10,3:2:0:0:
424,328,168837,1,10,3:2:0:0:
392,344,168924,1,0,3:2:0:0:
360,352,169011,6,4,P|264:336|256:328,1,87.5,4|4,3:2|3:2,3:2:0:0:
64,216,169360,1,6,3:2:0:0:
144,344,169534,1,0,3:2:0:0:
248,160,169709,5,2,3:2:0:0:
248,160,169796,1,2,3:2:0:0:
248,160,169883,2,4,B|296:152|296:152|336:112,2,87.5,4|2|6,3:2|3:2|3:2,3:2:0:0:
88,160,170406,1,2,3:2:0:0:
264,216,170581,5,0,3:2:0:0:
224,56,170755,1,2,3:2:0:0:
400,96,170930,1,0,3:2:0:0:
264,216,171104,1,0,3:2:0:0:
88,160,171279,1,0,3:2:0:0:
224,48,171453,1,2,3:2:0:0:
400,96,171627,1,0,3:2:0:0:
400,96,171715,1,0,3:2:0:0:
400,96,171802,6,0,B|448:112|448:112|432:240,1,175,0|2,3:2|3:2,3:2:0:0:
320,144,172325,1,0,3:2:0:0:
152,264,172500,1,0,3:2:0:0:
360,264,172674,1,0,3:2:0:0:
144,176,172848,2,0,P|96:128|96:80,2,87.5,2|0|0,3:2|3:2|3:2,3:2:0:0:
208,88,173372,5,0,3:2:0:0:
328,112,173546,2,0,L|424:120,1,87.5,2|0,3:2|3:2,3:2:0:0:
456,208,173895,2,0,L|424:304,1,87.5,0|0,3:2|3:2,3:2:0:0:
328,320,174244,2,0,L|216:288,1,87.5,2|0,3:2|3:2,3:2:0:0:
144,240,174593,2,0,P|104:192|96:136,2,87.5,0|0|2,3:2|3:2|3:2,3:2:0:0:
256,280,175116,1,0,3:2:0:0:
384,256,175290,1,0,3:2:0:0:
464,160,175465,1,0,3:2:0:0:
368,64,175639,2,0,L|312:16,2,43.75,2|0|0,3:2|3:2|3:2,3:2:0:0:
408,96,175901,1,0,3:2:0:0:
424,144,175988,6,0,B|424:216|424:216|336:272,1,175,2|2,3:2|3:2,3:2:0:0:
56,232,176511,2,0,B|16:168|16:168|88:80,1,175,0|0,3:2|3:2,3:2:0:0:
216,176,177034,1,2,3:2:0:0:
80,88,177209,1,0,3:2:0:0:
80,88,177296,1,0,3:2:0:0:
80,88,177383,6,0,B|24:120|24:120|56:256,1,175,0|2,3:2|3:2,3:2:0:0:
152,288,177906,1,0,3:2:0:0:
152,288,177994,1,0,3:2:0:0:
152,288,178081,2,0,B|216:256|272:320|352:288,1,175,0|2,3:2|3:2,3:2:0:0:
256,56,178604,5,0,3:2:0:0:
256,56,178779,2,0,B|200:104|200:104|200:144,1,87.5,0|0,3:2|3:2,3:2:0:0:
232,168,179040,1,0,3:2:0:0:
280,184,179127,2,0,B|392:192|392:192|456:48,1,262.5,2|0,3:2|3:2,3:2:0:0:
360,264,179825,1,2,3:2:0:0:
360,264,180000,2,0,P|312:312|272:312,1,87.5,0|0,3:2|3:2,3:2:0:0:
120,336,180348,5,0,3:2:0:0:
240,240,180523,2,0,P|304:192|336:184,1,87.5,2|0,3:2|3:2,3:2:0:0:
432,200,180872,1,0,3:2:0:0:
296,48,181046,1,0,3:2:0:0:
456,56,181220,1,0,3:2:0:0:
256,184,181395,1,2,3:2:0:0:
256,184,181482,1,2,3:2:0:0:
256,184,181569,6,0,B|184:224|184:224|80:192,1,175,6|2,3:2|3:2,3:2:0:0:
64,80,182093,1,0,3:2:0:0:
160,24,182267,1,0,3:2:0:0:
256,96,182441,2,0,B|296:144|296:144|352:152,1,87.5,0|2,3:2|3:2,3:2:0:0:
352,176,182703,1,0,3:2:0:0:
384,208,182790,2,0,B|432:216|432:216|480:344,1,175,0|0,3:2|3:2,3:2:0:0:
280,320,183313,5,2,3:2:0:0:
152,328,183488,2,0,L|40:344,1,87.5,0|0,3:2|3:2,3:2:0:0:
264,216,183837,5,0,3:2:0:0:
152,208,184011,2,0,L|40:208,1,87.5,2|0,3:2|3:2,3:2:0:0:
280,96,184360,1,0,3:2:0:0:
280,288,184709,5,2,3:2:0:0:
280,288,184883,1,0,3:2:0:0:
280,88,185406,5,2,3:2:0:0:
280,88,185580,1,0,3:2:0:0:
280,288,185755,1,0,3:2:0:0:
280,288,185843,1,0,3:2:0:0:
280,288,185930,6,0,B|208:344|208:344|152:304|144:304|144:304|88:288|104:192,1,262.5,0|0,3:2|3:2,3:2:0:0:
224,184,186627,1,0,3:2:0:0:
224,184,186802,2,0,L|280:112,1,87.5,2|0,3:2|3:2,3:2:0:0:
312,96,187063,1,0,3:2:0:0:
352,64,187151,6,0,P|432:64|464:152,1,175,0|2,3:2|3:2,3:2:0:0:
424,256,187674,1,0,3:2:0:0:
424,256,187848,6,0,B|384:296|384:296|312:304,1,87.5,0|0,3:2|3:2,3:2:0:0:
96,256,188197,2,0,B|136:296|136:296|184:304,1,87.5,2|0,3:2|3:2,3:2:0:0:
168,112,188720,5,0,3:2:0:0:
344,224,188895,1,2,3:2:0:0:
168,112,189069,1,0,3:2:0:0:
328,72,189244,1,0,3:2:0:0:
208,240,189418,2,0,B|160:280|160:280|128:280,2,87.5,0|2|0,3:2|3:2|3:2,3:2:0:0:
248,216,189854,1,0,3:2:0:0:
280,192,189941,6,0,B|376:112|376:112|416:144,1,175,0|2,3:2|3:2,3:2:0:0:
415,143,190639,5,8,3:2:0:0:
304,248,190813,1,8,3:2:0:0:
424,152,190988,1,2,3:2:0:0:
280,72,191162,2,8,L|200:16,2,87.5,8|8|12,3:2|3:2|3:2,3:2:0:0:
432,184,191686,6,0,L|376:272,1,87.5,0|0,3:2|3:2,3:2:0:0:
200,288,192034,2,0,L|152:200,1,87.5,4|0,3:2|3:2,3:2:0:0:
168,168,192296,1,0,3:2:0:0:
200,128,192383,2,0,B|264:112|264:112|280:72|280:72|352:128,1,175,4|4,3:2|3:2,3:2:0:0:
432,240,192907,5,12,3:2:0:0:
240,296,193081,2,0,B|184:296|184:296|152:320|152:320|112:264,1,140,12|8,3:2|3:2,3:2:0:0:
320,88,193604,1,8,3:2:0:0:
184,216,193779,1,14,3:2:0:0:
448,192,193953,1,12,3:2:0:0:
184,120,194302,5,0,3:2:0:0:
376,80,194476,1,6,3:2:0:0:
304,224,194651,1,0,3:2:0:0:
184,120,194825,1,2,3:2:0:0:
304,224,195000,1,0,3:2:0:0:
376,80,195174,1,6,3:2:0:0:
184,120,195348,1,0,3:2:0:0:
360,272,195523,5,2,3:2:0:0:
360,272,195610,1,0,3:2:0:0:
360,272,195697,2,0,B|384:304|384:304|432:336,1,70,4|4,3:2|3:2,3:2:0:0:
392,176,196046,6,4,B|408:144|408:144|392:96,1,70,4|4,3:2|3:2,3:2:0:0:
272,64,196395,1,4,3:2:0:0:
88,120,196569,1,10,3:2:0:0:
272,64,196744,2,0,P|352:56|368:64,1,70,8|2,3:2|3:2,3:2:0:0:
440,152,197093,5,0,3:2:0:0:
400,208,197267,1,6,3:2:0:0:
320,256,197441,1,0,3:2:0:0:
184,256,197616,2,4,L|96:216,1,70,4|4,3:2|3:2,3:2:0:0:
48,144,197965,1,6,3:2:0:0:
152,88,198139,2,0,B|192:104|192:104|216:56|216:56|256:80,1,140,0|14,3:2|3:2,3:2:0:0:
