osu file format v14

[General]
AudioFilename: audio.mp3
AudioLeadIn: 0
PreviewTime: -1
Countdown: 1
SampleSet: Normal
StackLeniency: 0.7
Mode: 0
LetterboxInBreaks: 0
WidescreenStoryboard: 0

[Editor]
Bookmarks: 31387,31692,31996,32149,32301,32606,32910,33215,33519,82554
DistanceSpacing: 0.5
BeatDivisor: 4
GridSize: 4
TimelineZoom: 1.700006

[Metadata]
Title:One By One
TitleUnicode:One By One
Artist:ONE OK ROCK
ArtistUnicode:ONE OK ROCK
Creator:killerwolf741
Version:Insane
Source:
Tags:
BeatmapID:1565461
BeatmapSetID:742145

[Difficulty]
HPDrainRate:7
CircleSize:3.1
OverallDifficulty:7.7
ApproachRate:10
SliderMultiplier:2.1
SliderTickRate:1

[Events]
//Background and Video events
0,0,"falling.jpg",0,0
//Break Periods
//Storyboard Layer 0 (Background)
//Storyboard Layer 1 (Fail)
//Storyboard Layer 2 (Pass)
//Storyboard Layer 3 (Foreground)
//Storyboard Sound Samples

[TimingPoints]
11895.3970033843,304.568527918782,4,1,0,100,1,0
23469,-66.6666666666667,4,1,0,100,0,0
24078,-133.333333333333,4,1,0,100,0,0
24382,-100,4,1,0,100,0,0
24687,-100,4,1,0,100,0,0
25905,-100,4,1,0,100,0,0
31387,304.568527918782,4,3,0,70,1,0
31387,-100,4,3,0,70,0,0
48442,-200,4,3,0,70,0,0
50879,-66.6666666666667,4,3,0,70,0,0
51488,-100,4,3,0,70,0,0
70371,-200,4,3,0,70,0,0
79204,-100,4,3,0,70,0,0
79813,-200,4,3,0,70,0,0
80727,-200,4,1,0,100,0,0
81031,-100,4,3,0,70,0,0
81945,-200,4,1,0,90,0,0
82249,-200,4,2,0,70,0,0
83163,-200,4,1,0,100,0,0
83315,-200,4,2,0,70,0,0
84381,-100,4,1,0,100,0,0
84458,-100,4,1,0,70,0,0
85600,-100,4,1,0,100,0,0
85676,-100,4,2,0,70,0,0
86818,-100,4,1,0,100,0,0
89255,-50,4,3,0,70,0,0
89860,203.389830508475,4,1,0,96,1,0
97156,304.568527918782,4,1,0,96,1,0
97156,-200,4,1,0,56,0,0
98069,-100,4,1,0,56,0,0

[Colours]
Combo1 : 255,255,0
Combo2 : 0,255,0
Combo3 : 0,0,255
Combo4 : 128,0,255

[HitObjects]
352,136,11895,6,0,P|228:120|200:128,1,105
68,144,12199,1,0,0:0:0:0:
216,240,12352,1,0,0:0:0:0:
140,68,12504,1,0,0:0:0:0:
72,260,12809,6,0,P|120:208|136:168,1,105
196,344,13265,2,0,P|216:288|220:228,1,105
185,80,13722,2,0,P|253:140|169:260,1,210
372,280,14331,6,0,P|392:196|372:128,1,105
220,240,14636,1,0,0:0:0:0:
372,280,14788,1,0,0:0:0:0:
300,132,14941,1,0,0:0:0:0:
460,32,15245,5,0,0:0:0:0:
412,200,15397,1,0,0:0:0:0:
412,200,15702,2,0,P|312:116|284:128,1,105
160,108,16159,2,0,P|260:188|376:176,1,210
288,52,16768,5,0,0:0:0:0:
164,108,16920,1,0,0:0:0:0:
356,120,17073,2,0,P|300:176|220:176,1,105
120,212,17377,2,0,P|200:288|236:288,1,105
380,288,17682,5,0,0:0:0:0:
192,288,17834,1,0,0:0:0:0:
364,188,18139,1,0,0:0:0:0:
192,292,18292,1,0,0:0:0:0:
248,136,18595,5,0,0:0:0:0:
316,332,18900,1,0,0:0:0:0:
400,132,19205,5,0,0:0:0:0:
300,208,19357,1,0,0:0:0:0:
176,220,19509,1,0,0:0:0:0:
248,136,19814,1,0,0:0:0:0:
414,260,20118,5,0,0:0:0:0:
289,273,20270,1,0,0:0:0:0:
176,220,20422,1,0,0:0:0:0:
281,185,20727,1,0,0:0:0:0:
104,144,21032,5,0,0:0:0:0:
281,185,21184,1,0,0:0:0:0:
150,293,21337,1,0,0:0:0:0:
104,144,21489,1,0,0:0:0:0:
281,185,21641,1,0,0:0:0:0:
281,185,21946,6,0,P|264:264|116:268,1,210
48,216,22555,1,0,0:0:0:0:
281,185,22707,1,0,0:0:0:0:
108,80,23012,5,0,0:0:0:0:
150,293,23164,1,0,0:0:0:0:
312,120,23469,6,0,B|384:96|352:176|392:176|456:152|456:152|240:272,1,315.000012016297
216,200,24078,2,0,L|152:144,1,78.7500030040742
64,56,24382,1,0,0:0:0:0:
64,208,24534,1,0,0:0:0:0:
248,96,24687,1,0,0:0:0:0:
96,72,24991,5,0,0:0:0:0:
224,272,25144,1,0,0:0:0:0:
240,96,25448,5,0,0:0:0:0:
384,272,25600,1,0,0:0:0:0:
400,68,25905,2,0,B|356:104|356:104|380:136|380:136|320:144|284:176|288:240,1,210
96,96,26514,6,0,L|144:208,1,105
232,56,26819,1,0,0:0:0:0:
304,192,26971,1,0,0:0:0:0:
136,192,27123,1,0,0:0:0:0:
312,80,27428,5,0,0:0:0:0:
312,80,27580,1,0,0:0:0:0:
400,208,27885,2,0,P|320:272|272:272,1,105
312,120,28342,2,0,P|376:88|512:176,1,210
296,280,28951,5,0,0:0:0:0:
495,139,29103,1,0,0:0:0:0:
312,120,29255,1,0,0:0:0:0:
495,139,29560,1,0,0:0:0:0:
256,152,29864,5,0,0:0:0:0:
399,360,30016,1,0,0:0:0:0:
384,112,30168,1,0,0:0:0:0:
264,320,30473,1,0,0:0:0:0:
256,152,30778,6,0,P|140:219|120:240,1,105
264,320,31082,1,0,0:0:0:0:
79,251,31235,1,0,0:0:0:0:
212,188,31387,6,0,L|120:120,1,105,0|0,3:3|0:0,0:0:0:0:
116,112,31692,2,0,P|202:109|253:153,1,105
5,68,31996,1,0,0:0:0:0:
5,68,32149,1,0,0:0:0:0:
248,144,32301,1,0,0:0:0:0:
288,246,32606,6,0,P|330:179|355:159,1,105
344,160,32910,2,0,P|272:128|208:152,1,105
128,152,33215,1,0,0:0:0:0:
128,152,33367,1,0,0:0:0:0:
280,272,33520,1,0,0:0:0:0:
128,256,33824,6,0,P|184:224|232:168,1,105
288,64,34128,1,0,0:0:0:0:
288,64,34281,1,0,0:0:0:0:
392,184,34433,2,0,L|256:184,1,105
424,64,34738,1,0,0:0:0:0:
288,184,35042,6,0,L|168:184,1,105
72,64,35347,1,0,0:0:0:0:
184,184,35499,1,0,0:0:0:0:
184,184,35651,2,0,L|248:80,1,105
288,8,35956,1,0,0:0:0:0:
384,144,36260,5,0,0:0:0:0:
384,144,36413,1,0,0:0:0:0:
272,232,36565,2,0,L|152:192,1,105
320,344,36870,2,0,L|432:384,1,105
368,240,37174,1,0,0:0:0:0:
172,198,37479,5,0,0:0:0:0:
172,198,37631,1,0,0:0:0:0:
320,344,37783,1,0,0:0:0:0:
296,184,38088,5,0,0:0:0:0:
296,184,38240,1,0,0:0:0:0:
152,48,38392,1,0,0:0:0:0:
80,192,38696,6,0,L|216:120,1,105
40,328,39001,2,0,L|192:256,1,105
168,144,39305,1,0,0:0:0:0:
168,144,39458,1,0,0:0:0:0:
312,208,39610,1,0,0:0:0:0:
168,144,39914,6,0,L|312:200,1,105
400,224,40219,1,0,0:0:0:0:
400,224,40524,6,0,L|232:304,1,105
192,320,40828,1,14,0:0:0:0:
160,192,41133,5,0,0:0:0:0:
160,192,41285,1,0,0:0:0:0:
296,272,41437,2,0,P|408:256|440:240,1,105
488,192,41742,1,0,0:0:0:0:
280,192,41894,1,0,0:0:0:0:
392,64,42046,1,0,0:0:0:0:
392,64,42351,6,0,L|296:144,1,105
184,208,42656,1,0,0:0:0:0:
184,48,42808,1,0,0:0:0:0:
304,128,42960,2,0,L|152:128,1,105
104,128,43265,1,0,0:0:0:0:
16,32,43569,5,0,0:0:0:0:
16,32,43722,1,0,0:0:0:0:
224,32,43874,2,0,L|120:32,1,105
312,40,44178,1,0,0:0:0:0:
312,40,44331,1,0,0:0:0:0:
104,128,44483,1,0,0:0:0:0:
288,128,44788,6,0,L|288:240,1,105
288,352,45092,1,0,0:0:0:0:
184,248,45244,1,0,0:0:0:0:
352,232,45397,2,0,P|248:144|216:160,1,105
184,248,45701,1,0,0:0:0:0:
208,120,46006,5,0,0:0:0:0:
208,120,46158,1,0,0:0:0:0:
360,312,46310,5,0,0:0:0:0:
184,248,46463,1,0,0:0:0:0:
360,312,46615,1,0,0:0:0:0:
296,136,46767,1,0,0:0:0:0:
401,237,46919,1,0,0:0:0:0:
448,144,47224,6,0,L|392:256,1,105
392,80,47529,1,0,0:0:0:0:
296,226,47833,6,0,L|448:242,1,105
256,144,48138,1,0,0:0:0:0:
256,144,48290,1,0,0:0:0:0:
256,144,48442,6,0,B|312:176|464:96|524:93|312:224|176:200|304:240|464:256,1,420
192,208,50270,1,0,0:0:0:0:
328,88,50574,1,0,0:0:0:0:
328,88,50727,1,0,0:0:0:0:
392,256,50879,6,0,L|160:304,1,157.500006008148
112,200,51183,1,0,0:0:0:0:
112,200,51336,1,0,0:0:0:0:
304,144,51488,2,0,P|208:144|176:104,1,105
392,256,51793,5,0,0:0:0:0:
392,256,51945,1,0,0:0:0:0:
456,120,52097,2,0,P|392:32|344:32,1,105
344,176,52402,1,0,0:0:0:0:
344,176,52554,1,0,0:0:0:0:
256,16,52706,6,0,P|176:112|184:144,1,105
352,72,53011,1,0,0:0:0:0:
176,80,53163,1,0,0:0:0:0:
320,184,53315,1,0,0:0:0:0:
256,16,53468,1,0,0:0:0:0:
112,192,53620,6,0,L|240:264,1,105
176,80,53925,1,0,0:0:0:0:
176,80,54077,1,0,0:0:0:0:
16,80,54229,2,0,L|16:208,1,105
16,304,54534,1,0,0:0:0:0:
44,195,54686,1,0,0:0:0:0:
73,87,54838,1,0,0:0:0:0:
73,87,55143,6,0,L|138:196,1,105
188,279,55448,1,0,0:0:0:0:
136,48,55752,6,0,L|224:128,1,105
320,208,56057,1,0,0:0:0:0:
216,120,56209,1,0,0:0:0:0:
128,232,56361,2,0,P|200:296|256:296,1,105
128,48,56666,1,0,0:0:0:0:
320,104,56970,6,0,P|264:64|248:8,1,105
296,208,57275,1,0,0:0:0:0:
296,208,57427,1,0,0:0:0:0:
432,224,57579,2,0,P|416:152|384:120,1,105
272,64,57884,2,0,P|200:80|152:144,1,105
240,216,58189,5,0,0:0:0:0:
240,216,58341,1,0,0:0:0:0:
400,136,58493,1,0,0:3:0:0:
392,288,58645,5,0,0:0:0:0:
392,288,58797,1,0,0:0:0:0:
300,80,58949,1,0,0:3:0:0:
392,208,59102,6,0,L|256:176,1,105
144,144,59406,1,0,0:3:0:0:
320,80,59559,5,0,0:0:0:0:
392,224,59711,1,0,0:0:0:0:
240,144,59864,1,0,0:0:0:0:
408,128,60016,1,0,0:0:0:0:
272,224,60168,1,0,0:0:0:0:
320,80,60321,2,0,L|472:160,1,105
384,296,60625,6,0,P|240:256|216:272,1,105
104,240,60930,1,0,0:0:0:0:
256,328,61082,1,0,0:0:0:0:
224,200,61234,2,0,P|144:136|88:144,1,105
200,304,61539,2,0,P|328:312|352:288,1,105
408,240,61843,2,0,P|312:224|272:248,1,105
456,336,62148,2,0,P|496:280|488:208,2,105
408,240,62605,5,0,0:0:0:0:
264,192,62757,1,0,0:0:0:0:
288,328,62909,1,0,0:0:0:0:
160,296,63062,1,0,0:0:0:0:
160,296,63214,1,0,0:0:0:0:
104,136,63366,6,0,P|168:104|192:64,1,105
160,296,63671,1,0,0:0:0:0:
160,296,63823,1,0,0:0:0:0:
24,160,63975,1,0,0:0:0:0:
24,160,64128,1,0,0:0:0:0:
168,224,64280,6,0,P|272:168|288:128,2,105
24,224,64737,1,0,0:0:0:0:
176,128,64889,2,0,P|280:88|312:104,1,105
392,152,65194,2,0,P|400:88|344:40,1,105
272,224,65498,5,0,0:0:0:0:
384,64,65650,1,0,0:0:0:0:
176,128,65803,1,0,0:0:0:0:
392,152,65955,1,0,0:0:0:0:
264,80,66107,1,0,0:0:0:0:
272,224,66260,1,0,0:0:0:0:
272,224,66412,1,0,0:0:0:0:
200,120,66564,1,0,0:0:0:0:
200,120,66716,6,0,P|80:48|32:48,1,105
8,24,67021,1,0,0:0:0:0:
40,184,67173,1,0,0:0:0:0:
117,57,67326,1,0,0:0:0:0:
117,57,67478,1,0,0:0:0:0:
136,208,67630,2,0,P|256:160|288:120,1,105
352,72,67935,5,0,0:0:0:0:
440,240,68087,1,0,0:0:0:0:
448,48,68239,1,0,0:0:0:0:
288,184,68392,5,0,0:0:0:0:
120,112,68544,1,0,0:0:0:0:
144,264,68696,1,0,0:0:0:0:
272,56,68848,5,0,0:0:0:0:
172,280,69001,1,0,0:0:0:0:
128,112,69153,1,0,0:0:0:0:
372,220,69305,1,0,0:0:0:0:
272,56,69458,1,0,0:0:0:0:
288,284,69610,1,0,0:0:0:0:
200,156,69762,5,0,0:0:0:0:
400,200,69914,1,0,0:0:0:0:
200,272,70067,1,0,0:0:0:0:
336,92,70219,1,0,0:0:0:0:
336,92,70371,6,0,B|308:176|148:144|148:144|276:232|276:232|108:256,1,525
384,224,72199,1,0,0:0:0:0:
336,92,72503,6,0,B|308:176|264:144|264:144|336:272|336:272|160:212,1,420
60,176,73874,1,0,0:0:0:0:
424,312,74331,1,0,0:0:0:0:
248,136,74635,1,0,0:0:0:0:
336,92,75244,6,0,B|308:176|412:184|412:184|264:268|264:268|232:226|246:203|259:176|259:176|144:184,1,525
336,92,77072,1,0,0:0:0:0:
260,260,77681,1,0,0:0:0:0:
168,120,79204,6,0,B|168:204|168:204|213:171|240:140|292:144,1,210
308,248,80117,6,0,L|288:228,4,26.25
212,156,80727,1,8,0:0:0:0:
104,240,81031,2,0,L|220:268,1,105
128,40,81488,1,0,0:0:0:0:
256,132,81640,1,0,0:0:0:0:
256,132,81945,6,0,L|344:196,1,105,8|0,0:0|0:0,0:0:0:0:
200,92,82402,1,0,0:0:0:0:
340,193,82554,2,0,L|332:176,5,19.6875
352,40,83163,1,8,0:0:0:0:
192,124,83468,1,0,0:0:0:0:
340,193,83620,1,0,0:0:0:0:
120,208,83925,5,0,0:0:0:0:
384,208,84078,1,0,0:0:0:0:
148,140,84381,5,8,0:0:0:0:
164,168,84458,1,2,0:0:0:0:
184,196,84534,1,2,0:0:0:0:
200,216,84610,1,2,0:0:0:0:
220,236,84686,2,0,P|304:244|356:244,1,105,2|0,0:0|0:0,0:0:0:0:
396,252,84991,1,0,0:0:0:0:
396,252,85295,5,0,0:0:0:0:
224,208,85600,1,8,0:0:0:0:
308,64,85904,5,0,0:0:0:0:
344,236,86057,1,0,0:0:0:0:
316,96,86209,2,0,P|344:184|336:244,1,105
344,344,86513,1,0,0:0:0:0:
148,172,86818,1,8,0:0:0:0:
256,192,88036,5,8,0:0:0:0:
232,224,89255,6,0,L|264:208,14,26.25
180,44,89559,1,0,0:0:0:0:
80,204,89692,1,0,0:0:0:0:
216,144,89860,6,0,P|292:100|404:120,1,157.5
448,264,90165,2,0,P|372:252|308:184,1,157.5,8|0,0:0|0:0,0:0:0:0:
460,80,90470,2,0,P|392:40|304:44,1,157.5
464,200,90775,2,0,P|451:257|360:312,1,157.5,8|0,0:0|0:0,0:0:0:0:
276,128,91080,5,0,0:0:0:0:
464,132,91232,1,0,0:0:0:0:
368,312,91385,1,8,0:0:0:0:
368,64,91537,1,0,0:0:0:0:
240,256,91690,1,0,0:0:0:0:
472,144,91843,1,0,0:0:0:0:
224,132,91995,6,0,P|124:136|40:196,1,157.5,8|0,0:0|0:0,0:0:0:0:
192,268,92300,2,0,L|360:272,1,157.5
420,84,92605,2,0,L|288:200,1,157.5,8|0,0:0|0:0,0:0:0:0:
240,28,92910,1,0,0:0:0:0:
164,192,93063,1,0,0:0:0:0:
316,200,93215,5,8,0:0:0:0:
136,76,93368,1,0,0:0:0:0:
336,80,93521,1,0,0:0:0:0:
164,192,93673,1,0,0:0:0:0:
140,40,93826,5,8,0:0:0:0:
368,100,93978,1,0,0:0:0:0:
164,192,94131,1,0,0:0:0:0:
264,4,94283,1,0,0:0:0:0:
288,216,94436,2,0,L|148:300,1,157.5,8|0,0:0|0:0,0:0:0:0:
376,168,94741,1,0,0:0:0:0:
96,168,94893,5,0,0:0:0:0:
296,84,95046,1,0,0:0:0:0:
264,256,95198,1,0,0:0:0:0:
152,72,95351,1,0,0:0:0:0:
392,144,95504,1,0,0:0:0:0:
252,216,95656,6,0,L|428:280,1,157.5
152,184,95961,1,0,0:0:0:0:
332,88,96114,1,0,0:0:0:0:
108,80,96241,1,0,0:0:0:0:
372,208,96393,1,0,0:0:0:0:
208,52,96546,1,0,0:0:0:0:
252,248,96698,1,0,0:0:0:0:
372,104,96851,1,0,0:0:0:0:
144,96,97004,1,0,0:0:0:0:
296,224,97156,2,0,P|248:256|184:264,3,105
356,152,98221,5,0,0:0:0:0:
388,248,98374,2,0,P|396:284|328:352,1,105
356,152,98830,1,0,0:0:0:0:
291,230,98983,2,0,P|264:255|171:234,1,105
92,152,99287,2,0,P|176:144|216:172,1,105
