osu file format v14

[General]
AudioFilename: audio.mp3
AudioLeadIn: 0
PreviewTime: 48888
Countdown: 0
SampleSet: Soft
StackLeniency: 0.5
Mode: 0
LetterboxInBreaks: 0
EpilepsyWarning: 1
WidescreenStoryboard: 1

[Editor]
Bookmarks: 9974,19720,29466,39212,48958,58705,68451,78197,87943,97689,107436
DistanceSpacing: 1
BeatDivisor: 4
GridSize: 32
TimelineZoom: 2.1

[Metadata]
Title:One by One
TitleUnicode:One by One
Artist:ONE OK ROCK
ArtistUnicode:ONE OK ROCK
Creator:Elinor
Version:Insane
Source:
Tags:sotarks kowari armin a_r_m_i_n basensorex jasontime12345 [_eli_] eli oor rock j-rock english japanese jp male vocalist band cut short ver version 35xxxv deluxe edition
BeatmapID:2405223
BeatmapSetID:1148073

[Difficulty]
HPDrainRate:5.1
CircleSize:3.8
OverallDifficulty:8
ApproachRate:9
SliderMultiplier:1.72
SliderTickRate:1

[Events]
//Background and Video events
0,0,"background.jpg",0,0
//Break Periods
//Storyboard Layer 0 (Background)
//Storyboard Layer 1 (Fail)
//Storyboard Layer 2 (Pass)
//Storyboard Layer 3 (Foreground)
//Storyboard Layer 4 (Overlay)
//Storyboard Sound Samples

[TimingPoints]
228,304.568527918782,4,2,22,50,1,0
9974,-108.695652173913,4,2,22,70,0,0
19720,-108.695652173913,4,2,22,70,0,0
29466,-138.888888888889,4,2,22,60,0,0
39212,-138.888888888889,4,2,22,60,0,0
48958,-98.0392156862745,4,2,22,90,0,1
58705,-98.0392156862745,4,2,22,90,0,1
68451,-161.290322580645,4,2,22,60,0,0
73324,-121.951219512195,4,2,22,60,0,0
75760,-138.888888888889,4,2,22,60,0,0
76370,-121.951219512195,4,2,22,60,0,0
77588,-121.951219512195,4,2,22,70,0,0
78197,-108.695652173913,4,2,22,70,0,0
87943,-108.695652173913,4,2,22,70,0,0
97689,-108.695652173913,4,2,22,70,0,0
107436,-192.307692307692,4,2,22,70,0,0
108502,-192.307692307692,4,2,22,35,0,0

[Colours]
Combo1 : 239,84,84
Combo2 : 255,220,128
Combo3 : 142,205,238
Combo4 : 247,158,94
Combo5 : 255,181,210

[HitObjects]
256,192,7537,12,0,9821,0:0:0:0:
140,152,9974,6,0,P|152:192|160:236,1,79.1199973439942,6|2,1:2|1:2,0:0:0:0:
228,344,10278,1,10,0:2:0:0:
228,344,10431,2,0,P|272:320|304:320,1,79.1199973439942,2|0,1:2|0:0,0:0:0:0:
452,356,10735,1,0,1:2:0:0:
488,208,10887,6,0,B|412:188|416:248|336:224,1,158.239994687988,10|0,0:2|0:2,0:0:0:0:
356,72,11344,1,2,1:2:0:0:
244,248,11497,2,0,P|236:208|228:168,1,79.1199973439942,8|0,0:2|0:2,0:0:0:0:
144,56,11801,2,0,P|102:56|72:75,1,79.1199973439942,2|0,1:2|1:2,0:0:0:0:
4,175,12106,2,0,P|4:216|17:252,1,79.1199973439942,8|0,0:2|0:2,0:0:0:0:
160,351,12410,6,0,P|196:331|236:323,1,79.1199973439942,2|0,1:2|1:2,0:0:0:0:
320,236,12715,1,10,0:2:0:0:
320,236,12867,2,0,P|284:216|244:208,1,79.1199973439942,2|0,1:2|0:0,0:0:0:0:
116,240,13172,1,0,1:2:0:0:
204,96,13324,6,0,B|280:76|292:132|360:112,1,158.239994687988,10|0,0:2|0:2,0:0:0:0:
452,32,13781,1,2,1:2:0:0:
496,160,13933,2,0,P|487:198|480:240,1,79.1199973439942,8|0,0:2|0:2,0:0:0:0:
373,324,14238,2,0,P|333:341|297:346,1,79.1199973439942,2|0,1:2|1:2,0:0:0:0:
203,170,14542,2,0,P|241:176|278:191,1,79.1199973439942,8|0,0:2|0:2,0:0:0:0:
92,356,14847,6,0,P|85:319|76:276,1,79.1199973439942,2|0,1:2|1:2,0:0:0:0:
203,170,15151,1,10,0:2:0:0:
203,170,15304,2,0,P|195:204|186:247,1,79.1199973439942,2|0,1:2|0:0,0:0:0:0:
56,156,15608,1,0,1:2:0:0:
152,36,15760,6,0,B|224:16|236:80|308:56,1,158.239994687988,10|0,0:2|0:2,0:0:0:0:
426,19,16217,1,2,1:2:0:0:
452,156,16370,2,0,P|452:198|440:232,1,79.1199973439942,8|0,0:2|0:2,0:0:0:0:
299,277,16674,2,0,L|218:258,1,79.1199973439942,2|0,1:2|1:2,0:0:0:0:
198,123,16979,2,0,L|279:104,1,79.1199973439942,8|0,0:2|0:2,0:0:0:0:
420,38,17283,5,2,1:2:0:0:
420,38,17436,1,2,1:2:0:0:
494,194,17588,2,0,P|484:232|475:271,1,79.1199973439942,14|0,0:2|1:2,0:0:0:0:
369,349,17892,2,0,P|360:309|351:272,1,79.1199973439942,14|0,0:2|0:0,0:0:0:0:
273,119,18197,5,2,1:2:0:0:
273,119,18349,1,2,1:2:0:0:
227,267,18502,2,0,P|185:267|154:248,1,79.1199973439942,14|0,0:2|0:2,0:0:0:0:
146,74,18806,2,0,P|181:54|219:54,1,79.1199973439942,14|0,0:2|0:2,0:0:0:0:
362,207,19111,5,10,0:2:0:0:
362,207,19263,1,10,0:2:0:0:
214,137,19415,1,8,0:3:0:0:
357,53,19568,1,8,0:3:0:0:
248,254,19720,6,0,P|166:262|82:273,1,158.239994687988,6|0,1:2|0:2,0:0:0:0:
2,167,20177,1,2,1:2:0:0:
2,167,20329,2,0,P|-6:127|2:87,1,79.1199973439942,14|0,0:2|0:0,0:0:0:0:
130,23,20634,6,0,B|206:3|210:59|286:39,1,158.239994687988,2|4,1:2|0:2,0:0:0:0:
415,15,21090,1,10,0:2:0:0:
440,152,21243,2,0,P|432:196|428:232,1,79.1199973439942,0|0,1:2|0:0,0:0:0:0:
342,335,21547,2,0,P|331:285|298:181,1,158.239994687988,14|0,0:2|1:2,0:0:0:0:
66,346,22156,6,0,P|24:315|24:214,1,158.239994687988,6|0,1:2|0:2,0:0:0:0:
97,115,22613,1,2,1:2:0:0:
97,115,22766,2,0,P|109:158|117:198,1,79.1199973439942,14|0,0:2|0:0,0:0:0:0:
168,304,23070,6,0,B|252:298|232:354|316:350,1,158.239994687988,2|4,1:2|0:2,0:0:0:0:
432,364,23527,1,10,0:2:0:0:
460,244,23679,2,0,P|466:204|474:164,1,79.1199973439942,0|0,1:2|0:0,0:0:0:0:
412,32,23984,2,0,P|328:32|296:96,1,158.239994687988,14|0,0:2|1:2,0:0:0:0:
440,348,24593,6,0,P|456:260|472:188,1,158.239994687988,6|0,1:2|0:2,0:0:0:0:
486,48,25050,1,2,1:2:0:0:
486,48,25202,2,0,P|454:32|410:32,1,79.1199973439942,14|0,0:2|0:0,0:0:0:0:
270,36,25507,6,0,B|187:43|214:95|129:99,1,158.239994687988,2|4,1:2|0:2,0:0:0:0:
13,34,25964,1,10,0:2:0:0:
13,171,26116,2,0,P|24:213|32:250,1,79.1199973439942,0|0,1:2|0:0,0:0:0:0:
123,346,26420,2,0,P|203:346|243:282,1,158.239994687988,14|0,0:2|1:2,0:0:0:0:
192,36,27030,5,10,0:2:0:0:
192,36,27182,1,10,0:2:0:0:
248,192,27334,2,0,P|280:212|324:212,1,79.1199973439942,6|0,1:2|0:2,0:0:0:0:
432,48,27639,2,0,P|388:48|360:72,1,79.1199973439942,6|0,1:2|0:2,0:0:0:0:
440,183,27943,5,10,0:2:0:0:
440,183,28096,1,10,0:2:0:0:
280,32,28248,2,0,P|272:68|264:112,1,79.1199973439942,6|0,1:2|0:2,0:0:0:0:
184,264,28552,2,0,P|176:224|168:184,1,79.1199973439942,6|0,1:2|0:2,0:0:0:0:
64,32,28857,5,10,0:2:0:0:
68,192,29010,1,10,0:2:0:0:
172,96,29162,1,8,0:3:0:0:
172,96,29314,1,8,0:3:0:0:
20,176,29466,6,0,P|28:208|36:240,1,61.9200015117188,6|0,1:2|1:0,0:0:0:0:
108,344,29771,2,0,B|172:340|156:288|216:284,1,123.840003023438,10|2,0:2|0:2,0:0:0:0:
328,344,30228,1,0,1:2:0:0:
380,228,30380,2,0,P|348:212|320:212,1,61.9200015117188,10|0,0:2|0:0,0:0:0:0:
472,292,30684,6,0,P|488:260|488:228,1,61.9200015117188,2|0,0:2|1:2,0:0:0:0:
472,100,30989,2,0,B|412:92|420:148|356:140,1,123.840003023438,10|0,0:2|1:2,0:0:0:0:
268,40,31446,1,0,1:2:0:0:
208,160,31598,2,0,P|220:208|236:288,1,123.840003023438,8|0,0:2|1:2,0:0:0:0:
116,352,32055,5,0,1:2:0:0:
40,236,32207,2,0,P|72:212|104:212,1,61.9200015117188,10|0,0:2|1:2,0:0:0:0:
196,304,32512,2,0,P|224:320|256:320,1,61.9200015117188,2|0,0:2|1:2,0:0:0:0:
368,176,32816,2,0,P|344:164|308:164,1,61.9200015117188,10|0,0:2|0:0,0:0:0:0:
392,304,33121,5,2,0:2:0:0:
392,304,33273,1,0,1:2:0:0:
484,200,33425,2,0,P|496:144|448:100,1,123.840003023438,10|0,0:2|1:2,0:0:0:0:
352,44,33882,1,0,1:2:0:0:
284,136,34035,2,0,B|224:128|228:180|164:172,1,123.840003023438,8|0,0:2|1:2,0:0:0:0:
64,96,34491,5,0,1:2:0:0:
48,224,34644,2,0,P|56:252|64:288,1,61.9200015117188,10|0,0:2|1:2,0:0:0:0:
156,348,34948,2,0,P|184:336|216:332,1,61.9200015117188,2|0,0:0|1:2,0:0:0:0:
247,232,35253,2,0,P|279:234|308:248,1,61.9200015117188,10|0,0:2|0:0,0:0:0:0:
372,344,35557,5,2,0:2:0:0:
372,344,35710,1,0,1:2:0:0:
448,264,35862,2,0,P|456:220|460:200,1,61.9200015117188,10|0,0:2|0:2,0:0:0:0:
392,92,36167,1,2,1:2:0:0:
392,92,36319,1,0,1:2:0:0:
304,184,36471,6,0,P|272:160|184:160,1,123.840003023438,10|0,0:2|1:2,0:0:0:0:
96,240,36928,1,0,1:2:0:0:
196,312,37080,2,0,B|260:304|256:356|316:348,1,123.840003023438,10|0,0:2|0:2,0:0:0:0:
428,340,37537,1,0,1:2:0:0:
480,240,37689,6,0,P|480:176|452:120,1,123.840003023438,10|0,0:2|0:2,0:0:0:0:
376,40,38146,1,0,1:2:0:0:
268,84,38299,2,0,B|208:84|224:136|156:136,1,123.840003023438,10|0,0:2|1:2,0:0:0:0:
24,120,38755,1,0,1:2:0:0:
84,20,38908,1,8,0:2:0:0:
128,128,39060,1,8,0:2:0:0:
128,128,39136,1,8,0:2:0:0:
128,128,39212,6,0,P|136:156|144:192,1,61.9200015117188,0|0,1:2|1:2,0:0:0:0:
184,292,39517,2,0,B|244:284|240:340|308:332,1,123.840003023438,10|2,0:2|0:2,0:0:0:0:
404,348,39974,1,0,1:2:0:0:
444,256,40126,2,0,P|448:224|452:192,1,61.9200015117188,10|0,0:2|0:0,0:0:0:0:
328,128,40431,6,0,P|336:168|340:192,1,61.9200015117188,2|0,0:2|1:2,0:0:0:0:
472,88,40735,2,0,P|452:52|372:36,1,123.840003023438,10|0,0:2|1:2,0:0:0:0:
284,128,41192,1,0,1:2:0:0:
212,32,41344,2,0,B|148:40|168:84|104:92,1,123.840003023438,8|0,0:2|1:2,0:0:0:0:
16,56,41801,5,0,1:2:0:0:
20,168,41953,2,0,P|28:196|36:232,1,61.9200015117188,10|0,0:2|1:2,0:0:0:0:
131,298,42258,2,0,P|136:266|144:235,1,61.9200015117188,2|0,0:2|1:2,0:0:0:0:
180,137,42563,2,0,P|216:117|240:117,1,61.9200015117188,10|0,0:2|0:0,0:0:0:0:
383,173,42867,5,2,0:2:0:0:
383,173,43019,1,0,1:2:0:0:
329,37,43172,2,0,P|321:73|305:165,1,123.840003023438,10|0,0:2|1:2,0:0:0:0:
275,283,43629,1,0,1:2:0:0:
203,171,43781,2,0,P|175:159|143:163,1,61.9200015117188,8|0,0:2|0:0,0:0:0:0:
64,240,44085,5,0,1:2:0:0:
64,240,44238,1,0,1:2:0:0:
176,344,44390,2,0,P|171:310|164:280,1,61.9200015117188,10|0,0:2|1:2,0:0:0:0:
294,184,44695,2,0,P|288:207|283:247,1,61.9200015117188,2|0,0:2|1:2,0:0:0:0:
368,348,44999,2,0,P|413:304|477:292,1,123.840003023438,10|2,0:2|0:2,0:0:0:0:
496,172,45456,1,0,1:2:0:0:
366,127,45608,2,0,P|359:157|356:188,1,61.9200015117188,10|0,0:2|0:0,0:0:0:0:
243,92,45913,6,0,P|239:62|232:32,1,61.9200015117188,2|0,1:2|1:2,0:0:0:0:
232,207,46217,1,10,0:2:0:0:
232,207,46370,1,8,0:2:0:0:
392,44,46522,1,0,1:2:0:0:
392,44,47740,5,8,0:2:0:0:
392,44,47892,2,0,P|404:88|416:176,1,123.840003023438,0|0,1:2|1:2,0:0:0:0:
244,276,48349,1,8,0:2:0:0:
244,276,48502,1,0,1:2:0:0:
256,96,48654,1,8,0:2:0:0:
256,96,48806,1,10,0:2:0:0:
360,232,48958,6,0,P|369:276|378:320,1,87.7200005354004,6|2,1:2|1:2,0:0:0:0:
492,200,49262,2,0,P|501:156|510:112,1,87.7200005354004,10|0,0:2|1:2,0:0:0:0:
435,9,49567,2,0,P|394:-8|346:2,1,87.7200005354004,2|0,0:2|1:2,0:0:0:0:
253,129,49872,2,0,B|345:117|321:205|417:189,1,175.440001070801,10|0,0:2|0:2,0:0:0:0:
407,86,50329,5,0,1:2:0:0:
263,221,50481,2,0,P|218:221|181:196,1,87.7200005354004,10|0,0:2|0:2,0:0:0:0:
73,35,50786,1,2,1:2:0:0:
253,129,50938,1,0,1:2:0:0:
71,284,51090,2,0,P|63:238|55:196,1,87.7200005354004,8|2,0:2|0:2,0:0:0:0:
73,35,51395,5,2,1:2:0:0:
182,228,51547,1,2,1:2:0:0:
240,37,51700,2,0,P|282:26|325:37,1,87.7200005354004,10|0,0:2|1:2,0:0:0:0:
410,156,52004,2,0,P|401:189|390:247,1,87.7200005354004,2|0,0:2|1:2,0:0:0:0:
235,357,52308,6,0,B|140:351|178:291|79:285,1,175.440001070801,10|0,0:2|0:2,0:0:0:0:
0,192,52765,1,0,1:2:0:0:
92,104,52917,2,0,P|136:115|187:127,1,87.7200005354004,8|0,0:2|0:2,0:0:0:0:
348,184,53222,1,0,1:2:0:0:
216,264,53374,1,0,1:2:0:0:
264,88,53526,2,0,P|304:56|340:56,1,87.7200005354004,8|0,0:2|0:2,0:0:0:0:
487,145,53831,6,0,P|471:189|459:229,1,87.7200005354004,2|0,1:2|1:2,0:0:0:0:
382,345,54135,1,8,0:2:0:0:
348,184,54288,2,0,P|312:164|264:164,1,87.7200005354004,2|0,1:2|0:0,0:0:0:0:
96,260,54592,1,0,1:2:0:0:
157,84,54745,2,0,P|174:156|194:260,1,175.440001070801,10|0,0:2|0:2,0:0:0:0:
272,336,55201,5,2,1:2:0:0:
312,136,55354,2,0,P|352:124|396:136,1,87.7200005354004,8|0,0:2|0:2,0:0:0:0:
492,280,55658,1,2,1:2:0:0:
352,204,55810,1,0,1:2:0:0:
492,80,55963,2,0,P|484:108|473:169,1,87.7200005354004,8|0,0:2|1:2,0:0:0:0:
272,336,56267,6,0,P|264:288|253:248,1,87.7200005354004,14|0,0:2|1:2,0:0:0:0:
216,72,56572,1,0,1:2:0:0:
128,256,56724,2,0,P|96:244|44:232,1,87.7200005354004,14|0,0:2|1:2,0:0:0:0:
192,40,57029,1,0,1:2:0:0:
272,240,57182,2,0,P|314:230|356:215,1,87.7200005354004,14|0,0:2|1:2,0:0:0:0:
340,63,57486,5,0,1:2:0:0:
340,63,57639,1,14,0:2:0:0:
424,322,57791,2,0,P|431:278|439:235,1,87.7200005354004,8|0,0:2|1:2,0:0:0:0:
232,204,58096,2,0,P|240:244|248:292,1,87.7200005354004,14|0,0:2|1:2,0:0:0:0:
512,176,58399,1,8,0:2:0:0:
312,220,58551,1,10,0:2:0:0:
508,320,58705,5,6,1:2:0:0:
392,108,58857,1,2,1:2:0:0:
384,352,59009,2,0,P|392:304|399:265,1,87.7200005354004,10|0,0:2|1:2,0:0:0:0:
256,72,59314,2,0,P|264:115|271:158,1,87.7200005354004,2|0,0:2|1:2,0:0:0:0:
204,328,59618,2,0,B|112:328|148:256|48:256,1,175.440001070801,10|0,0:2|0:2,0:0:0:0:
48,364,60075,5,0,1:2:0:0:
204,232,60228,2,0,P|196:187|188:144,1,87.7200005354004,10|0,0:2|0:2,0:0:0:0:
40,40,60532,1,2,1:2:0:0:
40,240,60684,1,0,1:2:0:0:
160,68,60837,2,0,P|196:44|248:44,1,87.7200005354004,8|2,0:2|0:2,0:0:0:0:
384,196,61141,5,2,1:2:0:0:
228,132,61293,1,2,1:2:0:0:
376,12,61446,2,0,P|366:54|355:106,1,87.7200005354004,10|0,0:2|1:2,0:0:0:0:
261,267,61750,2,0,P|251:223|241:179,1,87.7200005354004,2|0,0:2|1:2,0:0:0:0:
136,40,62055,2,0,P|60:40|40:132,1,175.440001070801,10|0,0:2|0:2,0:0:0:0:
104,300,62512,5,0,1:2:0:0:
200,156,62664,2,0,P|240:148|288:140,1,87.7200005354004,8|0,0:2|0:0,0:0:0:0:
440,288,62969,1,0,1:2:0:0:
268,244,63121,1,0,1:2:0:0:
424,80,63273,2,0,P|414:114|404:168,1,87.7200005354004,8|0,0:2|0:2,0:0:0:0:
284,344,63578,6,0,P|236:344|204:320,1,87.7200005354004,2|0,1:2|1:2,0:0:0:0:
384,244,63882,1,8,0:2:0:0:
279,132,64035,2,0,P|231:132|199:156,1,87.7200005354004,2|0,1:2|0:0,0:0:0:0:
112,320,64339,1,0,1:2:0:0:
56,52,64491,2,0,P|70:122|89:227,1,175.440001070801,10|0,0:2|0:2,0:0:0:0:
194,315,64948,5,2,1:2:0:0:
228,112,65101,2,0,P|264:88|308:88,1,87.7200005354004,8|0,0:2|0:2,0:0:0:0:
440,256,65405,1,2,1:2:0:0:
288,172,65557,1,0,1:2:0:0:
439,41,65710,2,0,P|432:78|424:129,1,87.7200005354004,8|0,0:2|1:2,0:0:0:0:
286,323,66014,6,0,P|241:323|203:302,1,87.7200005354004,14|0,0:2|1:2,0:0:0:0:
113,179,66319,1,0,1:2:0:0:
229,29,66471,2,0,P|237:61|250:121,1,87.7200005354004,14|0,0:2|1:2,0:0:0:0:
356,247,66776,1,0,1:2:0:0:
450,85,66928,2,0,P|442:124|433:172,1,87.7200005354004,14|0,0:2|1:2,0:0:0:0:
391,311,67233,5,0,1:2:0:0:
391,311,67385,1,14,0:2:0:0:
282,151,67537,2,0,P|317:128|361:128,1,87.7200005354004,8|0,0:2|1:2,0:0:0:0:
247,302,67841,2,0,P|200:302|167:278,1,87.7200005354004,14|0,0:2|1:2,0:0:0:0:
86,111,68146,1,8,0:2:0:0:
230,212,68298,1,8,0:2:0:0:
60,344,68451,6,0,P|48:272|28:180,1,159.959993653931,6|2,1:2|0:2,0:0:0:0:
104,36,69060,2,0,B|160:28|160:72|208:64,1,106.639995769287,8|2,0:2|0:2,0:0:0:0:
320,32,69517,6,0,P|309:82|300:140,1,106.639995769287,0|0,1:2|0:2,0:0:0:0:
332,260,69974,2,0,P|368:248|392:244,1,53.3199978846436,2|0,1:2|0:2,0:0:0:0:
472,160,70278,2,0,P|436:148|412:144,1,53.3199978846436,10|0,0:2|0:2,0:0:0:0:
336,92,70583,2,0,P|300:104|276:108,1,53.3199978846436,2|0,0:2|0:2,0:0:0:0:
184,36,70887,6,0,P|168:96|152:200,1,159.959993653931,2|2,1:2|0:2,0:0:0:0:
40,216,71497,2,0,P|48:252|60:328,1,106.639995769287,8|2,0:2|0:2,0:0:0:0:
140,352,71953,6,0,P|148:297|159:243,1,106.639995769287,0|0,1:2|0:2,0:0:0:0:
236,144,72410,2,0,P|264:128|288:128,1,53.3199978846436,0|0,1:2|0:2,0:0:0:0:
352,212,72715,1,8,0:2:0:0:
352,212,72867,2,0,P|408:224|444:188,1,106.639995769287,0|0,0:2|0:2,0:0:0:0:
448,32,73324,6,0,B|344:20|388:120|256:104,1,211.560003228149,2|2,1:2|0:2,0:0:0:0:
180,40,73933,2,0,P|168:92|152:192,1,141.0400021521,8|2,0:2|0:2,0:0:0:0:
72,324,74390,6,0,P|60:252|45:182,1,141.0400021521,0|0,1:2|0:2,0:0:0:0:
60,48,74847,2,0,P|92:32|136:32,1,70.5200010760498,2|0,1:2|0:2,0:0:0:0:
192,108,75151,2,0,P|200:144|208:184,1,70.5200010760498,10|0,0:2|0:2,0:0:0:0:
284,272,75456,2,0,P|291:236|298:201,1,70.5200010760498,2|0,0:2|0:2,0:0:0:0:
408,84,75760,6,0,P|488:84|508:180,1,185.760004535156,2|0,1:2|0:2,0:0:0:0:
476,300,76370,2,0,P|432:304|332:328,1,141.0400021521,8|0,0:2|0:2,0:0:0:0:
228,196,76826,6,0,P|272:200|372:224,1,141.0400021521,0|0,1:2|0:2,0:0:0:0:
456,344,77283,1,0,1:2:0:0:
456,344,77587,5,8,0:2:0:0:
416,164,77740,1,8,0:2:0:0:
336,344,77893,1,8,0:2:0:0:
508,248,78045,1,8,0:2:0:0:
311,224,78197,6,0,P|271:215|218:207,1,79.1199973439942,6|0,1:2|1:2,0:0:0:0:
412,128,78502,1,8,0:2:0:0:
412,128,78654,2,0,P|452:119|505:111,1,79.1199973439942,2|0,1:2|0:2,0:0:0:0:
388,24,78958,1,0,1:2:0:0:
388,24,79111,2,0,B|304:12|332:72|236:60,1,158.239994687988,10|0,0:2|0:2,0:0:0:0:
88,44,79568,5,0,1:2:0:0:
88,44,79720,2,0,P|98:83|106:122,1,79.1199973439942,10|0,0:2|0:0,0:0:0:0:
216,12,80024,1,2,1:2:0:0:
216,12,80177,1,0,1:2:0:0:
248,176,80329,2,0,P|238:215|230:254,1,79.1199973439942,10|0,0:2|0:2,0:0:0:0:
96,360,80634,5,2,1:2:0:0:
96,360,80786,1,0,1:2:0:0:
112,192,80938,1,8,0:2:0:0:
232,296,81090,2,0,B|320:288|296:352|384:344,1,158.239994687988,2|0,1:2|1:2,0:0:0:0:
496,228,81547,2,0,P|496:152|420:128,1,158.239994687988,10|0,0:2|0:2,0:0:0:0:
288,160,82004,5,0,1:2:0:0:
288,160,82156,2,0,P|281:198|274:238,1,79.1199973439942,10|0,0:2|0:0,0:0:0:0:
176,344,82461,1,2,1:2:0:0:
176,344,82613,1,0,1:2:0:0:
124,128,82766,2,0,P|130:166|137:206,1,79.1199973439942,10|0,0:2|0:2,0:0:0:0:
300,80,83070,5,2,1:2:0:0:
300,80,83222,1,0,1:2:0:0:
256,272,83375,1,8,0:2:0:0:
340,72,83527,2,0,B|424:72|400:128|484:128,1,158.239994687988,2|0,1:2|1:2,0:0:0:0:
468,252,83984,2,0,P|416:232|312:216,1,158.239994687988,10|0,0:2|0:2,0:0:0:0:
188,308,84441,5,0,1:2:0:0:
188,308,84593,2,0,P|196:264|204:224,1,79.1199973439942,10|0,0:2|0:0,0:0:0:0:
124,108,84898,1,2,1:2:0:0:
124,108,85050,1,0,1:2:0:0:
68,280,85202,2,0,P|60:236|52:196,1,79.1199973439942,10|0,0:2|0:2,0:0:0:0:
140,68,85507,5,14,0:0:0:0:
256,192,85583,12,0,87639,0:0:0:0:
340,103,87943,6,0,P|333:64|325:25,1,79.1199973439942,6|0,1:2|1:2,0:0:0:0:
503,93,88248,1,8,0:2:0:0:
503,93,88400,2,0,P|491:153|475:249,1,158.239994687988,2|0,1:2|1:2,0:0:0:0:
349,366,88857,2,0,P|309:342|189:326,1,158.239994687988,10|0,0:2|0:2,0:0:0:0:
87,354,89314,5,2,1:2:0:0:
26,265,89466,2,0,P|34:221|38:185,1,79.1199973439942,8|0,0:2|0:2,0:0:0:0:
149,119,89771,2,0,P|153:159|160:198,2,79.1199973439942,2|0|8,1:2|1:2|0:2,0:0:0:0:
408,48,90380,6,0,P|456:48|480:68,1,79.1199973439942,2|0,1:2|0:0,0:0:0:0:
497,226,90684,1,8,0:2:0:0:
497,226,90837,2,0,P|457:276|368:276,1,158.239994687988,2|0,1:2|1:2,0:0:0:0:
308,79,91293,2,0,P|300:132|284:235,1,158.239994687988,10|0,0:2|0:2,0:0:0:0:
192,32,91750,5,2,1:2:0:0:
128,144,91903,2,0,P|135:183|143:223,1,79.1199973439942,8|0,0:0|0:0,0:0:0:0:
232,336,92207,2,0,P|239:296|247:256,2,79.1199973439942,2|0|8,1:2|1:2|0:2,0:0:0:0:
58,42,92816,6,0,P|97:46|136:50,1,79.1199973439942,2|0,1:2|1:2,0:0:0:0:
332,116,93121,1,8,0:2:0:0:
332,116,93273,2,0,P|256:139|182:167,1,158.239994687988,2|0,1:2|1:2,0:0:0:0:
307,307,93730,2,0,P|365:254|445:254,1,158.239994687988,10|0,0:2|0:2,0:0:0:0:
406,357,94187,5,2,1:2:0:0:
512,192,94339,2,0,P|480:168|436:160,1,79.1199973439942,8|0,0:2|0:2,0:0:0:0:
296,280,94643,2,0,P|288:236|280:196,1,79.1199973439942,2|0,1:2|1:2,0:0:0:0:
216,28,94948,2,0,P|208:67|200:107,1,79.1199973439942,8|0,0:2|0:2,0:0:0:0:
140,312,95253,5,10,0:2:0:0:
140,312,95405,1,10,0:2:0:0:
59,170,95557,2,0,P|87:150|135:150,1,79.1199973439942,6|0,1:2|0:2,0:0:0:0:
229,242,95862,2,0,P|256:264|300:264,1,79.1199973439942,4|0,1:2|0:2,0:0:0:0:
452,160,96166,5,10,0:2:0:0:
452,160,96319,1,10,0:2:0:0:
340,36,96471,2,0,P|333:76|325:116,1,79.1199973439942,6|0,1:2|0:2,0:0:0:0:
220,240,96775,2,0,P|212:200|204:160,1,79.1199973439942,6|0,1:2|0:2,0:0:0:0:
68,24,97080,5,10,0:2:0:0:
128,188,97233,1,10,0:2:0:0:
8,144,97385,1,8,0:3:0:0:
8,144,97537,1,8,0:3:0:0:
172,24,97689,6,0,B|248:20|232:84|320:80,1,158.239994687988,6|0,1:2|0:2,0:0:0:0:
452,112,98146,1,2,1:2:0:0:
452,112,98299,2,0,P|458:152|465:207,1,79.1199973439942,12|0,0:2|0:0,0:0:0:0:
412,328,98603,2,0,P|368:284|264:268,1,158.239994687988,2|4,1:2|0:2,0:0:0:0:
152,344,99060,5,10,0:2:0:0:
152,344,99212,2,0,P|160:292|168:260,1,79.1199973439942,0|0,1:0|0:2,0:0:0:0:
40,108,99517,2,0,P|53:187|65:267,1,158.239994687988,14|0,0:2|1:2,0:0:0:0:
312,56,100126,6,0,P|236:36|184:92,1,158.239994687988,6|0,1:2|0:2,0:0:0:0:
244,244,100583,1,0,1:2:0:0:
244,244,100735,2,0,P|282:232|322:223,1,79.1199973439942,12|0,0:2|0:0,0:0:0:0:
480,152,101040,2,0,B|400:152|432:84|340:84,1,158.239994687988,2|4,1:2|0:2,0:0:0:0:
176,76,101497,5,10,0:2:0:0:
176,76,101649,2,0,P|167:115|175:155,1,79.1199973439942,0|0,1:2|0:0,0:0:0:0:
296,304,101953,2,0,P|240:284|132:268,1,158.239994687988,14|0,0:2|1:2,0:0:0:0:
28,112,102563,6,0,P|44:60|140:48,1,158.239994687988,6|0,1:2|0:2,0:0:0:0:
216,160,103019,1,2,1:2:0:0:
216,160,103172,2,0,P|258:155|305:150,1,79.1199973439942,12|0,0:2|0:0,0:0:0:0:
480,80,103476,2,0,P|396:64|316:40,1,158.239994687988,2|4,1:2|0:2,0:0:0:0:
180,104,103933,5,10,0:2:0:0:
180,104,104085,2,0,P|186:144|192:183,1,79.1199973439942,0|0,1:0|0:2,0:0:0:0:
280,336,104390,2,0,P|291:256|306:176,1,158.239994687988,14|0,0:2|1:2,0:0:0:0:
456,40,104999,5,2,1:2:0:0:
456,40,105151,1,10,0:2:0:0:
432,204,105304,2,0,P|392:204|356:184,1,79.1199973439942,2|8,1:2|0:2,0:0:0:0:
240,56,105608,2,0,P|275:36|315:36,1,79.1199973439942,2|8,1:2|0:2,0:0:0:0:
224,212,105913,5,2,1:2:0:0:
224,212,106065,1,10,0:2:0:0:
128,24,106217,2,0,P|116:71|110:106,1,79.1199973439942,2|8,1:2|0:2,0:0:0:0:
32,211,106522,2,0,P|45:258|52:294,1,79.1199973439942,2|8,1:2|0:2,0:0:0:0:
183,346,106826,6,0,L|220:357,3,39.5599986719971,0|0|8|8,1:0|1:0|0:0|0:0,0:0:0:0:
260,198,107131,2,0,L|223:212,3,39.5599986719971,0|0|8|8,1:0|1:0|0:0|0:0,0:0:0:0:
448,178,107436,6,0,B|262:181|356:63|167:69,1,313.039998089355,2|0,0:0|0:0,0:0:0:0:
