osu file format v14

[General]
AudioFilename: audio.mp3
AudioLeadIn: 0
PreviewTime: 49254
Countdown: 0
SampleSet: Normal
StackLeniency: 0.9
Mode: 1
LetterboxInBreaks: 0
WidescreenStoryboard: 0

[Editor]
DistanceSpacing: 0.3
BeatDivisor: 4
GridSize: 4
TimelineZoom: 2.599999

[Metadata]
Title:NO SCARED
TitleUnicode:NO SCARED
Artist:ONE OK ROCK
ArtistUnicode:ONE OK ROCK
Creator:Kith190
Version:Scared Oni
Source:Black Rock Shooter: THE GAME
Tags:supercell Zankyo Reference Taka Takahiro Moriuchi Morita Toru Yamashita akkin BRS Hitsu
BeatmapID:1311059
BeatmapSetID:621794

[Difficulty]
HPDrainRate:5
CircleSize:5
OverallDifficulty:6
ApproachRate:6
SliderMultiplier:1.4
SliderTickRate:1

[Events]
//Background and Video events
0,0,"Konachan.com - 229226 sample.jpg",0,30
//Break Periods
//Storyboard Layer 0 (Background)
//Storyboard Layer 1 (Fail)
//Storyboard Layer 2 (Pass)
//Storyboard Layer 3 (Foreground)
//Storyboard Sound Samples

[TimingPoints]
2552,324.324324324324,4,1,1,75,1,0
2552,-100,4,1,1,75,0,0
49254,-95.2380952380952,4,1,1,75,0,1
70011,-100,4,1,1,75,0,0

[HitObjects]
256,196,2552,5,0,0:0:0:0:
256,196,2714,1,0,0:0:0:0:
248,200,2876,1,0,0:0:0:0:
256,196,3038,1,8,0:0:0:0:
248,200,3200,1,8,0:0:0:0:
248,200,3362,1,8,0:0:0:0:
256,196,3524,1,0,0:0:0:0:
248,200,3687,1,0,0:0:0:0:
248,200,3849,1,0,0:0:0:0:
248,200,4011,1,8,0:0:0:0:
248,200,4173,1,8,0:0:0:0:
248,200,4335,1,0,0:0:0:0:
252,192,4497,1,8,0:0:0:0:
248,200,4660,1,0,0:0:0:0:
252,192,4822,1,8,0:0:0:0:
252,192,5146,1,0,0:0:0:0:
248,200,5308,1,0,0:0:0:0:
248,200,5470,1,0,0:0:0:0:
252,192,5633,1,8,0:0:0:0:
248,200,5795,1,8,0:0:0:0:
248,200,5957,1,8,0:0:0:0:
252,192,6119,1,0,0:0:0:0:
248,200,6281,1,0,0:0:0:0:
248,200,6443,1,0,0:0:0:0:
252,192,6606,1,8,0:0:0:0:
248,200,6768,1,8,0:0:0:0:
248,200,6930,1,8,0:0:0:0:
252,192,7092,1,0,0:0:0:0:
248,200,7254,1,0,0:0:0:0:
252,192,7416,1,8,0:0:0:0:
252,192,7741,1,4,0:0:0:0:
252,192,7903,1,0,0:0:0:0:
252,192,8065,1,8,0:0:0:0:
252,192,8227,1,0,0:0:0:0:
252,192,8308,1,0,0:0:0:0:
252,192,8389,1,0,0:0:0:0:
252,192,8551,1,0,0:0:0:0:
252,192,8714,1,8,0:0:0:0:
252,192,8876,1,0,0:0:0:0:
252,192,8957,1,0,0:0:0:0:
252,192,9038,1,0,0:0:0:0:
252,192,9200,1,0,0:0:0:0:
252,192,9362,1,8,0:0:0:0:
252,192,9524,1,0,0:0:0:0:
248,200,9606,1,0,0:0:0:0:
252,192,9687,1,0,0:0:0:0:
252,192,9849,1,0,0:0:0:0:
252,192,10011,1,8,0:0:0:0:
264,188,10092,1,8,0:0:0:0:
252,192,10173,1,8,0:0:0:0:
252,192,10254,1,8,0:0:0:0:
252,192,10335,1,0,0:0:0:0:
252,192,10497,1,0,0:0:0:0:
252,192,10660,1,8,0:0:0:0:
252,192,10822,1,0,0:0:0:0:
252,192,10903,1,0,0:0:0:0:
252,192,10984,1,0,0:0:0:0:
252,184,11146,1,0,0:0:0:0:
252,188,11308,1,8,0:0:0:0:
252,188,11470,1,0,0:0:0:0:
252,192,11551,1,0,0:0:0:0:
252,192,11633,1,0,0:0:0:0:
252,188,11795,1,0,0:0:0:0:
252,184,11957,1,8,0:0:0:0:
264,188,12038,1,8,0:0:0:0:
252,184,12119,1,0,0:0:0:0:
252,188,12281,1,8,0:0:0:0:
252,188,12443,1,0,0:0:0:0:
252,192,12524,1,0,0:0:0:0:
252,188,12606,1,8,0:0:0:0:
256,192,12687,1,0,0:0:0:0:
256,192,12768,1,8,0:0:0:0:
256,192,12849,1,8,0:0:0:0:
252,192,12930,1,0,0:0:0:0:
252,184,13092,1,0,0:0:0:0:
252,188,13254,1,8,0:0:0:0:
252,188,13416,1,0,0:0:0:0:
252,192,13497,1,0,0:0:0:0:
256,192,13579,1,0,0:0:0:0:
248,192,13741,1,0,0:0:0:0:
248,192,13903,1,8,0:0:0:0:
252,188,14065,1,0,0:0:0:0:
256,192,14146,1,0,0:0:0:0:
256,192,14227,1,0,0:0:0:0:
252,188,14389,1,0,0:0:0:0:
248,192,14551,1,8,0:0:0:0:
248,200,14714,1,0,0:0:0:0:
248,200,14795,1,8,0:0:0:0:
256,192,14876,1,0,0:0:0:0:
256,192,15038,1,0,0:0:0:0:
256,192,15119,1,0,0:0:0:0:
256,192,15200,1,8,0:0:0:0:
264,192,15362,1,8,0:0:0:0:
264,192,15443,1,0,0:0:0:0:
276,204,15524,1,8,0:0:0:0:
256,184,15687,1,0,0:0:0:0:
256,184,15849,1,8,0:0:0:0:
252,188,16011,1,0,0:0:0:0:
252,188,16173,1,8,0:0:0:0:
256,184,16335,1,0,0:0:0:0:
256,184,16497,1,8,0:0:0:0:
256,184,16660,1,0,0:0:0:0:
248,192,16741,1,0,0:0:0:0:
248,200,16822,1,8,0:0:0:0:
248,200,16903,1,8,0:0:0:0:
248,200,16984,1,0,0:0:0:0:
248,200,17146,1,8,0:0:0:0:
248,204,17227,1,0,0:0:0:0:
248,200,17308,1,8,0:0:0:0:
248,204,17389,1,8,0:0:0:0:
248,204,17470,1,8,0:0:0:0:
248,200,17633,1,0,0:0:0:0:
248,192,17795,1,8,0:0:0:0:
248,192,17957,1,8,0:0:0:0:
248,192,18119,1,4,0:0:0:0:
248,192,18281,1,0,0:0:0:0:
248,192,18443,1,8,0:0:0:0:
248,176,18606,1,0,0:0:0:0:
252,208,18687,1,0,0:0:0:0:
248,192,18768,1,0,0:0:0:0:
248,192,18930,1,0,0:0:0:0:
248,192,19092,1,8,0:0:0:0:
236,196,19254,1,0,0:0:0:0:
236,196,19335,1,0,0:0:0:0:
248,192,19416,1,0,0:0:0:0:
248,192,19579,1,0,0:0:0:0:
248,192,19741,1,8,0:0:0:0:
248,192,19903,1,0,0:0:0:0:
252,188,19984,1,8,0:0:0:0:
248,192,20065,1,0,0:0:0:0:
248,192,20227,1,0,0:0:0:0:
236,196,20308,1,0,0:0:0:0:
248,192,20389,1,8,0:0:0:0:
236,196,20470,1,0,0:0:0:0:
236,196,20551,1,8,0:0:0:0:
236,196,20633,1,8,0:0:0:0:
248,192,20714,1,0,0:0:0:0:
248,192,20876,1,0,0:0:0:0:
248,192,21038,1,8,0:0:0:0:
236,196,21200,1,0,0:0:0:0:
236,196,21281,1,0,0:0:0:0:
248,192,21362,1,0,0:0:0:0:
248,192,21524,1,0,0:0:0:0:
248,192,21687,1,8,0:0:0:0:
236,196,21849,1,0,0:0:0:0:
236,196,21930,1,0,0:0:0:0:
248,192,22011,1,0,0:0:0:0:
248,192,22173,1,0,0:0:0:0:
248,192,22335,1,8,0:0:0:0:
240,180,22416,1,8,0:0:0:0:
240,180,22497,1,0,0:0:0:0:
248,192,22660,1,8,0:0:0:0:
248,192,22822,1,0,0:0:0:0:
240,200,22903,1,0,0:0:0:0:
248,192,22984,1,8,0:0:0:0:
232,192,23065,1,8,0:0:0:0:
232,192,23146,1,8,0:0:0:0:
232,192,23227,1,8,0:0:0:0:
248,192,23308,1,0,0:0:0:0:
248,192,23470,1,0,0:0:0:0:
248,192,23633,1,8,0:0:0:0:
240,192,23795,1,0,0:0:0:0:
240,192,23876,1,0,0:0:0:0:
248,192,23957,1,0,0:0:0:0:
248,192,24119,1,0,0:0:0:0:
248,192,24281,1,8,0:0:0:0:
240,192,24443,1,0,0:0:0:0:
240,192,24524,1,0,0:0:0:0:
248,192,24606,1,0,0:0:0:0:
248,192,24768,1,0,0:0:0:0:
248,192,24930,1,8,0:0:0:0:
248,192,25092,1,0,0:0:0:0:
240,180,25173,1,8,0:0:0:0:
240,180,25254,1,0,0:0:0:0:
248,192,25416,1,0,0:0:0:0:
240,192,25497,1,0,0:0:0:0:
248,192,25579,1,8,0:0:0:0:
240,192,25660,1,0,0:0:0:0:
240,192,25741,1,8,0:0:0:0:
240,192,25822,1,8,0:0:0:0:
248,192,25903,1,0,0:0:0:0:
248,192,26065,1,0,0:0:0:0:
248,192,26227,1,8,0:0:0:0:
240,192,26389,1,0,0:0:0:0:
248,196,26470,1,0,0:0:0:0:
248,192,26551,1,0,0:0:0:0:
248,192,26714,1,0,0:0:0:0:
248,192,26876,1,8,0:0:0:0:
240,192,27038,1,0,0:0:0:0:
248,192,27200,1,8,0:0:0:0:
240,192,27281,1,0,0:0:0:0:
248,192,27362,1,8,0:0:0:0:
240,200,27443,1,8,0:0:0:0:
248,192,27524,1,0,0:0:0:0:
248,192,27687,1,8,0:0:0:0:
240,200,27768,1,0,0:0:0:0:
248,184,27849,1,8,0:0:0:0:
248,192,28011,1,0,0:0:0:0:
240,200,28092,1,0,0:0:0:0:
248,192,28173,1,8,0:0:0:0:
240,200,28335,1,8,0:0:0:0:
248,192,28497,1,0,0:0:0:0:
248,192,28660,1,0,0:0:0:0:
248,192,28822,1,8,0:0:0:0:
248,192,29146,1,8,0:0:0:0:
248,192,29308,1,0,0:0:0:0:
240,200,29389,1,0,0:0:0:0:
248,192,29470,1,8,0:0:0:0:
248,192,29633,1,0,0:0:0:0:
240,200,29714,1,0,0:0:0:0:
248,192,29795,1,8,0:0:0:0:
240,200,29957,1,0,0:0:0:0:
240,200,30038,1,0,0:0:0:0:
248,192,30119,1,8,0:0:0:0:
240,200,30200,1,0,0:0:0:0:
248,192,30281,1,0,0:0:0:0:
240,200,30362,1,0,0:0:0:0:
248,192,30443,1,8,0:0:0:0:
240,200,30524,1,8,0:0:0:0:
240,200,30606,1,0,0:0:0:0:
240,200,30687,1,0,0:0:0:0:
240,200,30768,1,8,0:0:0:0:
240,200,30930,1,0,0:0:0:0:
240,200,31011,1,0,0:0:0:0:
240,200,31092,1,8,0:0:0:0:
248,192,31255,1,0,0:0:0:0:
248,192,31417,1,8,0:0:0:0:
252,192,31579,1,0,0:0:0:0:
252,192,31660,1,0,0:0:0:0:
248,192,31741,1,8,0:0:0:0:
248,192,31903,1,0,0:0:0:0:
248,192,32065,1,8,0:0:0:0:
248,192,32228,1,0,0:0:0:0:
248,192,32308,1,0,0:0:0:0:
248,192,32390,1,8,0:0:0:0:
252,192,32551,1,0,0:0:0:0:
252,192,32633,1,0,0:0:0:0:
248,192,32714,1,8,0:0:0:0:
248,192,32795,1,0,0:0:0:0:
248,192,32876,1,0,0:0:0:0:
248,192,32957,1,0,0:0:0:0:
248,192,33038,1,8,0:0:0:0:
248,192,33119,1,8,0:0:0:0:
248,192,33200,1,8,0:0:0:0:
248,192,33281,1,0,0:0:0:0:
248,192,33363,1,8,0:0:0:0:
240,176,33524,1,0,0:0:0:0:
244,200,33606,1,0,0:0:0:0:
256,192,33687,1,8,0:0:0:0:
248,184,33849,1,0,0:0:0:0:
256,192,34011,1,8,0:0:0:0:
260,188,34335,1,8,0:0:0:0:
256,192,34497,1,0,0:0:0:0:
240,188,34579,1,0,0:0:0:0:
256,192,34660,1,8,0:0:0:0:
260,188,34822,1,0,0:0:0:0:
256,192,34984,1,8,0:0:0:0:
240,188,35065,1,8,0:0:0:0:
256,192,35146,1,0,0:0:0:0:
252,176,35308,1,8,0:0:0:0:
256,192,35471,1,0,0:0:0:0:
248,172,35633,1,8,0:0:0:0:
252,196,35957,1,0,0:0:0:0:
240,188,36119,1,0,0:0:0:0:
240,188,36200,1,0,0:0:0:0:
240,188,36281,1,8,0:0:0:0:
240,188,36443,1,0,0:0:0:0:
252,196,36606,1,8,0:0:0:0:
240,188,36930,1,8,0:0:0:0:
252,196,37092,1,0,0:0:0:0:
252,196,37254,1,8,0:0:0:0:
252,196,37416,1,0,0:0:0:0:
240,196,37497,1,0,0:0:0:0:
252,196,37578,1,0,0:0:0:0:
252,196,37740,1,0,0:0:0:0:
252,196,37902,1,8,0:0:0:0:
240,188,37984,1,8,0:0:0:0:
252,196,38064,1,0,0:0:0:0:
268,204,38146,1,0,0:0:0:0:
252,196,38226,1,8,0:0:0:0:
252,196,38389,1,0,0:0:0:0:
248,192,38876,1,4,0:0:0:0:
248,192,39039,1,0,0:0:0:0:
248,192,39201,1,8,0:0:0:0:
252,196,39362,1,0,0:0:0:0:
244,184,39443,1,0,0:0:0:0:
248,192,39525,1,8,0:0:0:0:
248,192,39687,1,0,0:0:0:0:
248,192,39849,1,8,0:0:0:0:
248,192,40174,1,8,0:0:0:0:
252,196,40335,1,0,0:0:0:0:
248,192,40498,1,8,0:0:0:0:
248,192,40660,1,8,0:0:0:0:
248,192,40822,1,0,0:0:0:0:
240,188,40984,1,0,0:0:0:0:
236,196,41065,1,0,0:0:0:0:
248,192,41147,1,8,0:0:0:0:
248,192,41471,1,12,0:0:0:0:
248,192,41634,1,0,0:0:0:0:
248,192,41796,1,8,0:0:0:0:
240,188,41957,1,0,0:0:0:0:
256,180,42038,1,0,0:0:0:0:
248,192,42120,1,8,0:0:0:0:
248,192,42281,1,0,0:0:0:0:
248,192,42444,1,8,0:0:0:0:
256,200,42768,1,8,0:0:0:0:
240,176,42930,1,0,0:0:0:0:
248,192,43093,1,8,0:0:0:0:
248,192,43255,1,8,0:0:0:0:
240,188,43416,1,0,0:0:0:0:
248,192,43579,1,0,0:0:0:0:
212,184,43660,1,0,0:0:0:0:
248,192,43742,1,8,0:0:0:0:
248,192,44065,1,0,0:0:0:0:
248,192,44227,1,0,0:0:0:0:
248,176,44308,1,0,0:0:0:0:
248,192,44389,1,8,0:0:0:0:
248,192,44551,1,8,0:0:0:0:
248,192,44714,1,0,0:0:0:0:
248,176,44795,1,0,0:0:0:0:
248,176,44876,1,8,0:0:0:0:
248,176,44957,1,0,0:0:0:0:
248,192,45038,1,8,0:0:0:0:
248,192,45362,1,0,0:0:0:0:
248,192,45524,1,0,0:0:0:0:
248,176,45606,1,0,0:0:0:0:
248,192,45687,1,8,0:0:0:0:
248,192,45849,1,8,0:0:0:0:
248,176,45930,1,8,0:0:0:0:
248,192,46011,1,0,0:0:0:0:
248,176,46173,1,0,0:0:0:0:
252,172,46254,1,0,0:0:0:0:
248,192,46335,1,8,0:0:0:0:
248,192,46660,1,8,0:0:0:0:
248,192,46822,1,0,0:0:0:0:
248,176,46903,1,0,0:0:0:0:
248,192,46984,1,0,0:0:0:0:
248,192,47146,1,0,0:0:0:0:
248,192,47308,1,8,0:0:0:0:
248,192,47470,1,0,0:0:0:0:
244,184,47633,1,12,0:0:0:0:
248,192,47795,1,0,0:0:0:0:
248,192,47957,1,0,0:0:0:0:
256,192,48119,1,8,0:0:0:0:
248,176,48200,1,8,0:0:0:0:
256,192,48281,1,0,0:0:0:0:
256,192,48443,1,0,0:0:0:0:
256,196,48606,1,8,0:0:0:0:
256,196,49254,1,4,0:0:0:0:
256,196,49416,1,0,0:0:0:0:
256,196,49579,1,12,0:0:0:0:
260,188,49741,1,0,0:0:0:0:
256,196,49822,1,0,0:0:0:0:
256,196,49903,1,8,0:0:0:0:
256,196,50065,1,0,0:0:0:0:
256,196,50227,1,8,0:0:0:0:
256,196,50389,1,0,0:0:0:0:
256,196,50470,1,0,0:0:0:0:
260,188,50551,1,0,0:0:0:0:
256,196,50714,1,0,0:0:0:0:
256,196,50876,1,8,0:0:0:0:
256,196,51038,1,0,0:0:0:0:
256,196,51119,1,0,0:0:0:0:
256,196,51200,1,8,0:0:0:0:
248,176,51281,1,0,0:0:0:0:
256,196,51362,1,0,0:0:0:0:
248,176,51443,1,0,0:0:0:0:
256,196,51524,1,8,0:0:0:0:
256,196,51687,1,8,0:0:0:0:
256,196,51768,1,8,0:0:0:0:
260,188,51849,1,0,0:0:0:0:
256,196,52011,1,0,0:0:0:0:
256,196,52173,1,12,0:0:0:0:
260,188,52335,1,0,0:0:0:0:
256,196,52497,1,12,0:0:0:0:
256,196,52660,1,0,0:0:0:0:
256,196,52741,1,0,0:0:0:0:
256,196,52822,1,8,0:0:0:0:
256,196,52984,1,0,0:0:0:0:
260,188,53146,1,8,0:0:0:0:
272,196,53308,1,0,0:0:0:0:
272,184,53389,1,0,0:0:0:0:
268,192,53470,1,8,0:0:0:0:
268,192,53633,1,0,0:0:0:0:
256,196,53714,1,0,0:0:0:0:
268,192,53795,1,8,0:0:0:0:
248,176,53876,1,0,0:0:0:0:
248,176,53957,1,0,0:0:0:0:
248,176,54038,1,8,0:0:0:0:
248,176,54119,1,0,0:0:0:0:
248,176,54281,1,8,0:0:0:0:
260,188,54443,1,0,0:0:0:0:
268,192,54606,1,0,0:0:0:0:
268,192,54768,1,12,0:0:0:0:
260,188,54930,1,8,0:0:0:0:
272,196,55092,1,4,0:0:0:0:
272,196,55254,1,0,0:0:0:0:
272,176,55335,1,0,0:0:0:0:
268,192,55416,1,8,0:0:0:0:
268,192,55579,1,0,0:0:0:0:
264,168,55741,1,8,0:0:0:0:
272,184,55903,1,0,0:0:0:0:
288,184,55984,1,8,0:0:0:0:
268,184,56065,1,8,0:0:0:0:
268,184,56227,1,0,0:0:0:0:
256,200,56308,1,0,0:0:0:0:
268,184,56389,1,8,0:0:0:0:
264,168,56470,1,8,0:0:0:0:
268,184,56551,1,0,0:0:0:0:
264,168,56633,1,8,0:0:0:0:
272,184,56714,1,0,0:0:0:0:
272,184,56876,1,8,0:0:0:0:
280,176,57038,1,0,0:0:0:0:
268,184,57200,1,0,0:0:0:0:
268,184,57362,1,8,0:0:0:0:
264,168,57524,1,0,0:0:0:0:
264,168,57606,1,0,0:0:0:0:
264,168,57687,1,8,0:0:0:0:
264,184,57849,1,0,0:0:0:0:
268,184,58011,1,8,0:0:0:0:
268,184,58173,1,0,0:0:0:0:
264,168,58254,1,0,0:0:0:0:
256,200,58335,1,8,0:0:0:0:
268,192,58497,1,0,0:0:0:0:
264,168,58579,1,0,0:0:0:0:
268,192,58660,1,8,0:0:0:0:
264,168,58741,1,0,0:0:0:0:
264,168,58822,1,8,0:0:0:0:
264,168,58903,1,0,0:0:0:0:
268,192,58984,1,8,0:0:0:0:
264,192,59065,1,8,0:0:0:0:
264,192,59146,1,0,0:0:0:0:
264,168,59227,1,8,0:0:0:0:
264,192,59308,1,0,0:0:0:0:
264,168,59389,1,0,0:0:0:0:
268,192,59470,1,8,0:0:0:0:
264,168,59551,1,8,0:0:0:0:
268,192,59633,1,0,0:0:0:0:
256,196,59795,1,8,0:0:0:0:
256,196,59957,1,4,0:0:0:0:
256,196,60119,1,0,0:0:0:0:
256,196,60282,1,12,0:0:0:0:
260,188,60444,1,0,0:0:0:0:
256,196,60525,1,0,0:0:0:0:
256,196,60606,1,8,0:0:0:0:
256,196,60768,1,0,0:0:0:0:
256,196,60930,1,8,0:0:0:0:
256,196,61092,1,0,0:0:0:0:
256,196,61173,1,0,0:0:0:0:
260,188,61254,1,0,0:0:0:0:
256,196,61417,1,0,0:0:0:0:
256,196,61579,1,8,0:0:0:0:
256,196,61741,1,0,0:0:0:0:
256,196,61822,1,0,0:0:0:0:
256,196,61903,1,8,0:0:0:0:
248,176,61984,1,0,0:0:0:0:
256,196,62065,1,0,0:0:0:0:
248,176,62146,1,0,0:0:0:0:
256,196,62227,1,8,0:0:0:0:
256,196,62389,1,8,0:0:0:0:
256,196,62551,1,4,0:0:0:0:
256,196,62713,1,0,0:0:0:0:
256,196,62876,1,12,0:0:0:0:
260,188,63038,1,0,0:0:0:0:
256,196,63119,1,0,0:0:0:0:
256,196,63200,1,8,0:0:0:0:
256,196,63362,1,0,0:0:0:0:
256,196,63524,1,8,0:0:0:0:
256,196,63686,1,0,0:0:0:0:
256,196,63767,1,0,0:0:0:0:
260,188,63848,1,8,0:0:0:0:
256,196,64011,1,0,0:0:0:0:
256,196,64173,1,8,0:0:0:0:
256,196,64335,1,0,0:0:0:0:
256,196,64416,1,0,0:0:0:0:
256,196,64497,1,8,0:0:0:0:
248,176,64578,1,0,0:0:0:0:
256,196,64659,1,0,0:0:0:0:
248,176,64740,1,8,0:0:0:0:
256,196,64821,1,0,0:0:0:0:
256,188,64984,1,8,0:0:0:0:
260,188,65146,1,4,0:0:0:0:
256,196,65308,1,0,0:0:0:0:
256,196,65471,1,12,0:0:0:0:
260,188,65633,1,0,0:0:0:0:
256,196,65714,1,0,0:0:0:0:
256,196,65795,1,8,0:0:0:0:
256,196,65957,1,0,0:0:0:0:
256,196,66119,1,8,0:0:0:0:
256,196,66281,1,0,0:0:0:0:
256,196,66362,1,0,0:0:0:0:
260,188,66443,1,8,0:0:0:0:
256,196,66606,1,0,0:0:0:0:
256,196,66768,1,8,0:0:0:0:
256,196,66930,1,0,0:0:0:0:
256,196,67011,1,0,0:0:0:0:
256,196,67092,1,8,0:0:0:0:
248,176,67173,1,8,0:0:0:0:
256,196,67254,1,8,0:0:0:0:
248,176,67335,1,8,0:0:0:0:
256,196,67416,1,0,0:0:0:0:
256,196,67579,1,0,0:0:0:0:
260,188,67741,1,8,0:0:0:0:
260,184,67903,1,0,0:0:0:0:
260,184,68065,1,8,0:0:0:0:
260,184,68227,1,0,0:0:0:0:
260,184,68308,1,0,0:0:0:0:
260,184,68389,1,8,0:0:0:0:
260,184,68551,1,0,0:0:0:0:
260,184,68633,1,0,0:0:0:0:
260,188,68714,1,8,0:0:0:0:
264,188,68795,1,0,0:0:0:0:
264,188,68876,1,8,0:0:0:0:
264,188,68957,1,0,0:0:0:0:
264,188,69038,1,8,0:0:0:0:
264,188,69119,1,8,0:0:0:0:
264,188,69200,1,0,0:0:0:0:
264,188,69281,1,0,0:0:0:0:
264,188,69362,1,8,0:0:0:0:
264,188,69443,1,8,0:0:0:0:
264,188,69524,1,8,0:0:0:0:
264,188,69606,1,8,0:0:0:0:
260,188,69687,1,0,0:0:0:0:
260,180,69768,1,0,0:0:0:0:
264,188,69849,1,8,0:0:0:0:
268,184,69930,1,8,0:0:0:0:
252,192,70011,1,0,0:0:0:0:
252,192,70173,1,0,0:0:0:0:
252,192,70335,1,8,0:0:0:0:
252,192,70497,1,0,0:0:0:0:
252,192,70579,1,0,0:0:0:0:
252,192,70659,1,0,0:0:0:0:
252,192,70821,1,0,0:0:0:0:
252,192,70984,1,8,0:0:0:0:
252,192,71146,1,0,0:0:0:0:
252,192,71227,1,0,0:0:0:0:
252,192,71308,1,0,0:0:0:0:
252,192,71470,1,0,0:0:0:0:
252,192,71632,1,8,0:0:0:0:
252,192,71794,1,0,0:0:0:0:
248,200,71876,1,0,0:0:0:0:
252,192,71957,1,0,0:0:0:0:
252,192,72119,1,0,0:0:0:0:
252,192,72281,1,8,0:0:0:0:
264,188,72362,1,8,0:0:0:0:
252,192,72443,1,8,0:0:0:0:
252,192,72524,1,8,0:0:0:0:
252,192,72605,1,0,0:0:0:0:
252,192,72767,1,0,0:0:0:0:
252,192,72930,1,8,0:0:0:0:
252,192,73092,1,0,0:0:0:0:
252,192,73173,1,0,0:0:0:0:
252,192,73254,1,0,0:0:0:0:
252,184,73416,1,0,0:0:0:0:
252,188,73578,1,8,0:0:0:0:
252,188,73740,1,0,0:0:0:0:
252,192,73821,1,0,0:0:0:0:
252,192,73903,1,0,0:0:0:0:
252,188,74065,1,0,0:0:0:0:
252,184,74227,1,8,0:0:0:0:
264,188,74308,1,8,0:0:0:0:
252,184,74389,1,0,0:0:0:0:
252,188,74551,1,8,0:0:0:0:
252,188,74713,1,0,0:0:0:0:
252,192,74794,1,0,0:0:0:0:
252,188,74876,1,8,0:0:0:0:
256,192,74957,1,0,0:0:0:0:
256,192,75038,1,8,0:0:0:0:
256,192,75119,1,8,0:0:0:0:
252,192,75200,1,0,0:0:0:0:
252,184,75362,1,0,0:0:0:0:
252,188,75524,1,8,0:0:0:0:
252,188,75686,1,0,0:0:0:0:
252,192,75767,1,0,0:0:0:0:
256,192,75849,1,0,0:0:0:0:
248,192,76011,1,0,0:0:0:0:
248,192,76173,1,8,0:0:0:0:
252,188,76335,1,0,0:0:0:0:
256,192,76416,1,0,0:0:0:0:
256,192,76497,1,0,0:0:0:0:
252,188,76659,1,0,0:0:0:0:
248,192,76821,1,8,0:0:0:0:
248,200,76984,1,0,0:0:0:0:
248,200,77065,1,8,0:0:0:0:
256,192,77146,1,0,0:0:0:0:
256,192,77308,1,0,0:0:0:0:
256,192,77389,1,0,0:0:0:0:
256,192,77470,1,8,0:0:0:0:
264,192,77632,1,8,0:0:0:0:
264,192,77713,1,0,0:0:0:0:
276,204,77794,1,8,0:0:0:0:
256,184,77957,1,0,0:0:0:0:
256,184,78119,1,8,0:0:0:0:
252,188,78281,1,0,0:0:0:0:
252,188,78443,1,8,0:0:0:0:
256,184,78605,1,0,0:0:0:0:
256,184,78767,1,8,0:0:0:0:
256,184,78930,1,0,0:0:0:0:
248,192,79011,1,0,0:0:0:0:
248,200,79092,1,0,0:0:0:0:
248,200,79173,1,0,0:0:0:0:
248,200,79254,1,8,0:0:0:0:
260,200,79335,1,8,0:0:0:0:
248,200,79416,1,0,0:0:0:0:
248,204,79497,1,0,0:0:0:0:
248,200,79578,1,0,0:0:0:0:
248,204,79659,1,8,0:0:0:0:
248,204,79740,1,8,0:0:0:0:
248,200,79903,1,4,0:0:0:0:
248,192,80065,1,8,0:0:0:0:
248,192,80227,1,8,0:0:0:0:
248,192,80389,1,4,0:0:0:0:
