osu file format v14

[General]
AudioFilename: audio.mp3
AudioLeadIn: 0
PreviewTime: 49254
Countdown: 0
SampleSet: Normal
StackLeniency: 0.9
Mode: 1
LetterboxInBreaks: 0
WidescreenStoryboard: 0

[Editor]
DistanceSpacing: 0.3
BeatDivisor: 4
GridSize: 16
TimelineZoom: 1.9

[Metadata]
Title:NO SCARED
TitleUnicode:NO SCARED
Artist:ONE OK ROCK
ArtistUnicode:ONE OK ROCK
Creator:Kith190
Version:Oni
Source:Black Rock Shooter: THE GAME
Tags:supercell Zankyo Reference Taka Takahiro Moriuchi Morita Toru Yamashita akkin BRS Hitsu
BeatmapID:1311058
BeatmapSetID:621794

[Difficulty]
HPDrainRate:5
CircleSize:2
OverallDifficulty:5
ApproachRate:6
SliderMultiplier:1.4
SliderTickRate:1

[Events]
//Background and Video events
0,0,"Konachan.com - 229226 sample.jpg",0,30
//Break Periods
//Storyboard Layer 0 (Background)
//Storyboard Layer 1 (Fail)
//Storyboard Layer 2 (Pass)
//Storyboard Layer 3 (Foreground)
//Storyboard Sound Samples

[TimingPoints]
2552,324.324324324324,4,1,1,75,1,0
2552,-100,4,1,1,75,0,0
17714,-100,4,1,1,75,0,0
49254,-83.3333333333333,4,1,1,75,0,1
70011,-90.9090909090909,4,1,1,75,0,0

[HitObjects]
256,196,2552,5,0,0:0:0:0:
256,196,3038,1,8,0:0:0:0:
240,192,3524,1,0,0:0:0:0:
248,200,4011,1,8,0:0:0:0:
252,192,4497,1,0,0:0:0:0:
252,192,4822,1,8,0:0:0:0:
252,192,5146,1,0,0:0:0:0:
252,192,5633,1,8,0:0:0:0:
252,192,6119,1,0,0:0:0:0:
248,200,6606,1,8,0:0:0:0:
252,192,7092,1,0,0:0:0:0:
252,192,7416,1,8,0:0:0:0:
252,192,7741,1,4,0:0:0:0:
252,192,7903,1,0,0:0:0:0:
252,192,8065,1,8,0:0:0:0:
252,192,8227,1,0,0:0:0:0:
240,176,8308,1,0,0:0:0:0:
240,192,8389,1,0,0:0:0:0:
252,192,8551,1,0,0:0:0:0:
252,192,8714,1,8,0:0:0:0:
252,192,8876,1,0,0:0:0:0:
252,192,9200,1,0,0:0:0:0:
252,192,9362,1,8,0:0:0:0:
252,192,9524,1,0,0:0:0:0:
248,200,9606,1,0,0:0:0:0:
252,192,9687,1,0,0:0:0:0:
252,192,9849,1,0,0:0:0:0:
252,192,10011,1,8,0:0:0:0:
252,192,10335,1,0,0:0:0:0:
252,192,10497,1,0,0:0:0:0:
224,176,10579,1,0,0:0:0:0:
252,192,10660,1,8,0:0:0:0:
252,192,10822,1,0,0:0:0:0:
252,184,11146,1,0,0:0:0:0:
252,188,11308,1,8,0:0:0:0:
252,188,11470,1,0,0:0:0:0:
252,188,11795,1,0,0:0:0:0:
252,184,11957,1,8,0:0:0:0:
252,184,12119,1,8,0:0:0:0:
248,200,12200,1,8,0:0:0:0:
252,188,12281,1,0,0:0:0:0:
252,188,12443,1,0,0:0:0:0:
252,188,12606,1,8,0:0:0:0:
272,192,12930,1,0,0:0:0:0:
252,184,13092,1,0,0:0:0:0:
224,176,13173,1,0,0:0:0:0:
252,188,13254,1,8,0:0:0:0:
252,188,13416,1,0,0:0:0:0:
248,192,13741,1,0,0:0:0:0:
248,192,13903,1,8,0:0:0:0:
252,188,14065,1,0,0:0:0:0:
252,188,14389,1,0,0:0:0:0:
248,192,14551,1,8,0:0:0:0:
248,200,14714,1,0,0:0:0:0:
248,200,14795,1,0,0:0:0:0:
248,200,14876,1,0,0:0:0:0:
252,188,15038,1,0,0:0:0:0:
224,176,15119,1,0,0:0:0:0:
252,188,15200,1,8,0:0:0:0:
256,184,15524,1,8,0:0:0:0:
256,184,15687,1,0,0:0:0:0:
256,184,15849,1,8,0:0:0:0:
252,188,16011,1,0,0:0:0:0:
252,188,16173,1,8,0:0:0:0:
256,184,16335,1,0,0:0:0:0:
256,184,16497,1,8,0:0:0:0:
256,184,16660,1,0,0:0:0:0:
248,192,16741,1,0,0:0:0:0:
248,200,16822,1,8,0:0:0:0:
248,200,16903,1,8,0:0:0:0:
248,200,16984,1,0,0:0:0:0:
248,200,17146,1,0,0:0:0:0:
248,196,17308,1,8,0:0:0:0:
248,196,17389,1,8,0:0:0:0:
248,200,17470,1,0,0:0:0:0:
248,200,17633,1,0,0:0:0:0:
248,192,17795,1,8,0:0:0:0:
248,192,17957,1,8,0:0:0:0:
248,192,18119,1,4,0:0:0:0:
248,192,18443,1,8,0:0:0:0:
304,48,18606,1,0,0:0:0:0:
248,192,18930,1,0,0:0:0:0:
248,192,19092,1,8,0:0:0:0:
248,192,19254,1,0,0:0:0:0:
248,192,19579,1,0,0:0:0:0:
248,192,19741,1,8,0:0:0:0:
248,192,19903,1,0,0:0:0:0:
252,188,19984,1,0,0:0:0:0:
248,192,20065,1,0,0:0:0:0:
248,192,20227,1,0,0:0:0:0:
248,192,20389,1,8,0:0:0:0:
248,192,20714,1,0,0:0:0:0:
248,192,20876,1,0,0:0:0:0:
224,176,20957,1,0,0:0:0:0:
248,192,21038,1,8,0:0:0:0:
240,192,21200,1,0,0:0:0:0:
248,192,21524,1,0,0:0:0:0:
248,192,21687,1,8,0:0:0:0:
248,192,21849,1,0,0:0:0:0:
248,192,22173,1,0,0:0:0:0:
248,192,22335,1,8,0:0:0:0:
240,180,22497,1,8,0:0:0:0:
256,176,22579,1,8,0:0:0:0:
248,192,22660,1,0,0:0:0:0:
240,196,22822,1,0,0:0:0:0:
248,192,22984,1,8,0:0:0:0:
240,176,23146,1,8,0:0:0:0:
248,192,23308,1,4,0:0:0:0:
248,192,23633,1,8,0:0:0:0:
248,192,23795,1,0,0:0:0:0:
248,192,24119,1,0,0:0:0:0:
248,192,24281,1,8,0:0:0:0:
248,192,24443,1,0,0:0:0:0:
248,192,24768,1,0,0:0:0:0:
248,192,24930,1,8,0:0:0:0:
248,192,25092,1,0,0:0:0:0:
240,180,25173,1,0,0:0:0:0:
240,180,25254,1,0,0:0:0:0:
248,192,25416,1,0,0:0:0:0:
248,192,25579,1,8,0:0:0:0:
248,192,25903,1,0,0:0:0:0:
248,192,26065,1,0,0:0:0:0:
240,192,26146,1,0,0:0:0:0:
248,192,26227,1,8,0:0:0:0:
248,192,26389,1,0,0:0:0:0:
248,192,26714,1,0,0:0:0:0:
248,192,26876,1,8,0:0:0:0:
240,192,27038,1,0,0:0:0:0:
248,192,27200,1,8,0:0:0:0:
248,192,27362,1,0,0:0:0:0:
240,180,27443,1,0,0:0:0:0:
248,192,27524,1,0,0:0:0:0:
248,192,27687,1,8,0:0:0:0:
248,184,27849,1,8,0:0:0:0:
248,192,28173,1,8,0:0:0:0:
240,176,28335,1,0,0:0:0:0:
248,192,28497,1,0,0:0:0:0:
248,192,28660,1,0,0:0:0:0:
248,192,28822,1,8,0:0:0:0:
248,192,29146,1,8,0:0:0:0:
248,192,29308,1,0,0:0:0:0:
248,192,29470,1,8,0:0:0:0:
248,192,29633,1,0,0:0:0:0:
224,192,29714,1,0,0:0:0:0:
248,192,29795,1,8,0:0:0:0:
248,192,29957,1,8,0:0:0:0:
240,196,30119,1,0,0:0:0:0:
248,192,30281,1,0,0:0:0:0:
248,192,30443,1,8,0:0:0:0:
248,192,30768,1,8,0:0:0:0:
240,196,30930,1,0,0:0:0:0:
240,196,31011,1,0,0:0:0:0:
248,192,31092,1,0,0:0:0:0:
248,192,31255,1,0,0:0:0:0:
248,192,31417,1,8,0:0:0:0:
248,192,31741,1,8,0:0:0:0:
248,192,31903,1,0,0:0:0:0:
248,192,32065,1,8,0:0:0:0:
248,192,32228,1,0,0:0:0:0:
240,192,32308,1,0,0:0:0:0:
248,192,32390,1,8,0:0:0:0:
248,192,32551,1,8,0:0:0:0:
248,192,32714,1,0,0:0:0:0:
248,192,32876,1,0,0:0:0:0:
240,196,33038,1,8,0:0:0:0:
248,192,33363,1,8,0:0:0:0:
240,192,33524,1,0,0:0:0:0:
248,192,33606,1,0,0:0:0:0:
256,192,33687,1,8,0:0:0:0:
256,192,33849,1,0,0:0:0:0:
256,192,34011,1,8,0:0:0:0:
224,176,34173,1,0,0:0:0:0:
256,192,34335,1,8,0:0:0:0:
256,192,34497,1,0,0:0:0:0:
240,196,34579,1,0,0:0:0:0:
256,192,34660,1,8,0:0:0:0:
256,192,34984,1,8,0:0:0:0:
256,192,35146,1,0,0:0:0:0:
256,192,35227,1,0,0:0:0:0:
256,192,35308,1,8,0:0:0:0:
256,192,35470,1,0,0:0:0:0:
256,192,35633,1,8,0:0:0:0:
304,192,35795,1,0,0:0:0:0:
256,192,35957,1,8,0:0:0:0:
256,192,36281,1,8,0:0:0:0:
248,192,36443,1,0,0:0:0:0:
252,196,36606,1,8,0:0:0:0:
252,196,36930,1,8,0:0:0:0:
252,196,37092,1,0,0:0:0:0:
256,176,37254,1,8,0:0:0:0:
252,196,37416,1,8,0:0:0:0:
240,196,37497,1,8,0:0:0:0:
252,196,37578,1,0,0:0:0:0:
252,196,37740,1,0,0:0:0:0:
252,196,37902,1,8,0:0:0:0:
240,196,37984,1,8,0:0:0:0:
252,196,38064,1,0,0:0:0:0:
224,192,38146,1,0,0:0:0:0:
252,196,38226,1,8,0:0:0:0:
240,196,38389,1,0,0:0:0:0:
248,192,38876,1,4,0:0:0:0:
248,192,39039,1,0,0:0:0:0:
248,192,39201,1,8,0:0:0:0:
248,192,39525,1,8,0:0:0:0:
248,192,39687,1,0,0:0:0:0:
248,192,39849,1,8,0:0:0:0:
248,192,40012,1,0,0:0:0:0:
248,192,40174,1,8,0:0:0:0:
248,192,40498,1,8,0:0:0:0:
248,192,40660,1,0,0:0:0:0:
248,192,40822,1,8,0:0:0:0:
240,196,40984,1,0,0:0:0:0:
240,192,41065,1,0,0:0:0:0:
248,192,41147,1,8,0:0:0:0:
248,192,41471,1,4,0:0:0:0:
248,192,41634,1,0,0:0:0:0:
248,192,41796,1,8,0:0:0:0:
248,192,42120,1,8,0:0:0:0:
248,192,42282,1,0,0:0:0:0:
248,192,42444,1,8,0:0:0:0:
248,192,42607,1,0,0:0:0:0:
248,192,42769,1,8,0:0:0:0:
248,192,43093,1,8,0:0:0:0:
248,192,43255,1,0,0:0:0:0:
240,196,43416,1,8,0:0:0:0:
248,192,43579,1,0,0:0:0:0:
240,192,43660,1,0,0:0:0:0:
248,192,43742,1,8,0:0:0:0:
248,192,44065,1,0,0:0:0:0:
248,192,44227,1,0,0:0:0:0:
248,192,44389,1,8,0:0:0:0:
248,192,44551,1,8,0:0:0:0:
240,192,44633,1,8,0:0:0:0:
248,192,44714,1,0,0:0:0:0:
248,192,45038,1,8,0:0:0:0:
248,192,45362,1,0,0:0:0:0:
248,192,45524,1,0,0:0:0:0:
248,192,45687,1,8,0:0:0:0:
248,192,45849,1,8,0:0:0:0:
240,192,45930,1,8,0:0:0:0:
248,192,46011,1,0,0:0:0:0:
240,192,46173,1,0,0:0:0:0:
248,192,46335,1,8,0:0:0:0:
248,192,46660,1,8,0:0:0:0:
248,192,46822,1,0,0:0:0:0:
240,192,46903,1,0,0:0:0:0:
248,192,46984,1,0,0:0:0:0:
248,192,47146,1,0,0:0:0:0:
248,192,47308,1,8,0:0:0:0:
248,192,47470,1,0,0:0:0:0:
248,192,47633,1,8,0:0:0:0:
248,192,47957,1,8,0:0:0:0:
256,192,48119,1,8,0:0:0:0:
256,192,48281,1,0,0:0:0:0:
256,192,48443,1,0,0:0:0:0:
256,196,49254,1,4,0:0:0:0:
256,196,49416,1,0,0:0:0:0:
256,196,49579,1,8,0:0:0:0:
256,196,49903,1,0,0:0:0:0:
256,196,50065,1,0,0:0:0:0:
256,196,50227,1,8,0:0:0:0:
256,196,50389,1,0,0:0:0:0:
256,196,50714,1,0,0:0:0:0:
256,196,50876,1,8,0:0:0:0:
256,196,51038,1,0,0:0:0:0:
256,196,51119,1,0,0:0:0:0:
256,196,51200,1,0,0:0:0:0:
256,196,51362,1,0,0:0:0:0:
256,196,51443,1,0,0:0:0:0:
256,196,51524,1,8,0:0:0:0:
256,196,51687,1,0,0:0:0:0:
240,192,51849,1,0,0:0:0:0:
256,196,52011,1,0,0:0:0:0:
256,196,52173,1,8,0:0:0:0:
256,196,52497,1,0,0:0:0:0:
256,196,52660,1,0,0:0:0:0:
256,196,52822,1,8,0:0:0:0:
256,196,52984,1,0,0:0:0:0:
272,196,53308,1,0,0:0:0:0:
268,192,53470,1,8,0:0:0:0:
268,192,53633,1,0,0:0:0:0:
256,196,53714,1,0,0:0:0:0:
268,192,53795,1,0,0:0:0:0:
272,192,53876,1,0,0:0:0:0:
268,192,53957,1,8,0:0:0:0:
256,196,54038,1,8,0:0:0:0:
272,196,54119,1,0,0:0:0:0:
272,196,54281,1,8,0:0:0:0:
272,192,54443,1,0,0:0:0:0:
268,192,54606,1,0,0:0:0:0:
268,192,54768,1,8,0:0:0:0:
272,196,55092,1,0,0:0:0:0:
272,196,55254,1,0,0:0:0:0:
268,192,55416,1,8,0:0:0:0:
268,192,55579,1,0,0:0:0:0:
272,184,55903,1,0,0:0:0:0:
268,184,56065,1,8,0:0:0:0:
268,184,56227,1,0,0:0:0:0:
256,200,56308,1,0,0:0:0:0:
268,184,56389,1,8,0:0:0:0:
272,192,56470,1,8,0:0:0:0:
268,184,56551,1,8,0:0:0:0:
256,196,56633,1,8,0:0:0:0:
272,184,56714,1,0,0:0:0:0:
272,184,56876,1,8,0:0:0:0:
268,184,57038,1,0,0:0:0:0:
268,184,57200,1,0,0:0:0:0:
268,184,57362,1,8,0:0:0:0:
264,184,57687,1,0,0:0:0:0:
264,184,57849,1,0,0:0:0:0:
268,184,58011,1,8,0:0:0:0:
268,184,58173,1,0,0:0:0:0:
256,176,58254,1,0,0:0:0:0:
256,200,58335,1,8,0:0:0:0:
268,192,58497,1,0,0:0:0:0:
268,192,58660,1,8,0:0:0:0:
268,192,58822,1,0,0:0:0:0:
268,192,58984,1,8,0:0:0:0:
252,192,59065,1,8,0:0:0:0:
252,192,59146,1,0,0:0:0:0:
252,192,59227,1,0,0:0:0:0:
264,192,59308,1,8,0:0:0:0:
252,192,59470,1,8,0:0:0:0:
272,192,59551,1,8,0:0:0:0:
272,192,59633,1,0,0:0:0:0:
256,196,59795,1,0,0:0:0:0:
240,192,59876,1,0,0:0:0:0:
256,196,59958,1,8,0:0:0:0:
256,196,60282,1,0,0:0:0:0:
256,196,60444,1,0,0:0:0:0:
256,196,60606,1,8,0:0:0:0:
256,196,60768,1,0,0:0:0:0:
256,196,61093,1,0,0:0:0:0:
256,196,61255,1,8,0:0:0:0:
256,196,61417,1,0,0:0:0:0:
264,192,61497,1,0,0:0:0:0:
256,196,61579,1,0,0:0:0:0:
256,196,61741,1,0,0:0:0:0:
256,196,61822,1,0,0:0:0:0:
256,196,61903,1,8,0:0:0:0:
256,196,62066,1,0,0:0:0:0:
256,196,62390,1,0,0:0:0:0:
256,196,62552,1,8,0:0:0:0:
256,196,62876,1,0,0:0:0:0:
256,196,63039,1,0,0:0:0:0:
256,196,63201,1,8,0:0:0:0:
256,196,63363,1,0,0:0:0:0:
272,196,63687,1,0,0:0:0:0:
268,192,63849,1,8,0:0:0:0:
268,192,64012,1,0,0:0:0:0:
264,192,64092,1,0,0:0:0:0:
256,196,64173,1,8,0:0:0:0:
268,192,64336,1,8,0:0:0:0:
252,192,64416,1,8,0:0:0:0:
272,196,64498,1,0,0:0:0:0:
272,196,64660,1,8,0:0:0:0:
268,192,64985,1,0,0:0:0:0:
268,192,65147,1,8,0:0:0:0:
272,196,65471,1,0,0:0:0:0:
272,196,65633,1,0,0:0:0:0:
268,192,65795,1,8,0:0:0:0:
268,192,65958,1,0,0:0:0:0:
272,184,66282,1,0,0:0:0:0:
268,184,66444,1,8,0:0:0:0:
268,184,66606,1,0,0:0:0:0:
268,192,66687,1,0,0:0:0:0:
268,184,66768,1,8,0:0:0:0:
256,176,66849,1,8,0:0:0:0:
256,176,66930,1,8,0:0:0:0:
252,192,67011,1,8,0:0:0:0:
252,192,67092,1,0,0:0:0:0:
272,184,67255,1,8,0:0:0:0:
264,192,67579,1,0,0:0:0:0:
264,192,67741,1,8,0:0:0:0:
264,192,67903,1,0,0:0:0:0:
264,192,68065,1,8,0:0:0:0:
280,192,68389,1,8,0:0:0:0:
264,192,68551,1,0,0:0:0:0:
264,192,68714,1,8,0:0:0:0:
280,192,68876,1,0,0:0:0:0:
276,192,69038,1,8,0:0:0:0:
276,192,69200,1,0,0:0:0:0:
252,192,69281,1,0,0:0:0:0:
276,192,69362,1,8,0:0:0:0:
276,192,69443,1,8,0:0:0:0:
276,192,69524,1,0,0:0:0:0:
276,192,69606,1,0,0:0:0:0:
276,192,69687,1,8,0:0:0:0:
260,208,69768,1,8,0:0:0:0:
264,192,69849,1,0,0:0:0:0:
252,192,70011,1,4,0:0:0:0:
252,192,70173,1,0,0:0:0:0:
252,192,70335,1,8,0:0:0:0:
252,192,70497,1,0,0:0:0:0:
240,176,70578,1,0,0:0:0:0:
240,192,70659,1,0,0:0:0:0:
252,192,70821,1,0,0:0:0:0:
252,192,70984,1,8,0:0:0:0:
252,192,71146,1,0,0:0:0:0:
252,192,71470,1,0,0:0:0:0:
252,192,71632,1,8,0:0:0:0:
252,192,71794,1,0,0:0:0:0:
248,200,71876,1,0,0:0:0:0:
252,192,71957,1,0,0:0:0:0:
252,192,72119,1,0,0:0:0:0:
252,192,72281,1,8,0:0:0:0:
252,192,72605,1,0,0:0:0:0:
252,192,72767,1,0,0:0:0:0:
224,176,72849,1,0,0:0:0:0:
252,192,72930,1,8,0:0:0:0:
252,192,73092,1,0,0:0:0:0:
252,184,73416,1,0,0:0:0:0:
252,188,73578,1,8,0:0:0:0:
252,188,73740,1,0,0:0:0:0:
252,188,74065,1,0,0:0:0:0:
252,184,74227,1,8,0:0:0:0:
252,184,74389,1,8,0:0:0:0:
248,200,74470,1,8,0:0:0:0:
252,188,74551,1,0,0:0:0:0:
252,188,74713,1,0,0:0:0:0:
252,188,74876,1,8,0:0:0:0:
272,192,75200,1,0,0:0:0:0:
252,184,75362,1,0,0:0:0:0:
224,176,75443,1,0,0:0:0:0:
252,188,75524,1,8,0:0:0:0:
252,188,75686,1,0,0:0:0:0:
248,192,76011,1,0,0:0:0:0:
248,192,76173,1,8,0:0:0:0:
252,188,76335,1,0,0:0:0:0:
252,188,76659,1,0,0:0:0:0:
248,192,76821,1,8,0:0:0:0:
248,200,76984,1,0,0:0:0:0:
248,200,77065,1,0,0:0:0:0:
248,200,77146,1,0,0:0:0:0:
252,188,77308,1,0,0:0:0:0:
224,176,77389,1,0,0:0:0:0:
252,188,77470,1,8,0:0:0:0:
256,184,77794,1,8,0:0:0:0:
256,184,77957,1,0,0:0:0:0:
256,184,78119,1,8,0:0:0:0:
252,188,78281,1,0,0:0:0:0:
252,188,78443,1,8,0:0:0:0:
256,184,78605,1,0,0:0:0:0:
256,184,78767,1,8,0:0:0:0:
256,184,78930,1,0,0:0:0:0:
248,192,79011,1,0,0:0:0:0:
248,200,79092,1,8,0:0:0:0:
248,200,79173,1,8,0:0:0:0:
248,200,79254,1,0,0:0:0:0:
248,200,79416,1,0,0:0:0:0:
248,196,79578,1,8,0:0:0:0:
248,196,79659,1,8,0:0:0:0:
248,200,79740,1,0,0:0:0:0:
248,200,79903,1,0,0:0:0:0:
248,192,80065,1,8,0:0:0:0:
248,192,80227,1,8,0:0:0:0:
248,192,80389,1,4,0:0:0:0:
