osu file format v14

[General]
AudioFilename: audio.mp3
AudioLeadIn: 0
PreviewTime: 49254
Countdown: 0
SampleSet: Normal
StackLeniency: 0.9
Mode: 1
LetterboxInBreaks: 0
WidescreenStoryboard: 0

[Editor]
DistanceSpacing: 0.3
BeatDivisor: 2
GridSize: 4
TimelineZoom: 0.7999997

[Metadata]
Title:NO SCARED
TitleUnicode:NO SCARED
Artist:ONE OK ROCK
ArtistUnicode:ONE OK ROCK
Creator:Kith190
Version:Kantan
Source:Black Rock Shooter: THE GAME
Tags:supercell Zankyo Reference Taka Takahiro Moriuchi Morita Toru Yamashita akkin BRS Hitsu
BeatmapID:1311056
BeatmapSetID:621794

[Difficulty]
HPDrainRate:7
CircleSize:2
OverallDifficulty:3
ApproachRate:5
SliderMultiplier:1.4
SliderTickRate:1

[Events]
//Background and Video events
0,0,"Konachan.com - 229226 sample.jpg",0,30
//Break Periods
//Storyboard Layer 0 (Background)
//Storyboard Layer 1 (Fail)
//Storyboard Layer 2 (Pass)
//Storyboard Layer 3 (Foreground)
//Storyboard Sound Samples

[TimingPoints]
2552,324.324324324324,4,1,1,75,1,0
2552,-111.111111111111,4,1,1,75,0,0
49254,-111.111111111111,4,1,1,75,0,1
70011,-111.111111111111,4,1,1,75,0,0

[HitObjects]
132,204,2552,5,0,0:0:0:0:
256,192,5146,1,0,0:0:0:0:
256,196,7741,1,4,0:0:0:0:
256,192,9038,1,0,0:0:0:0:
256,192,10335,1,0,0:0:0:0:
256,192,10984,1,8,0:0:0:0:
256,192,11633,1,0,0:0:0:0:
256,192,12930,1,0,0:0:0:0:
256,192,14227,1,0,0:0:0:0:
256,192,15524,1,8,0:0:0:0:
256,192,15849,1,8,0:0:0:0:
256,192,16173,1,8,0:0:0:0:
264,196,16822,2,0,P|416:200|444:200,2,125.999996154785
264,192,18119,1,4,0:0:0:0:
264,192,19416,1,0,0:0:0:0:
240,192,20714,1,0,0:0:0:0:
244,200,21362,1,8,0:0:0:0:
240,192,22011,1,0,0:0:0:0:
240,192,23308,1,0,0:0:0:0:
240,192,24606,1,0,0:0:0:0:
240,192,25903,1,8,0:0:0:0:
260,188,26551,1,0,0:0:0:0:
256,192,27200,12,0,28173,0:0:0:0:
240,192,28497,5,0,0:0:0:0:
244,200,29146,1,0,0:0:0:0:
244,200,29795,1,8,0:0:0:0:
256,188,31092,1,0,0:0:0:0:
240,208,31741,1,0,0:0:0:0:
240,216,32389,1,8,0:0:0:0:
240,208,33687,1,0,0:0:0:0:
240,208,34984,1,8,0:0:0:0:
260,196,36281,1,8,0:0:0:0:
260,196,36930,1,8,0:0:0:0:
260,196,37579,1,0,0:0:0:0:
256,196,38876,1,0,0:0:0:0:
256,196,39524,1,8,0:0:0:0:
256,196,40173,1,8,0:0:0:0:
256,196,41470,1,0,0:0:0:0:
256,196,42119,1,8,0:0:0:0:
256,196,42768,1,8,0:0:0:0:
256,196,44065,1,0,0:0:0:0:
256,196,45362,1,0,0:0:0:0:
256,196,46660,1,8,0:0:0:0:
256,196,47308,1,8,0:0:0:0:
256,196,47957,1,0,0:0:0:0:
256,192,49254,1,4,0:0:0:0:
252,184,49903,1,0,0:0:0:0:
252,184,50551,1,8,0:0:0:0:
252,184,50876,1,8,0:0:0:0:
252,184,51200,1,8,0:0:0:0:
252,184,52497,1,0,0:0:0:0:
252,184,53146,1,8,0:0:0:0:
252,184,53470,1,0,0:0:0:0:
252,184,53795,1,8,0:0:0:0:
252,184,55092,1,0,0:0:0:0:
252,184,55741,1,8,0:0:0:0:
252,184,56065,1,0,0:0:0:0:
252,184,56389,1,8,0:0:0:0:
252,184,57687,1,8,0:0:0:0:
256,196,58335,1,8,0:0:0:0:
256,196,58984,1,8,0:0:0:0:
256,196,59308,1,8,0:0:0:0:
256,196,59633,1,0,0:0:0:0:
256,196,60930,1,8,0:0:0:0:
256,196,61254,1,0,0:0:0:0:
256,196,61579,1,8,0:0:0:0:
252,200,62876,1,0,0:0:0:0:
252,200,63524,1,8,0:0:0:0:
252,200,63849,1,0,0:0:0:0:
252,200,64173,1,8,0:0:0:0:
252,200,65470,1,0,0:0:0:0:
252,200,66119,1,8,0:0:0:0:
252,200,66443,1,0,0:0:0:0:
252,200,66768,1,8,0:0:0:0:
252,200,68065,1,8,0:0:0:0:
252,200,68714,1,0,0:0:0:0:
252,200,69362,1,8,0:0:0:0:
252,200,69687,1,8,0:0:0:0:
256,196,70011,1,4,0:0:0:0:
256,192,71308,1,0,0:0:0:0:
256,192,72605,1,0,0:0:0:0:
256,192,73254,1,8,0:0:0:0:
256,192,73903,1,0,0:0:0:0:
256,192,75200,1,0,0:0:0:0:
256,192,76497,1,0,0:0:0:0:
256,192,77794,1,8,0:0:0:0:
256,192,78443,1,8,0:0:0:0:
256,192,79092,12,0,80065,0:0:0:0:
264,192,80389,1,4,0:0:0:0:
