osu file format v14

[General]
AudioFilename: audio.mp3
AudioLeadIn: 0
PreviewTime: 49254
Countdown: 0
SampleSet: Normal
StackLeniency: 0.9
Mode: 1
LetterboxInBreaks: 0
WidescreenStoryboard: 0

[Editor]
DistanceSpacing: 0.3
BeatDivisor: 2
GridSize: 4
TimelineZoom: 1.1

[Metadata]
Title:NO SCARED
TitleUnicode:NO SCARED
Artist:ONE OK ROCK
ArtistUnicode:ONE OK ROCK
Creator:Kith190
Version:Futsuu
Source:Black Rock Shooter: THE GAME
Tags:supercell Zankyo Reference Taka Takahiro Moriuchi Morita Toru Yamashita akkin BRS Hitsu
BeatmapID:1311055
BeatmapSetID:621794

[Difficulty]
HPDrainRate:6
CircleSize:5
OverallDifficulty:4
ApproachRate:5
SliderMultiplier:1.4
SliderTickRate:1

[Events]
//Background and Video events
0,0,"Konachan.com - 229226 sample.jpg",0,30
//Break Periods
//Storyboard Layer 0 (Background)
//Storyboard Layer 1 (Fail)
//Storyboard Layer 2 (Pass)
//Storyboard Layer 3 (Foreground)
//Storyboard Sound Samples

[TimingPoints]
2552,324.324324324324,4,1,1,75,1,0
2552,-111.111111111111,4,1,1,75,0,0
49254,-111.111111111111,4,1,1,75,0,1
70011,-111.111111111111,4,1,1,75,0,0

[HitObjects]
256,196,2552,5,0,0:0:0:0:
256,196,3524,1,0,0:0:0:0:
256,196,5146,1,0,0:0:0:0:
256,196,6119,1,0,0:0:0:0:
256,196,7416,1,8,0:0:0:0:
256,196,7741,1,4,0:0:0:0:
264,188,8714,1,8,0:0:0:0:
260,192,9038,1,0,0:0:0:0:
264,188,9687,1,8,0:0:0:0:
260,192,10011,1,8,0:0:0:0:
264,188,10335,1,0,0:0:0:0:
264,188,11308,1,8,0:0:0:0:
260,192,11633,1,0,0:0:0:0:
276,188,12281,1,0,0:0:0:0:
260,192,12606,1,8,0:0:0:0:
264,188,12768,1,8,0:0:0:0:
264,188,12930,1,0,0:0:0:0:
264,188,13903,1,8,0:0:0:0:
260,192,14227,1,0,0:0:0:0:
260,192,15200,1,0,0:0:0:0:
260,192,15524,1,8,0:0:0:0:
260,192,16173,1,8,0:0:0:0:
264,188,16497,1,8,0:0:0:0:
256,184,16822,2,0,L|408:188,2,125.999996154785
260,176,17795,1,8,0:0:0:0:
264,188,18119,1,0,0:0:0:0:
264,188,19092,1,8,0:0:0:0:
260,192,19416,1,0,0:0:0:0:
272,192,20065,1,8,0:0:0:0:
260,192,20389,1,8,0:0:0:0:
264,188,20713,1,0,0:0:0:0:
264,188,21687,1,8,0:0:0:0:
272,192,21849,1,8,0:0:0:0:
264,188,22011,1,0,0:0:0:0:
264,188,22335,1,8,0:0:0:0:
264,188,22984,1,8,0:0:0:0:
264,188,23308,1,0,0:0:0:0:
264,188,23632,1,8,0:0:0:0:
264,188,24281,1,8,0:0:0:0:
260,192,24605,1,0,0:0:0:0:
264,188,24929,1,8,0:0:0:0:
260,192,25579,1,0,0:0:0:0:
260,192,25903,1,8,0:0:0:0:
260,192,26390,1,8,0:0:0:0:
264,188,26876,1,8,0:0:0:0:
256,192,27200,12,0,27849,0:0:0:0:
260,176,28174,5,8,0:0:0:0:
264,188,28498,1,4,0:0:0:0:
248,192,29146,1,8,0:0:0:0:
264,188,29795,1,0,0:0:0:0:
264,188,30443,1,8,0:0:0:0:
264,188,30768,1,8,0:0:0:0:
248,200,31416,1,0,0:0:0:0:
264,188,31741,1,8,0:0:0:0:
264,188,32389,1,8,0:0:0:0:
268,200,33038,1,8,0:0:0:0:
264,188,33362,1,8,0:0:0:0:
264,188,33687,1,0,0:0:0:0:
256,184,34984,1,0,0:0:0:0:
256,184,36281,1,8,0:0:0:0:
256,184,36930,1,8,0:0:0:0:
256,184,37254,1,8,0:0:0:0:
256,184,37579,1,0,0:0:0:0:
264,180,38876,1,4,0:0:0:0:
264,180,39524,1,8,0:0:0:0:
264,180,40173,1,8,0:0:0:0:
264,180,40497,1,8,0:0:0:0:
264,180,40822,1,0,0:0:0:0:
264,180,41146,1,8,0:0:0:0:
264,188,41795,1,0,0:0:0:0:
264,188,42119,1,8,0:0:0:0:
264,188,42768,1,8,0:0:0:0:
264,188,43092,1,8,0:0:0:0:
264,188,43416,1,0,0:0:0:0:
264,188,43741,1,8,0:0:0:0:
264,188,44389,1,8,0:0:0:0:
264,188,44714,1,8,0:0:0:0:
264,188,45362,1,0,0:0:0:0:
264,188,45687,1,0,0:0:0:0:
264,188,46011,1,8,0:0:0:0:
264,188,46660,1,0,0:0:0:0:
456,308,46822,1,0,0:0:0:0:
264,188,46984,1,0,0:0:0:0:
264,188,47308,1,8,0:0:0:0:
264,188,47957,1,8,0:0:0:0:
264,188,48443,1,8,0:0:0:0:
264,176,49254,1,4,0:0:0:0:
260,180,49903,1,0,0:0:0:0:
260,180,50551,1,8,0:0:0:0:
260,180,50876,1,0,0:0:0:0:
260,180,51200,1,8,0:0:0:0:
260,180,51524,1,8,0:0:0:0:
256,172,51687,1,8,0:0:0:0:
264,176,51849,1,0,0:0:0:0:
260,180,52498,1,0,0:0:0:0:
260,180,53146,1,8,0:0:0:0:
260,180,53471,1,0,0:0:0:0:
260,180,53795,1,8,0:0:0:0:
260,180,54119,1,8,0:0:0:0:
256,172,54281,1,8,0:0:0:0:
260,180,54444,1,0,0:0:0:0:
256,184,55092,1,0,0:0:0:0:
256,184,55741,1,0,0:0:0:0:
256,184,56065,1,0,0:0:0:0:
256,184,56389,1,8,0:0:0:0:
256,184,56714,1,0,0:0:0:0:
256,172,56876,1,0,0:0:0:0:
248,180,57362,1,8,0:0:0:0:
256,184,57687,1,0,0:0:0:0:
256,184,58660,1,0,0:0:0:0:
256,184,58984,1,8,0:0:0:0:
260,180,59308,1,8,0:0:0:0:
264,176,59633,1,4,0:0:0:0:
260,180,60282,1,0,0:0:0:0:
260,180,60930,1,8,0:0:0:0:
260,180,61255,1,0,0:0:0:0:
260,180,61579,1,8,0:0:0:0:
260,180,61903,1,8,0:0:0:0:
256,172,62065,1,8,0:0:0:0:
260,180,62228,1,0,0:0:0:0:
256,184,62876,1,0,0:0:0:0:
256,184,63525,1,8,0:0:0:0:
256,184,63849,1,0,0:0:0:0:
256,184,64174,1,8,0:0:0:0:
256,184,64498,1,8,0:0:0:0:
256,172,64660,1,8,0:0:0:0:
264,176,64822,1,0,0:0:0:0:
260,180,65471,1,0,0:0:0:0:
260,180,66119,1,8,0:0:0:0:
256,172,66443,1,0,0:0:0:0:
260,180,66768,1,8,0:0:0:0:
260,180,67092,1,8,0:0:0:0:
260,180,67416,1,0,0:0:0:0:
256,184,68065,1,0,0:0:0:0:
256,184,68714,1,8,0:0:0:0:
256,184,69038,1,0,0:0:0:0:
256,184,69363,1,8,0:0:0:0:
256,184,69687,1,8,0:0:0:0:
256,196,70011,1,4,0:0:0:0:
264,188,70984,1,8,0:0:0:0:
260,192,71308,1,0,0:0:0:0:
264,188,71957,1,8,0:0:0:0:
260,192,72281,1,8,0:0:0:0:
264,188,72605,1,0,0:0:0:0:
264,188,73578,1,8,0:0:0:0:
260,192,73903,1,0,0:0:0:0:
256,188,74551,1,0,0:0:0:0:
260,192,74876,1,8,0:0:0:0:
264,188,75038,1,8,0:0:0:0:
264,188,75200,1,0,0:0:0:0:
264,188,75524,1,8,0:0:0:0:
264,188,76173,1,8,0:0:0:0:
260,192,76497,1,0,0:0:0:0:
256,192,76821,1,8,0:0:0:0:
260,192,77470,1,0,0:0:0:0:
260,192,77794,1,8,0:0:0:0:
260,192,78281,1,8,0:0:0:0:
264,188,78767,1,8,0:0:0:0:
256,192,79092,12,0,79741,0:0:0:0:
264,188,80065,5,8,0:0:0:0:
264,188,80389,1,4,0:0:0:0:
