osu file format v14

[General]
AudioFilename: audio.mp3
AudioLeadIn: 0
PreviewTime: 161122
Countdown: 0
SampleSet: Soft
StackLeniency: 0.6
Mode: 0
LetterboxInBreaks: 0
EpilepsyWarning: 1
WidescreenStoryboard: 1

[Editor]
Bookmarks: 584,5507,10430,20276,30122,39968,46122,47199,57045,67045,76891,86737,96584,102737,103814,113660,123660,133353,144584,154122,154430,161660,171507,182737,192584,198891
DistanceSpacing: 1.8
BeatDivisor: 4
GridSize: 8
TimelineZoom: 2.899999

[Metadata]
Title:Mikansei Koukyoukyoku
TitleUnicode:未完成交響曲
Artist:ONE OK ROCK
ArtistUnicode:ONE OK ROCK
Creator:TheSea
Version:Unfinished Symphony
Source:
Tags:Nicheシンドローム Niche Syndrome Japanese Jp JRock J-Rock Rock OOR Taka Toru Ryota Tomoya Pepekcz Akareh
BeatmapID:2556965
BeatmapSetID:1229815

[Difficulty]
HPDrainRate:6
CircleSize:4.2
OverallDifficulty:9
ApproachRate:9.4
SliderMultiplier:1.8
SliderTickRate:1

[Events]
//Background and Video events
0,0,"Bg.jpg",0,0
//Break Periods
2,40168,45582
2,96784,102197
2,144784,153582
//Storyboard Layer 0 (Background)
//Storyboard Layer 1 (Fail)
//Storyboard Layer 2 (Pass)
//Storyboard Layer 3 (Foreground)
Sprite,Foreground,Centre,"sb\circle.png",305,77 C,0,9354,,0,255,255 F,2,9354,9754,0.4,0 S,2,9354,9754,1,0.2 P,0,9354,9754,A
Sprite,Foreground,Centre,"sb\circle.png",336,70 C,0,9430,,0,255,255 F,2,9430,9830,0.4,0 S,2,9430,9830,1,0.2 P,0,9430,9830,A
Sprite,Foreground,Centre,"sb\circle.png",369,69 C,0,9508,,0,255,255 F,2,9508,9908,0.4,0 S,2,9508,9908,1,0.2 P,0,9508,9908,A
Sprite,Foreground,Centre,"sb\circle.png",402,76 C,0,9584,,0,255,255 F,2,9584,9984,0.4,0 S,2,9584,9984,1,0.2 P,0,9584,9984,A
Sprite,Foreground,Centre,"sb\circle.png",431,90 C,0,9661,,0,255,255 F,2,9661,10061,0.4,0 S,2,9661,10061,1,0.2 P,0,9661,10061,A
Sprite,Foreground,Centre,"sb\circle.png",457,111 C,0,9738,,0,255,255 F,2,9738,10138,0.4,0 S,2,9738,10138,1,0.2 P,0,9738,10138,A
Sprite,Foreground,Centre,"sb\circle.png",473,145 C,0,9815,,0,255,255 F,2,9815,10215,0.4,0 S,2,9815,10215,1,0.2 P,0,9815,10215,A
Sprite,Foreground,Centre,"sb\circle.png",466,188 C,0,9891,,0,255,255 F,2,9891,10291,0.4,0 S,2,9891,10291,1,0.2 P,0,9891,10291,A
Sprite,Foreground,Centre,"sb\circle.png",458,229 C,0,9969,,0,255,255 F,2,9969,10369,0.4,0 S,2,9969,10369,1,0.2 P,0,9969,10369,A
Sprite,Foreground,Centre,"sb\circle.png",451,271 C,0,10046,,0,255,255 F,2,10046,10446,0.4,0 S,2,10046,10446,1,0.2 P,0,10046,10446,A
Sprite,Foreground,Centre,"sb\circle.png",444,313 C,0,10123,,0,255,255 F,2,10123,10523,0.4,0 S,2,10123,10523,1,0.2 P,0,10123,10523,A
Sprite,Foreground,Centre,"sb\circle.png",436,355 C,0,10199,,0,255,255 F,2,10199,10599,0.4,0 S,2,10199,10599,1,0.2 P,0,10199,10599,A
Sprite,Foreground,Centre,"sb\circle.png",0,0 C,0,10277,,0,255,255 M,0,10277,10315,428,397,405.9015,392.7684 F,2,10277,10753,0.4,0 S,2,10277,10753,1,0.2 P,0,10277,10753,A M,0,10315,10353,405.9015,392.7684,383.803,388.5367
Sprite,Foreground,Centre,"sb\circle.png",224,168 C,0,46123,,0,128,255 F,2,46123,46523,0.4,0 S,2,46123,46523,1,0.2 P,0,46123,46523,A
Sprite,Foreground,Centre,"sb\circle.png",190,159 C,0,46200,,0,128,255 F,2,46200,46600,0.4,0 S,2,46200,46600,1,0.2 P,0,46200,46600,A
Sprite,Foreground,Centre,"sb\circle.png",155,165 C,0,46277,,0,128,255 F,2,46277,46677,0.4,0 S,2,46277,46677,1,0.2 P,0,46277,46677,A
Sprite,Foreground,Centre,"sb\circle.png",126,186 C,0,46354,,0,128,255 F,2,46354,46754,0.4,0 S,2,46354,46754,1,0.2 P,0,46354,46754,A
Sprite,Foreground,Centre,"sb\circle.png",0,0 C,0,46431,,0,128,255 M,0,46431,46469,108,216,112.0249,238.1371 F,2,46431,46907,0.4,0 S,2,46431,46907,1,0.2 P,0,46431,46907,A M,0,46469,46507,112.0249,238.1371,116,260
Sprite,Foreground,Centre,"sb\circle.png",0,0 C,0,46584,,0,128,255 M,0,46584,46622,191,365,194.9382,342.8474 F,2,46584,47060,0.4,0 S,2,46584,47060,1,0.2 P,0,46584,47060,A M,0,46622,46660,194.9382,342.8474,198.8765,320.6947
Sprite,Foreground,Centre,"sb\circle.png",525,350 C,0,66431,,0,128,255 F,2,66431,66831,0.4,0 S,2,66431,66831,1,0.2 P,0,66431,66831,A
Sprite,Foreground,Centre,"sb\circle.png",529,316 C,0,66508,,0,128,255 F,2,66508,66908,0.4,0 S,2,66508,66908,1,0.2 P,0,66508,66908,A
Sprite,Foreground,Centre,"sb\circle.png",535,285 C,0,66584,,0,128,255 F,2,66584,66984,0.4,0 S,2,66584,66984,1,0.2 P,0,66584,66984,A
Sprite,Foreground,Centre,"sb\circle.png",539,256 C,0,66661,,0,128,255 F,2,66661,67061,0.4,0 S,2,66661,67061,1,0.2 P,0,66661,67061,A
Sprite,Foreground,Centre,"sb\circle.png",561,226 C,0,66738,,0,128,255 F,2,66738,67138,0.4,0 S,2,66738,67138,1,0.2 P,0,66738,67138,A
Sprite,Foreground,Centre,"sb\circle.png",554,184 C,0,66815,,0,128,255 F,2,66815,67215,0.4,0 S,2,66815,67215,1,0.2 P,0,66815,67215,A
Sprite,Foreground,Centre,"sb\circle.png",546,144 C,0,66892,,0,128,255 F,2,66892,67292,0.4,0 S,2,66892,67292,1,0.2 P,0,66892,67292,A
Sprite,Foreground,Centre,"sb\circle.png",539,102 C,0,66969,,0,128,255 F,2,66969,67369,0.4,0 S,2,66969,67369,1,0.2 P,0,66969,67369,A
Sprite,Foreground,Centre,"sb\circle.png",513,129 C,0,102738,,255,255,0 F,2,102738,103138,0.4,0 S,2,102738,103138,1,0.2 P,0,102738,103138,A
Sprite,Foreground,Centre,"sb\circle.png",507,165 C,0,102815,,255,255,0 F,2,102815,103215,0.4,0 S,2,102815,103215,1,0.2 P,0,102815,103215,A
Sprite,Foreground,Centre,"sb\circle.png",501,200 C,0,102892,,255,255,0 F,2,102892,103292,0.4,0 S,2,102892,103292,1,0.2 P,0,102892,103292,A
Sprite,Foreground,Centre,"sb\circle.png",495,236 C,0,102969,,255,255,0 F,2,102969,103369,0.4,0 S,2,102969,103369,1,0.2 P,0,102969,103369,A
Sprite,Foreground,Centre,"sb\circle.png",0,0 C,0,103046,,255,255,0 M,0,103046,103084,488,271,465.8629,266.9751 F,2,103046,103522,0.4,0 S,2,103046,103522,1,0.2 P,0,103046,103522,A M,0,103084,103122,465.8629,266.9751,444,263
Sprite,Foreground,Centre,"sb\circle2.png",0,0 C,0,126123,,0,255,255 M,0,126123,126161,433,377,437.6385,358.446 F,2,126123,126676,0.4,0 S,2,126123,126676,0.3,0.06 P,0,126123,126676,A M,0,126161,126199,437.6385,358.446,441.6824,339.903 M,0,126199,126238,441.6824,339.903,436.3646,321.5322 M,0,126238,126276,436.3646,321.5322,431.0467,303.1614
Sprite,Foreground,Centre,"sb\circle2.png",0,0 C,0,126431,,0,255,255 M,0,126431,126469,536,161,531.3615,179.554 F,2,126431,126984,0.4,0 S,2,126431,126984,0.3,0.06 P,0,126431,126984,A M,0,126469,126507,531.3615,179.554,527.3176,198.097 M,0,126507,126546,527.3176,198.097,532.6354,216.4678 M,0,126546,126584,532.6354,216.4678,537.9532,234.8386
Sprite,Foreground,Centre,"sb\circle2.png",445,84 C,0,126738,,0,255,255 F,2,126738,127138,0.4,0 S,2,126738,127138,0.3,0.06 P,0,126738,127138,A
Sprite,Foreground,Centre,"sb\circle2.png",370,218 C,0,126892,,0,255,255 F,2,126892,127292,0.4,0 S,2,126892,127292,0.3,0.06 P,0,126892,127292,A
Sprite,Foreground,Centre,"sb\circle2.png",0,0 C,0,127046,,0,255,255 M,0,127046,127084,306,59,287.156,62.2663 F,2,127046,127599,0.4,0 S,2,127046,127599,0.3,0.06 P,0,127046,127599,A M,0,127084,127122,287.156,62.2663,268.312,65.53259 M,0,127122,127161,268.312,65.53259,249.468,68.79889 M,0,127161,127199,249.468,68.79889,231,72
Sprite,Foreground,Centre,"sb\circle2.png",91,168 C,0,127354,,0,64,128 F,2,127354,127754,0.4,0 S,2,127354,127754,0.3,0.06 P,0,127354,127754,A
Sprite,Foreground,Centre,"sb\circle2.png",251,174 C,0,127508,,0,64,128 F,2,127508,127908,0.4,0 S,2,127508,127908,0.3,0.06 P,0,127508,127908,A
Sprite,Foreground,Centre,"sb\circle2.png",0,0 C,0,127661,,0,64,128 M,0,127661,127699,101,269,95.22055,287.1696 F,2,127661,128214,0.4,0 S,2,127661,128214,0.3,0.06 P,0,127661,128214,A M,0,127699,127737,95.22055,287.1696,93.28139,306.1136 M,0,127737,127776,93.28139,306.1136,95.25632,325.0372 M,0,127776,127814,95.25632,325.0372,100.7241,343.2964
Sprite,Foreground,Centre,"sb\circle2.png",250,440 C,0,127969,,0,64,128 F,2,127969,128369,0.4,0 S,2,127969,128369,0.3,0.06 P,0,127969,128369,A
Sprite,Foreground,Centre,"sb\circle2.png",181,307 C,0,128123,,0,64,128 F,2,128123,128523,0.4,0 S,2,128123,128523,0.3,0.06 P,0,128123,128523,A
Sprite,Foreground,Centre,"sb\circle2.png",0,0 C,0,128277,,0,64,128 M,0,128277,128315,347,402,365.844,398.7337 F,2,128277,128830,0.4,0 S,2,128277,128830,0.3,0.06 P,0,128277,128830,A M,0,128315,128353,365.844,398.7337,384.688,395.4674 M,0,128353,128392,384.688,395.4674,403.532,392.2011 M,0,128392,128430,403.532,392.2011,422,389
Sprite,Foreground,Centre,"sb\circle2.png",0,0 C,0,131046,,0,64,128 M,0,131046,131084,151,434,169.554,438.6385 F,2,131046,131599,0.4,0 S,2,131046,131599,0.3,0.06 P,0,131046,131599,A M,0,131084,131122,169.554,438.6385,188.097,442.6824 M,0,131122,131161,188.097,442.6824,206.4678,437.3646 M,0,131161,131199,206.4678,437.3646,224.8386,432.0467
Sprite,Foreground,Centre,"sb\circle2.png",0,0 C,0,131354,,0,64,128 M,0,131354,131392,422,388,403.446,392.6385 F,2,131354,131907,0.4,0 S,2,131354,131907,0.3,0.06 P,0,131354,131907,A M,0,131392,131430,403.446,392.6385,384.903,396.6824 M,0,131430,131469,384.903,396.6824,366.5322,391.3646 M,0,131469,131507,366.5322,391.3646,348.1614,386.0467
Sprite,Foreground,Centre,"sb\circle2.png",498,281 C,0,131661,,0,64,128 F,2,131661,132061,0.4,0 S,2,131661,132061,0.3,0.06 P,0,131661,132061,A
Sprite,Foreground,Centre,"sb\circle2.png",508,439 C,0,131815,,0,64,128 F,2,131815,132215,0.4,0 S,2,131815,132215,0.3,0.06 P,0,131815,132215,A
Sprite,Foreground,Centre,"sb\circle2.png",0,0 C,0,131969,,0,64,128 M,0,131969,132007,411,273,414.2663,254.156 F,2,131969,132522,0.4,0 S,2,131969,132522,0.3,0.06 P,0,131969,132522,A M,0,132007,132045,414.2663,254.156,417.5326,235.312 M,0,132045,132084,417.5326,235.312,420.7989,216.468 M,0,132084,132122,420.7989,216.468,424,198
Sprite,Foreground,Centre,"sb\circle2.png",554,62 C,0,132277,,0,128,255 F,2,132277,132677,0.4,0 S,2,132277,132677,0.3,0.06 P,0,132277,132677,A
Sprite,Foreground,Centre,"sb\circle2.png",508,238 C,0,132431,,0,128,255 F,2,132431,132831,0.4,0 S,2,132431,132831,0.3,0.06 P,0,132431,132831,A
Sprite,Foreground,Centre,"sb\circle2.png",373,79 C,0,132584,,0,128,255 F,2,132584,132984,0.4,0 S,2,132584,132984,0.3,0.06 P,0,132584,132984,A
Sprite,Foreground,Centre,"sb\circle2.png",566,162 C,0,132738,,255,255,0 F,2,132738,133138,0.4,0 S,2,132738,133138,0.3,0.06 P,0,132738,133138,A
Sprite,Foreground,Centre,"sb\circle2.png",335,190 C,0,132892,,255,255,0 F,2,132892,133292,0.4,0 S,2,132892,133292,0.3,0.06 P,0,132892,133292,A
Sprite,Foreground,Centre,"sb\circle2.png",551,267 C,0,133046,,255,255,0 F,2,133046,133446,0.4,0 S,2,133046,133446,0.3,0.06 P,0,133046,133446,A
Sprite,Foreground,Centre,"sb\circle2.png",458,56 C,0,133200,,255,255,0 F,2,133200,133600,0.4,0 S,2,133200,133600,0.3,0.06 P,0,133200,133600,A
Sprite,Foreground,Centre,"sb\circle2.png",170,426 C,0,160584,,255,255,0 F,2,160584,160984,0.4,0 S,2,160584,160984,0.3,0.06 P,0,160584,160984,A
Sprite,Foreground,Centre,"sb\circle2.png",170,426 C,0,160661,,255,255,0 F,2,160661,161061,0.4,0 S,2,160661,161061,0.3,0.06 P,0,160661,161061,A
Sprite,Foreground,Centre,"sb\circle2.png",0,0 C,0,160738,,255,255,0 M,0,160738,160776,170,426,174.0098,400.4376 F,2,160738,161214,0.4,0 S,2,160738,161214,0.3,0.06 P,0,160738,161214,A M,0,160776,160814,174.0098,400.4376,178,375
Sprite,Foreground,Centre,"sb\circle2.png",231,206 C,0,160892,,0,255,255 F,2,160892,161292,0.4,0 S,2,160892,161292,0.3,0.06 P,0,160892,161292,A
Sprite,Foreground,Centre,"sb\circle2.png",282,396 C,0,161046,,0,255,255 F,2,161046,161446,0.4,0 S,2,161046,161446,0.3,0.06 P,0,161046,161446,A
Sprite,Foreground,Centre,"sb\circle2.png",128,221 C,0,161200,,0,255,255 F,2,161200,161600,0.4,0 S,2,161200,161600,0.3,0.06 P,0,161200,161600,A
Sprite,Foreground,Centre,"sb\circle2.png",312,287 C,0,161354,,0,255,255 F,2,161354,161754,0.4,0 S,2,161354,161754,0.3,0.06 P,0,161354,161754,A
Sprite,Foreground,Centre,"sb\circle.png",170,426 C,0,160584,,255,255,0 F,2,160584,160984,0.4,0 S,2,160584,160984,2,0.4 P,0,160584,160984,A
Sprite,Foreground,Centre,"sb\circle.png",170,426 C,0,160661,,255,255,0 F,2,160661,161061,0.4,0 S,2,160661,161061,2,0.4 P,0,160661,161061,A
Sprite,Foreground,Centre,"sb\circle.png",0,0 C,0,160738,,255,255,0 M,0,160738,160776,170,426,174.0098,400.4376 F,2,160738,161214,0.4,0 S,2,160738,161214,2,0.4 P,0,160738,161214,A M,0,160776,160814,174.0098,400.4376,178,375
Sprite,Foreground,Centre,"sb\circle.png",231,206 C,0,160892,,0,255,255 F,2,160892,161292,0.4,0 S,2,160892,161292,2,0.4 P,0,160892,161292,A
Sprite,Foreground,Centre,"sb\circle.png",282,396 C,0,161046,,0,255,255 F,2,161046,161446,0.4,0 S,2,161046,161446,2,0.4 P,0,161046,161446,A
Sprite,Foreground,Centre,"sb\circle.png",128,221 C,0,161200,,0,255,255 F,2,161200,161600,0.4,0 S,2,161200,161600,2,0.4 P,0,161200,161600,A
Sprite,Foreground,Centre,"sb\circle.png",312,287 C,0,161354,,0,255,255 F,2,161354,161754,0.4,0 S,2,161354,161754,2,0.4 P,0,161354,161754,A
Sprite,Foreground,Centre,"sb\circle.png",318,434 C,0,170892,,0,255,255 F,2,170892,171292,0.4,0 S,2,170892,171292,1,0.2 P,0,170892,171292,A
Sprite,Foreground,Centre,"sb\circle.png",318,434 C,0,170969,,0,255,255 F,2,170969,171369,0.4,0 S,2,170969,171369,1,0.2 P,0,170969,171369,A
Sprite,Foreground,Centre,"sb\circle.png",318,434 C,0,171046,,0,64,128 F,2,171046,171446,0.4,0 S,2,171046,171446,1,0.2 P,0,171046,171446,A
Sprite,Foreground,Centre,"sb\circle.png",392,151 C,0,171200,,0,64,128 F,2,171200,171600,0.4,0 S,2,171200,171600,1,0.2 P,0,171200,171600,A
Sprite,Foreground,Centre,"sb\circle.png",545,400 C,0,171354,,0,64,128 F,2,171354,171754,0.4,0 S,2,171354,171754,1,0.2 P,0,171354,171754,A
Sprite,Foreground,Centre,"sb\circle.png",320,81 C,0,181508,,0,128,255 F,2,181508,181908,0.4,0 S,2,181508,181908,1,0.2 P,0,181508,181908,A
Sprite,Foreground,Centre,"sb\circle.png",282,88 C,0,181584,,0,128,255 F,2,181584,181984,0.4,0 S,2,181584,181984,1,0.2 P,0,181584,181984,A
Sprite,Foreground,Centre,"sb\circle.png",245,94 C,0,181661,,0,128,255 F,2,181661,182061,0.4,0 S,2,181661,182061,1,0.2 P,0,181661,182061,A
Sprite,Foreground,Centre,"sb\circle.png",207,100 C,0,181738,,0,128,255 F,2,181738,182138,0.4,0 S,2,181738,182138,1,0.2 P,0,181738,182138,A
Sprite,Foreground,Centre,"sb\circle.png",170,108 C,0,181815,,0,128,255 F,2,181815,182215,0.4,0 S,2,181815,182215,1,0.2 P,0,181815,182215,A
Sprite,Foreground,Centre,"sb\circle.png",133,118 C,0,181892,,0,128,255 F,2,181892,182292,0.4,0 S,2,181892,182292,1,0.2 P,0,181892,182292,A
Sprite,Foreground,Centre,"sb\circle.png",104,141 C,0,181969,,0,128,255 F,2,181969,182369,0.4,0 S,2,181969,182369,1,0.2 P,0,181969,182369,A
Sprite,Foreground,Centre,"sb\circle.png",85,174 C,0,182046,,0,128,255 F,2,182046,182446,0.4,0 S,2,182046,182446,1,0.2 P,0,182046,182446,A
Sprite,Foreground,Centre,"sb\circle.png",80,211 C,0,182123,,0,128,255 F,2,182123,182523,0.4,0 S,2,182123,182523,1,0.2 P,0,182123,182523,A
Sprite,Foreground,Centre,"sb\circle.png",91,256 C,0,182200,,0,128,255 F,2,182200,182600,0.4,0 S,2,182200,182600,1,0.2 P,0,182200,182600,A
Sprite,Foreground,Centre,"sb\circle.png",123,291 C,0,182277,,0,128,255 F,2,182277,182677,0.4,0 S,2,182277,182677,1,0.2 P,0,182277,182677,A
Sprite,Foreground,Centre,"sb\circle.png",167,307 C,0,182354,,0,128,255 F,2,182354,182754,0.4,0 S,2,182354,182754,1,0.2 P,0,182354,182754,A
Sprite,Foreground,Centre,"sb\circle.png",213,303 C,0,182431,,0,128,255 F,2,182431,182831,0.4,0 S,2,182431,182831,1,0.2 P,0,182431,182831,A
Sprite,Foreground,Centre,"sb\circle.png",252,278 C,0,182508,,0,128,255 F,2,182508,182908,0.4,0 S,2,182508,182908,1,0.2 P,0,182508,182908,A
Sprite,Foreground,Centre,"sb\circle.png",0,0 C,0,182584,,0,128,255 M,0,182584,182622,275,237,279.7115,211.5576 F,2,182584,183060,0.4,0 S,2,182584,183060,1,0.2 P,0,182584,183060,A M,0,182622,182660,279.7115,211.5576,284.4231,186.1152
//Storyboard Layer 4 (Overlay)
//Storyboard Sound Samples

[TimingPoints]
584,307.692307692308,4,2,1,50,1,0
584,-153.846153846154,4,2,1,50,0,0
2507,-153.846153846154,4,2,1,5,0,0
2584,-153.846153846154,4,2,1,50,0,0
5199,-181.818181818182,4,2,1,50,0,0
5430,-181.818181818182,4,2,1,5,0,0
5507,-100,4,2,1,70,0,0
10430,-100,4,2,1,70,0,0
20276,-117.647058823529,4,2,1,60,0,0
39660,-133.333333333333,4,2,1,60,0,0
39891,-133.333333333333,4,2,1,5,0,0
39968,-133.333333333333,4,2,1,60,0,0
46122,-100,4,2,1,70,0,0
46507,-100,4,2,1,5,0,0
46584,-100,4,2,1,70,0,0
46660,-100,4,2,1,5,0,0
46737,-100,4,2,1,70,0,0
46891,-181.818181818182,4,2,1,70,0,0
47122,-181.818181818182,4,2,1,5,0,0
47199,-86.9565217391304,4,2,1,80,0,1
67045,-100,4,2,1,80,0,0
76891,-117.647058823529,4,2,1,60,0,0
96276,-133.333333333333,4,2,1,60,0,0
96507,-133.333333333333,4,2,1,5,0,0
96584,-133.333333333333,4,2,1,60,0,0
102737,-100,4,2,1,70,0,0
103122,-100,4,2,1,5,0,0
103199,-100,4,2,1,70,0,0
103507,-181.818181818181,4,2,1,70,0,0
103737,-181.818181818181,4,2,1,5,0,0
103814,-86.9565217391304,4,2,1,80,0,1
123660,-117.647058823529,4,2,1,60,0,0
133353,-100,4,2,1,60,0,0
154122,-181.818181818181,4,2,1,70,0,0
154353,-181.818181818181,4,2,1,5,0,0
154430,-86.9565217391304,4,2,1,80,0,0
155891,-86.9565217391304,4,2,1,5,0,0
155968,-86.9565217391304,4,2,1,80,0,0
158353,-86.9565217391304,4,2,1,5,0,0
158430,-86.9565217391304,4,2,1,80,0,0
161660,-76.9230769230769,4,2,1,85,0,1
180891,-117.647058823529,4,2,1,85,0,0
181122,-117.647058823529,4,2,1,5,0,0
181199,-117.647058823529,4,2,1,85,0,0
181507,-86.9565217391303,4,2,1,85,0,0
182737,-100,4,2,1,70,0,0
198891,-100,4,2,1,5,0,0

[Colours]
Combo1 : 255,255,0
Combo2 : 0,255,255
Combo3 : 0,64,128
Combo4 : 0,128,255

[HitObjects]
448,97,584,5,8,0:2:0:0:
383,292,737,1,8,0:2:0:0:
383,292,1045,2,0,L|362:176,1,116.999994644165,2|2,0:2|0:2,0:0:0:0:
315,95,1507,6,0,P|287:85|258:85,1,58.4999973220826,2|2,0:2|0:2,0:0:0:0:
192,153,1814,2,0,P|164:162|135:162,1,58.4999973220826,2|2,0:2|0:2,0:0:0:0:
73,90,2122,1,2,0:2:0:0:
22,168,2276,2,0,B|13:212|13:212|40:270,1,87.749995983124,2|0,0:2|0:0,0:0:0:0:
48,274,2584,5,2,3:2:0:0:
159,126,2737,1,10,0:2:0:0:
181,284,2891,1,0,3:2:0:0:
22,168,3045,5,10,0:2:0:0:
114,350,3199,1,10,0:2:0:0:
114,350,3507,2,0,P|164:376|221:368,1,116.999994644165,2|2,0:2|0:2,0:0:0:0:
284,304,3968,6,0,P|311:294|340:293,1,58.4999973220826,2|2,0:2|0:2,0:0:0:0:
416,339,4276,2,0,P|425:311|425:282,1,58.4999973220826,2|2,0:2|0:2,0:0:0:0:
459,200,4584,1,2,0:2:0:0:
509,271,4737,1,2,0:2:0:0:
372,207,4891,1,0,3:2:0:0:
376,178,4968,1,0,3:2:0:0:
381,150,5045,1,2,3:2:0:0:
386,122,5122,1,0,3:2:0:0:
391,94,5199,6,0,L|464:106,1,74.2500022659302,14|0,0:2|0:0,0:0:0:0:
495,112,5507,5,2,3:2:0:0:
286,110,5660,1,10,0:2:0:0:
477,0,5814,1,10,0:2:0:0:
386,176,5968,1,2,3:2:0:0:
282,0,6122,5,8,0:2:0:0:
289,228,6276,1,10,0:2:0:0:
404,65,6430,1,2,3:2:0:0:
472,227,6584,1,2,3:2:0:0:
472,227,6660,1,0,3:2:0:0:
472,227,6737,5,4,3:2:0:0:
286,110,6891,1,10,0:2:0:0:
379,325,7045,1,10,0:2:0:0:
391,152,7199,1,2,3:2:0:0:
273,354,7353,5,8,0:2:0:0:
182,137,7507,1,10,0:2:0:0:
116,329,7660,1,2,3:2:0:0:
272,229,7814,1,2,3:2:0:0:
272,229,7891,1,0,3:2:0:0:
272,229,7968,5,4,3:2:0:0:
30,189,8122,1,10,0:2:0:0:
237,60,8276,1,10,0:2:0:0:
148,223,8430,1,2,3:2:0:0:
70,2,8584,5,8,0:2:0:0:
15,227,8737,1,10,0:2:0:0:
209,150,8891,1,2,3:2:0:0:
27,89,9045,1,2,3:2:0:0:
27,89,9122,1,0,3:2:0:0:
27,89,9199,5,6,3:2:0:0:
241,21,9353,1,10,0:2:0:0:
272,14,9430,1,8,0:2:0:0:
305,13,9507,1,10,0:2:0:0:
338,20,9584,1,8,0:2:0:0:
367,34,9660,1,10,0:2:0:0:
393,55,9737,1,8,0:2:0:0:
409,89,9814,1,8,0:2:0:0:
402,132,9891,1,8,0:2:0:0:
394,173,9968,1,8,0:2:0:0:
387,215,10045,1,8,0:2:0:0:
380,257,10122,1,8,0:2:0:0:
372,299,10199,1,8,0:2:0:0:
364,341,10276,2,0,L|317:332,1,45,8|8,0:2|0:2,0:0:0:0:
177,233,10430,6,0,B|135:222|135:222|86:240,1,90,6|2,3:2|3:2,0:0:0:0:
48,384,10737,1,8,0:2:0:0:
233,309,10891,2,0,B|263:278|263:278|270:231,1,90,2|0,0:2|3:2,0:0:0:0:
140,314,11199,1,2,3:2:0:0:
224,150,11353,2,0,P|266:134|309:146,1,90,10|0,0:2|0:0,0:0:0:0:
439,298,11660,5,2,3:2:0:0:
269,231,11814,1,2,3:2:0:0:
386,383,11968,1,8,0:2:0:0:
439,190,12122,2,0,L|422:95,1,90,2|0,0:2|3:2,0:0:0:0:
300,229,12430,1,2,3:2:0:0:
224,34,12584,2,0,P|180:28|134:53,1,90,10|0,0:2|0:0,0:0:0:0:
32,206,12891,5,2,3:2:0:0:
193,122,13045,1,2,3:2:0:0:
0,76,13199,1,8,0:2:0:0:
144,225,13353,2,0,L|232:209,1,90,2|0,0:2|3:2,0:0:0:0:
74,296,13660,1,2,3:2:0:0:
193,122,13814,1,8,0:2:0:0:
294,289,13968,6,0,B|389:275|389:275|412:315|457:319,1,180,2|2,3:2|3:2,0:0:0:0:
476,136,14430,1,8,0:2:0:0:
334,196,14584,2,0,B|323:154|323:154|340:110,1,90,2|0,0:2|3:2,0:0:0:0:
481,21,14891,1,2,3:2:0:0:
247,34,15045,2,0,L|158:49,1,90,14|0,0:2|0:0,0:0:0:0:
0,133,15353,6,0,B|42:122|42:122|85:138,1,90,6|2,3:2|3:2,0:0:0:0:
257,231,15660,1,8,0:2:0:0:
93,348,15814,2,0,B|82:306|82:306|98:262,1,90,2|0,0:2|3:2,0:0:0:0:
185,139,16122,1,2,3:2:0:0:
229,340,16276,2,0,P|272:346|318:321,1,90,10|0,0:2|0:0,0:0:0:0:
443,197,16584,5,2,3:2:0:0:
258,252,16737,1,2,3:2:0:0:
459,340,16891,1,8,0:2:0:0:
344,204,17045,2,0,L|359:115,1,90,2|0,0:2|3:2,0:0:0:0:
492,45,17353,1,2,3:2:0:0:
290,16,17507,2,0,P|246:20|210:46,1,90,10|0,0:2|0:0,0:0:0:0:
97,194,17814,5,2,3:2:0:0:
108,23,17968,1,2,3:2:0:0:
191,236,18122,1,10,0:2:0:0:
45,105,18276,1,2,0:2:0:0:
109,297,18430,5,2,3:2:0:0:
168,121,18584,1,2,3:2:0:0:
199,337,18737,1,10,0:2:0:0:
18,230,18891,1,10,0:2:0:0:
18,230,18968,1,8,0:2:0:0:
18,230,19045,5,8,0:2:0:0:
281,267,19199,1,8,0:2:0:0:
61,121,19353,1,8,0:2:0:0:
126,384,19507,1,8,0:2:0:0:
264,156,19660,1,8,0:2:0:0:
272,353,19814,2,0,B|201:341|201:341|183:305|183:305|116:294,1,180,4|0,3:2|3:2,0:0:0:0:
0,181,20276,6,0,L|89:166,1,76.5000014591217,14|0,0:2|3:2,0:0:0:0:
213,99,20584,2,0,L|137:86,1,76.5000014591217,2|0,0:2|3:2,0:0:0:0:
271,175,20891,2,0,P|295:147|307:110,1,76.5000014591217,2|0,0:2|3:2,0:0:0:0:
189,7,21199,1,10,0:2:0:0:
341,21,21353,2,0,B|373:39|373:39|394:72,1,76.5000014591217,2|0,3:2|0:0,0:0:0:0:
496,247,21660,6,0,B|457:215|457:215|477:115,1,153.000002918243,2|0,3:2|3:2,0:0:0:0:
364,231,22122,2,0,L|349:320,1,76.5000014591217,8|0,0:2|3:2,0:0:0:0:
208,364,22430,1,10,0:2:0:0:
177,358,22507,1,8,0:2:0:0:
147,353,22584,1,8,0:2:0:0:
117,348,22660,1,8,0:2:0:0:
87,342,22737,6,0,B|78:306|78:306|89:268,1,76.5000014591217,2|0,3:2|3:2,0:0:0:0:
27,126,23045,2,0,B|35:161|35:161|24:199,1,76.5000014591217,2|0,0:2|3:2,0:0:0:0:
113,75,23353,2,0,P|151:68|188:76,1,76.5000014591217,2|0,0:2|3:2,0:0:0:0:
290,190,23660,1,10,0:2:0:0:
137,231,23814,2,0,L|150:156,1,76.5000014591217,2|0,3:2|0:0,0:0:0:0:
321,70,24122,6,0,B|360:70|384:109|384:109|424:85|455:93,1,153.000002918243,2|0,3:2|3:2,0:0:0:0:
266,2,24584,2,0,P|243:32|233:69,1,76.5000014591217,8|0,0:2|3:2,0:0:0:0:
314,199,24891,1,10,0:2:0:0:
345,205,24968,1,8,0:2:0:0:
375,210,25045,1,8,0:2:0:0:
405,215,25122,1,8,0:2:0:0:
435,221,25199,5,2,3:2:0:0:
333,342,25353,1,2,3:2:0:0:
282,192,25507,2,0,P|210:176|144:212,1,153.000002918243,2|0,0:2|0:0,0:0:0:0:
60,340,25968,1,2,3:2:0:0:
90,144,26122,5,10,0:2:0:0:
138,300,26276,1,2,3:2:0:0:
87,123,26430,1,2,0:2:0:0:
20,262,26584,1,2,3:2:0:0:
177,186,26737,1,2,0:2:0:0:
0,155,26891,1,2,3:2:0:0:
146,31,27045,6,0,B|182:22|182:22|220:33,1,76.5000014591217,10|2,0:2|3:2,0:0:0:0:
357,102,27353,1,10,0:2:0:0:
387,95,27430,1,8,0:2:0:0:
413,80,27507,1,10,0:2:0:0:
433,57,27584,1,8,0:2:0:0:
445,29,27660,6,0,L|471:179,1,153.000002918243,2|0,3:2|0:0,0:0:0:0:
402,343,28122,1,2,3:2:0:0:
361,203,28276,1,2,0:2:0:0:
498,285,28430,1,2,3:2:0:0:
306,282,28584,1,10,0:2:0:0:
456,190,28737,1,2,3:2:0:0:
280,285,28891,6,0,L|205:272,1,76.5000014591217,2|2,0:2|3:2,0:0:0:0:
68,217,29199,2,0,L|143:204,1,76.5000014591217,2|2,0:2|3:2,0:0:0:0:
320,89,29507,5,10,0:2:0:0:
121,77,29660,1,0,3:2:0:0:
255,246,29814,5,10,0:2:0:0:
222,51,29968,1,0,3:2:0:0:
115,237,30122,6,0,B|130:318|130:318|163:352|191:327,1,153.000002918243,6|10,3:2|0:2,0:0:0:0:
289,219,30584,2,0,P|326:211|363:219,1,76.5000014591217,2|0,3:2|0:0,0:0:0:0:
428,349,30891,1,2,3:2:0:0:
463,200,31045,2,0,L|450:125,1,76.5000014591217,10|0,0:2|3:2,0:0:0:0:
371,0,31353,5,2,0:2:0:0:
328,139,31507,1,2,3:2:0:0:
245,2,31660,2,0,L|170:15,1,76.5000014591217,8|2,0:2|0:2,0:0:0:0:
90,138,31968,1,2,3:2:0:0:
34,3,32122,1,0,3:2:0:0:
0,164,32276,2,0,P|16:199|45:224,1,76.5000014591217,8|0,0:2|0:0,0:0:0:0:
204,140,32584,5,2,3:2:0:0:
127,293,32737,1,2,0:2:0:0:
94,113,32891,1,10,0:2:0:0:
204,239,33045,1,2,3:2:0:0:
43,223,33199,1,2,0:2:0:0:
116,379,33353,1,2,3:2:0:0:
129,193,33507,1,10,0:2:0:0:
214,353,33660,6,0,B|274:342|274:342|289:312|289:312|346:302,1,153.000002918243,2|2,3:2|3:2,0:0:0:0:
495,384,34122,2,0,L|420:371,1,76.5000014591217,10|2,0:2|0:2,0:0:0:0:
343,214,34430,1,2,3:2:0:0:
471,291,34584,1,0,3:2:0:0:
377,120,34737,6,0,B|368:84|368:84|379:46,1,76.5000014591217,10|0,0:2|0:0,0:0:0:0:
446,197,35045,1,2,3:2:0:0:
293,141,35199,2,0,P|256:133|219:141,1,76.5000014591217,2|8,0:2|0:2,0:0:0:0:
84,58,35507,2,0,B|123:90|123:90|103:190,1,153.000002918243,2|2,3:2|3:2,0:0:0:0:
23,330,35968,1,10,0:2:0:0:
17,176,36122,1,2,3:2:0:0:
121,288,36276,6,0,L|196:275,1,76.5000014591217,2|0,0:2|3:2,0:0:0:0:
354,214,36584,1,10,0:2:0:0:
204,187,36737,1,2,0:2:0:0:
301,314,36891,2,0,L|376:327,1,76.5000014591217,2|0,3:2|3:2,0:0:0:0:
490,197,37199,2,0,B|481:233|481:233|492:271,1,76.5000014591217,10|0,0:2|0:0,0:0:0:0:
400,127,37507,6,0,B|322:115|322:115|302:150|262:154,1,153.000002918243,2|10,3:2|0:2,0:0:0:0:
117,104,37968,1,2,3:2:0:0:
253,0,38122,2,0,P|261:36|253:74,1,76.5000014591217,2|0,0:2|0:0,0:0:0:0:
146,195,38430,2,0,P|137:157|146:120,1,76.5000014591217,8|0,0:2|3:2,0:0:0:0:
229,240,38737,5,0,0:0:0:0:
62,234,38891,1,2,3:2:0:0:
219,336,39045,2,0,B|255:345|255:345|293:334,1,76.5000014591217,10|0,0:2|0:0,0:0:0:0:
431,223,39353,1,2,3:2:0:0:
385,377,39507,1,2,3:2:0:0:
333,200,39660,2,0,L|354:84,1,101.250003862381,10|0,0:2|0:0,0:0:0:0:
356,73,39968,5,0,3:2:0:0:
160,112,46122,5,10,0:2:0:0:
126,103,46199,1,0,3:2:0:0:
91,109,46276,1,2,3:2:0:0:
62,130,46353,1,0,3:2:0:0:
44,160,46430,2,0,L|52:204,1,45,10|0,0:2|0:0,0:0:0:0:
127,309,46584,2,0,L|135:264,1,45,10|0,0:2|0:0,0:0:0:0:
205,193,46737,5,2,0:2:0:0:
205,193,46891,2,0,L|278:179,1,74.2500022659302,2|0,0:2|0:0,0:0:0:0:
375,117,47199,6,0,B|232:91|232:91|288:64,1,207.000003948212,6|0,3:2|3:2,0:0:0:0:
504,17,47660,1,10,0:2:0:0:
444,230,47814,1,0,3:2:0:0:
390,17,47968,1,10,0:2:0:0:
286,208,48122,1,0,3:2:0:0:
512,145,48276,1,10,0:2:0:0:
380,307,48430,1,2,3:2:0:0:
380,307,48507,1,0,3:2:0:0:
380,307,48584,6,0,L|278:288,1,103.500001974106,8|2,0:2|3:2,0:0:0:0:
68,365,48891,2,0,P|118:370|165:351,1,103.500001974106,8|0,0:2|3:2,0:0:0:0:
282,165,49199,1,10,0:2:0:0:
107,276,49353,1,2,3:2:0:0:
202,82,49507,1,8,0:2:0:0:
199,276,49660,2,0,L|190:225,1,51.7500009870529,2|0,3:2|3:2,0:0:0:0:
86,86,49814,6,0,L|67:188,1,103.500001974106,8|0,0:2|3:2,0:0:0:0:
295,85,50122,2,0,P|281:35|245:-1,1,103.500001974106,10|0,0:2|3:2,0:0:0:0:
379,158,50430,2,0,P|404:112|404:61,1,103.500001974106,10|0,0:2|3:2,0:0:0:0:
179,96,50737,1,10,0:2:0:0:
328,242,50891,1,2,3:2:0:0:
328,242,50968,1,0,3:2:0:0:
328,242,51045,6,0,P|378:254|427:241,1,103.500001974106,8|2,0:2|3:2,0:0:0:0:
217,305,51353,1,8,0:2:0:0:
378,156,51507,1,0,3:2:0:0:
346,373,51660,1,10,0:2:0:0:
263,176,51814,1,2,3:2:0:0:
154,383,51968,1,8,0:2:0:0:
106,197,52122,1,2,3:2:0:0:
106,197,52199,1,0,3:2:0:0:
106,197,52276,6,0,L|125:95,1,103.500001974106,12|0,0:2|3:2,0:0:0:0:
344,27,52584,2,0,L|363:129,1,103.500001974106,10|0,0:2|3:2,0:0:0:0:
249,340,52891,1,10,0:2:0:0:
265,106,53045,1,0,3:2:0:0:
372,307,53199,1,10,0:2:0:0:
454,116,53353,2,0,L|445:167,1,51.7500009870529,0|0,3:2|3:2,0:0:0:0:
299,244,53507,6,0,P|249:257|199:243,1,103.500001974106,10|0,0:2|3:2,0:0:0:0:
67,57,53814,2,0,P|102:94|115:144,1,103.500001974106,10|0,0:2|3:2,0:0:0:0:
21,352,54122,2,0,P|35:302|72:266,1,103.500001974106,10|0,0:2|3:2,0:0:0:0:
250,146,54430,1,10,0:2:0:0:
233,340,54584,1,0,3:2:0:0:
233,340,54660,1,0,3:2:0:0:
233,340,54737,6,0,L|131:359,1,103.500001974106,10|0,0:2|3:2,0:0:0:0:
10,169,55045,1,10,0:2:0:0:
201,245,55199,1,0,3:2:0:0:
135,50,55353,1,10,0:2:0:0:
57,271,55507,1,0,3:2:0:0:
20,19,55660,1,10,0:2:0:0:
245,133,55814,2,0,L|186:142,1,51.7500009870529,0|0,3:2|3:2,0:0:0:0:
10,169,55968,5,10,0:2:0:0:
169,13,56122,1,0,3:2:0:0:
208,267,56276,1,10,0:2:0:0:
308,46,56430,1,8,3:2:0:0:
308,46,56507,1,8,3:2:0:0:
308,46,56584,5,10,0:2:0:0:
347,263,56737,1,2,3:2:0:0:
184,47,56891,1,8,0:2:0:0:
49,298,57045,6,0,B|132:312|132:312|153:354|153:354|227:366,1,207.000003948212,6|0,3:2|3:2,0:0:0:0:
210,163,57507,2,0,P|198:213|212:263,1,103.500001974106,10|0,0:2|0:0,0:0:0:0:
372,383,57814,1,2,3:2:0:0:
286,210,57968,1,0,3:2:0:0:
485,297,58122,1,10,0:2:0:0:
404,116,58276,6,0,L|385:218,1,103.500001974106,2|0,0:2|3:2,0:0:0:0:
499,88,58584,1,2,3:2:0:0:
326,22,58737,2,0,P|276:10|226:24,1,103.500001974106,8|0,0:2|0:0,0:0:0:0:
99,173,59045,1,2,3:2:0:0:
277,95,59199,1,2,3:2:0:0:
45,39,59353,1,8,0:2:0:0:
207,177,59507,6,0,B|184:296|184:296|144:338|110:307,1,207.000003948212,2|0,0:2|3:2,0:0:0:0:
306,124,59968,2,0,L|287:226,1,103.500001974106,10|0,0:2|0:0,0:0:0:0:
409,381,60276,2,0,L|390:279,1,103.500001974106,2|0,3:2|3:2,0:0:0:0:
408,47,60584,1,10,0:2:0:0:
494,226,60737,6,0,L|513:124,1,103.500001974106,2|0,0:0|3:2,0:0:0:0:
383,247,61045,1,2,3:2:0:0:
274,42,61199,2,0,P|224:30|174:44,1,103.500001974106,8|0,0:2|0:0,0:0:0:0:
51,148,61507,1,2,3:2:0:0:
84,2,61660,1,2,3:2:0:0:
224,125,61814,2,0,P|237:175|223:225,1,103.500001974106,8|2,0:2|0:2,0:0:0:0:
17,346,62122,5,4,3:2:0:0:
51,148,62276,1,0,3:2:0:0:
124,352,62430,1,10,0:2:0:0:
145,174,62584,1,0,3:2:0:0:
1,361,62737,5,2,3:2:0:0:
43,121,62891,1,0,3:2:0:0:
129,371,63045,1,10,0:2:0:0:
156,156,63199,1,0,3:2:0:0:
298,328,63353,5,2,3:2:0:0:
267,168,63507,1,0,3:2:0:0:
445,297,63660,1,10,0:2:0:0:
411,136,63814,1,0,3:2:0:0:
287,345,63968,5,2,3:2:0:0:
249,158,64122,1,0,3:2:0:0:
461,307,64276,1,10,0:2:0:0:
421,121,64430,1,0,3:2:0:0:
369,300,64584,5,2,3:2:0:0:
512,184,64737,1,0,3:2:0:0:
316,67,64891,2,0,L|214:48,1,103.500001974106,10|0,0:2|0:0,0:0:0:0:
6,146,65199,2,0,L|108:127,1,103.500001974106,2|0,3:2|3:2,0:0:0:0:
331,208,65507,2,0,L|229:189,1,103.500001974106,10|0,0:2|0:0,0:0:0:0:
59,304,65814,5,2,3:2:0:0:
138,124,65968,1,0,3:2:0:0:
187,335,66122,2,0,P|234:355|285:350,1,103.500001974106,10|0,0:2|3:2,0:0:0:0:
461,294,66430,1,10,0:2:0:0:
465,260,66507,1,8,0:2:0:0:
471,229,66584,1,8,0:2:0:0:
475,200,66660,1,8,0:2:0:0:
497,170,66737,1,10,0:2:0:0:
490,128,66814,1,8,0:2:0:0:
482,88,66891,1,8,0:2:0:0:
475,46,66968,1,8,0:2:0:0:
469,6,67045,6,0,B|423:-5|423:-5|382:9,1,90,6|2,3:2|3:2,0:0:0:0:
230,105,67353,1,8,0:2:0:0:
392,198,67507,2,0,B|402:152|402:152|388:111,1,90,2|0,0:2|3:2,0:0:0:0:
242,6,67814,1,2,3:2:0:0:
285,197,67968,2,0,L|270:286,1,90,10|0,0:2|0:0,0:0:0:0:
113,377,68276,5,2,3:2:0:0:
186,193,68430,1,2,3:2:0:0:
244,384,68584,1,8,0:2:0:0:
73,259,68737,2,0,L|57:170,1,90,2|0,0:2|3:2,0:0:0:0:
166,292,69045,1,2,3:2:0:0:
134,107,69199,2,0,P|100:77|56:70,1,90,10|0,0:2|0:0,0:0:0:0:
186,193,69507,5,2,3:2:0:0:
195,29,69660,1,2,3:2:0:0:
57,170,69814,1,8,0:2:0:0:
280,150,69968,2,0,P|324:143|358:114,1,90,2|0,0:2|3:2,0:0:0:0:
449,0,70276,1,2,3:2:0:0:
279,45,70430,1,8,0:2:0:0:
454,139,70584,6,0,B|466:211|466:211|502:229|502:229|512:294,1,180,2|2,3:2|3:2,0:0:0:0:
359,170,71045,1,8,0:2:0:0:
349,355,71199,2,0,B|362:311|362:311|346:269,1,90,2|0,0:2|3:2,0:0:0:0:
265,138,71507,1,2,3:2:0:0:
221,333,71660,2,0,L|131:317,1,90,14|0,0:2|0:0,0:0:0:0:
76,130,71968,6,0,B|87:172|87:172|69:222,1,90,6|2,3:2|3:2,0:0:0:0:
16,56,72276,1,8,0:2:0:0:
186,166,72430,2,0,B|228:177|228:177|271:161,1,90,2|0,0:2|3:2,0:0:0:0:
383,35,72737,1,2,3:2:0:0:
498,184,72891,2,0,L|482:272,1,90,10|0,0:2|0:0,0:0:0:0:
349,384,73199,5,2,3:2:0:0:
387,209,73353,1,2,3:2:0:0:
485,383,73507,1,8,0:2:0:0:
313,266,73660,2,0,P|293:226|299:181,1,90,2|0,0:2|3:2,0:0:0:0:
418,311,73968,1,2,3:2:0:0:
232,376,74122,2,0,L|142:360,1,90,10|0,0:2|0:0,0:0:0:0:
0,241,74430,5,2,3:2:0:0:
186,247,74584,1,2,3:2:0:0:
1,357,74737,1,10,0:2:0:0:
102,186,74891,1,2,0:2:0:0:
144,361,75045,5,2,3:2:0:0:
230,172,75199,1,2,3:2:0:0:
0,241,75353,1,10,0:2:0:0:
119,85,75507,1,2,0:2:0:0:
177,272,75660,5,0,3:2:0:0:
28,140,75814,1,0,3:2:0:0:
255,74,75968,1,12,0:2:0:0:
88,224,76122,1,8,0:2:0:0:
88,224,76199,1,8,0:2:0:0:
88,224,76276,5,8,0:2:0:0:
179,0,76430,1,10,0:2:0:0:
288,263,76584,1,10,0:2:0:0:
77,66,76737,1,8,0:2:0:0:
240,161,76891,6,0,P|277:168|314:161,1,76.5000014591217,10|0,0:2|3:2,0:0:0:0:
187,87,77199,2,0,P|162:115|149:151,1,76.5000014591217,2|0,0:2|3:2,0:0:0:0:
238,277,77507,1,2,0:2:0:0:
88,224,77660,1,2,3:2:0:0:
88,224,77737,1,0,3:2:0:0:
88,224,77814,1,14,0:2:0:0:
209,367,77968,6,0,P|284:360|329:301,1,153.000002918243,2|2,3:2|3:2,0:0:0:0:
444,176,78430,2,0,L|460:265,1,76.5000014591217,2|0,0:2|3:2,0:0:0:0:
353,131,78737,2,0,L|369:42,1,76.5000014591217,8|2,0:2|3:2,0:0:0:0:
262,177,79045,1,10,0:2:0:0:
231,171,79122,1,8,0:2:0:0:
201,166,79199,1,10,0:2:0:0:
171,161,79276,1,8,0:2:0:0:
141,155,79353,5,2,3:2:0:0:
249,36,79507,1,2,3:2:0:0:
82,91,79660,2,0,P|61:123|54:160,1,76.5000014591217,2|0,0:2|3:2,0:0:0:0:
146,311,79968,1,2,0:2:0:0:
141,155,80122,1,2,3:2:0:0:
12,297,80276,1,10,0:2:0:0:
209,231,80430,6,0,B|309:211|309:211|341:250,1,153.000002918243,2|2,3:2|3:2,0:0:0:0:
449,358,80891,2,0,L|360:342,1,76.5000014591217,2|0,0:2|3:2,0:0:0:0:
198,318,81199,2,0,L|287:302,1,76.5000014591217,8|2,0:2|3:2,0:0:0:0:
425,229,81507,1,8,0:2:0:0:
419,198,81584,1,8,0:2:0:0:
413,168,81660,1,10,0:2:0:0:
409,138,81737,1,8,0:2:0:0:
403,108,81814,5,2,3:2:0:0:
341,250,81968,1,2,3:2:0:0:
278,93,82122,2,0,B|218:104|218:104|203:134|203:134|146:144,1,153.000002918243,2|0,0:2|0:0,0:0:0:0:
8,222,82584,1,2,3:2:0:0:
211,230,82737,5,10,0:2:0:0:
55,143,82891,1,2,3:2:0:0:
233,233,83045,1,2,0:2:0:0:
80,276,83199,1,2,3:2:0:0:
224,359,83353,1,2,0:2:0:0:
140,196,83507,1,2,3:2:0:0:
298,297,83660,6,0,B|334:306|334:306|372:295,1,76.5000014591217,10|2,0:2|3:2,0:0:0:0:
512,192,83968,1,10,0:2:0:0:
494,168,84045,1,8,0:2:0:0:
468,152,84122,1,10,0:2:0:0:
438,147,84199,1,8,0:2:0:0:
408,153,84276,6,0,B|369:121|369:121|389:21,1,153.000002918243,2|0,3:2|0:0,0:0:0:0:
278,156,84737,1,2,3:2:0:0:
241,0,84891,1,2,0:2:0:0:
146,142,85045,1,2,3:2:0:0:
305,66,85199,1,10,0:2:0:0:
134,46,85353,6,0,B|95:46|71:85|71:85|31:61|0:69,2,153.000002918243,10|10|6,3:0|3:0|3:0,0:0:0:0:
305,66,86122,1,2,3:2:0:0:
146,142,86276,1,2,3:2:0:0:
352,158,86430,2,0,P|360:195|352:232,1,76.5000014591217,8|0,0:2|3:2,0:0:0:0:
207,351,86737,5,6,3:2:0:0:
268,194,86891,1,2,0:2:0:0:
330,375,87045,1,10,0:2:0:0:
175,252,87199,1,2,3:2:0:0:
361,271,87353,1,2,0:2:0:0:
208,378,87507,1,2,3:2:0:0:
242,183,87660,1,10,0:2:0:0:
102,344,87814,6,0,B|91:284|91:284|61:269|61:269|51:212,1,153.000002918243,2|2,3:2|3:2,0:0:0:0:
166,89,88276,2,0,L|153:164,1,76.5000014591217,10|2,0:2|0:2,0:0:0:0:
51,28,88584,1,2,3:2:0:0:
47,180,88737,1,0,3:2:0:0:
147,4,88891,2,0,B|184:1|184:1|219:18,1,76.5000014591217,8|0,0:2|0:0,0:0:0:0:
317,175,89199,5,2,3:2:0:0:
166,89,89353,1,2,0:2:0:0:
371,28,89507,1,10,0:2:0:0:
226,162,89660,1,2,3:2:0:0:
400,122,89814,1,2,0:2:0:0:
239,32,89968,1,2,3:2:0:0:
463,51,90122,1,10,0:2:0:0:
322,204,90276,6,0,B|337:285|337:285|370:319|398:294,1,153.000002918243,2|2,3:2|3:2,0:0:0:0:
232,183,90737,2,0,P|194:175|157:183,1,76.5000014591217,10|2,0:2|0:2,0:0:0:0:
43,298,91045,1,2,3:2:0:0:
195,263,91199,1,0,3:2:0:0:
32,177,91353,6,0,L|45:102,1,76.5000014591217,10|0,0:2|0:0,0:0:0:0:
218,40,91660,1,2,3:2:0:0:
61,0,91814,1,2,0:2:0:0:
211,142,91968,1,10,0:2:0:0:
45,101,92122,1,2,3:2:0:0:
240,32,92276,2,0,L|315:45,1,76.5000014591217,2|0,0:2|3:2,0:0:0:0:
471,143,92584,1,10,0:2:0:0:
400,3,92737,1,2,3:2:0:0:
350,155,92891,6,0,P|351:193|369:227,1,76.5000014591217,2|2,0:2|3:2,0:0:0:0:
494,363,93199,1,10,0:2:0:0:
433,171,93353,1,2,0:2:0:0:
352,350,93507,1,2,3:2:0:0:
492,261,93660,1,2,3:2:0:0:
287,293,93814,2,0,B|251:302|251:302|213:291,1,76.5000014591217,10|0,0:2|0:0,0:0:0:0:
60,345,94122,6,0,P|103:283|88:211,1,153.000002918243,2|10,3:2|0:2,0:0:0:0:
0,82,94584,2,0,P|38:90|75:82,1,76.5000014591217,2|0,3:2|0:0,0:0:0:0:
203,2,94891,1,0,3:2:0:0:
198,192,95045,2,0,L|185:117,1,76.5000014591217,8|0,0:2|3:2,0:0:0:0:
308,11,95353,5,0,0:0:0:0:
292,171,95507,1,0,3:2:0:0:
422,32,95660,2,0,B|458:23|458:23|496:34,1,76.5000014591217,10|0,0:2|0:0,0:0:0:0:
337,95,95968,1,2,3:2:0:0:
495,152,96122,1,2,3:2:0:0:
335,253,96276,2,0,P|315:298|325:346,1,101.250003862381,10|0,0:2|0:0,0:0:0:0:
340,369,96584,5,0,3:2:0:0:
449,73,102737,5,8,0:2:0:0:
443,109,102814,1,0,3:2:0:0:
437,144,102891,1,2,3:2:0:0:
431,180,102968,1,0,3:2:0:0:
424,215,103045,2,0,L|380:207,1,45,8|0,0:2|0:0,0:0:0:0:
269,132,103199,2,0,L|357:115,1,90,10|0,0:2|0:0,0:0:0:0:
217,36,103507,6,0,P|187:58|168:90,1,74.2500022659302,2|0,0:2|0:0,0:0:0:0:
152,202,103814,6,0,B|138:119|138:119|96:98|96:98|84:24,1,207.000003948212,6|0,3:2|3:2,0:0:0:0:
58,240,104276,2,0,L|77:350,1,103.500001974106,10|0,0:2|3:2,0:0:0:0:
269,132,104584,1,10,0:2:0:0:
177,365,104737,1,0,3:2:0:0:
136,121,104891,1,10,0:2:0:0:
284,293,105045,1,2,3:2:0:0:
284,293,105122,1,0,3:2:0:0:
284,293,105199,5,8,0:2:0:0:
316,61,105353,1,2,3:2:0:0:
493,238,105507,2,0,P|443:250|393:236,1,103.500001974106,8|2,0:2|3:2,0:0:0:0:
217,65,105814,1,10,0:2:0:0:
445,147,105968,1,2,3:2:0:0:
238,215,106122,1,8,0:2:0:0:
367,44,106276,2,0,L|358:95,1,51.7500009870529,2|0,3:2|3:2,0:0:0:0:
284,338,106430,6,0,L|265:236,1,103.500001974106,8|0,0:2|3:2,0:0:0:0:
132,15,106737,2,0,L|113:117,1,103.500001974106,10|0,0:2|3:2,0:0:0:0:
185,340,107045,1,10,0:2:0:0:
213,137,107199,1,0,3:2:0:0:
0,315,107353,1,10,0:2:0:0:
104,135,107507,1,2,3:2:0:0:
104,135,107584,1,0,3:2:0:0:
104,135,107660,5,8,0:2:0:0:
87,368,107814,1,2,3:2:0:0:
280,212,107968,2,0,P|330:199|380:213,1,103.500001974106,8|0,0:2|3:2,0:0:0:0:
485,384,108276,1,10,0:2:0:0:
442,149,108430,1,2,3:2:0:0:
326,351,108584,1,8,0:2:0:0:
331,100,108737,1,2,3:2:0:0:
331,100,108814,1,0,3:2:0:0:
331,100,108891,6,0,P|281:87|231:101,1,103.500001974106,12|0,0:2|3:2,0:0:0:0:
103,290,109199,2,0,P|139:253|152:204,1,103.500001974106,10|0,0:2|3:2,0:0:0:0:
23,15,109507,2,0,P|36:64|72:100,1,103.500001974106,10|0,0:2|3:2,0:0:0:0:
283,188,109814,1,10,0:2:0:0:
68,209,109968,2,0,L|17:199,1,51.7500009870529,0|0,3:2|3:2,0:0:0:0:
198,326,110122,6,0,L|300:307,1,103.500001974106,10|0,0:2|3:2,0:0:0:0:
507,209,110430,2,0,L|405:190,1,103.500001974106,10|0,0:2|3:2,0:0:0:0:
191,226,110737,1,10,0:2:0:0:
438,286,110891,1,0,3:2:0:0:
256,103,111045,1,10,0:2:0:0:
334,289,111199,1,0,3:2:0:0:
334,289,111276,1,0,3:2:0:0:
334,289,111353,6,0,P|298:252|284:202,1,103.500001974106,10|0,0:2|3:2,0:0:0:0:
452,0,111660,1,10,0:2:0:0:
408,189,111814,1,0,3:2:0:0:
247,6,111968,1,10,0:2:0:0:
468,99,112122,1,0,3:2:0:0:
187,155,112276,1,10,0:2:0:0:
344,0,112430,2,0,L|334:52,1,51.7500009870529,0|0,3:2|3:2,0:0:0:0:
282,227,112584,5,10,0:2:0:0:
142,49,112737,1,0,3:2:0:0:
200,314,112891,1,10,0:2:0:0:
289,123,113045,1,8,0:2:0:0:
289,123,113122,1,8,0:2:0:0:
289,123,113199,5,10,0:2:0:0:
400,278,113353,1,2,3:2:0:0:
385,33,113507,1,8,0:2:0:0:
208,337,113660,6,0,B|316:320|316:320|343:368|397:372,1,207.000003948212,6|0,3:2|3:2,0:0:0:0:
203,230,114122,2,0,P|153:244|104:230,1,103.500001974106,10|0,0:2|0:0,0:0:0:0:
0,67,114430,1,2,3:2:0:0:
154,152,114584,1,0,3:2:0:0:
0,238,114737,1,10,0:2:0:0:
118,33,114891,6,0,P|169:25|216:46,1,103.500001974106,2|0,0:0|3:2,0:0:0:0:
54,152,115199,1,2,3:2:0:0:
252,140,115353,2,0,L|354:121,1,103.500001974106,8|0,0:2|0:0,0:0:0:0:
512,0,115660,1,2,3:2:0:0:
509,190,115814,1,2,3:2:0:0:
386,0,115968,1,8,0:2:0:0:
413,220,116122,6,0,B|439:363|439:363|466:307,1,207.000003948212,2|0,0:2|3:2,0:0:0:0:
310,102,116584,2,0,L|329:204,1,103.500001974106,10|0,0:2|0:0,0:0:0:0:
207,359,116891,2,0,L|226:257,1,103.500001974106,2|0,3:2|3:2,0:0:0:0:
215,84,117199,1,10,0:2:0:0:
105,241,117353,6,0,L|86:139,1,103.500001974106,2|0,0:2|3:2,0:0:0:0:
234,236,117660,1,2,3:2:0:0:
163,6,117814,2,0,P|212:-9|262:3,1,103.500001974106,8|0,0:2|0:0,0:0:0:0:
374,194,118122,1,2,3:2:0:0:
215,84,118276,1,2,3:2:0:0:
440,50,118430,2,0,L|459:152,1,103.500001974106,8|2,0:2|0:2,0:0:0:0:
408,357,118737,5,4,3:2:0:0:
364,166,118891,1,0,3:2:0:0:
283,368,119045,2,0,L|303:261,1,103.500001974106,10|0,0:2|0:0,0:0:0:0:
214,85,119353,5,2,3:2:0:0:
169,275,119507,1,0,3:2:0:0:
89,74,119660,2,0,L|109:181,1,103.500001974106,10|0,0:2|0:0,0:0:0:0:
22,357,119968,5,2,3:2:0:0:
4,164,120122,1,0,3:2:0:0:
116,347,120276,2,0,P|167:362|220:350,1,103.500001974106,10|0,0:2|0:0,0:0:0:0:
318,180,120584,5,2,3:2:0:0:
336,373,120737,1,0,3:2:0:0:
224,190,120891,2,0,P|173:175|120:187,1,103.500001974106,10|0,0:2|3:2,0:0:0:0:
0,362,121199,5,2,3:2:0:0:
171,275,121353,1,0,3:2:0:0:
4,164,121507,2,0,L|24:271,1,103.500001974106,10|0,0:2|0:0,0:0:0:0:
143,83,121814,2,0,L|123:190,1,103.500001974106,2|0,3:2|3:2,0:0:0:0:
88,3,122122,2,0,P|137:-12|187:0,1,103.500001974106,10|0,0:2|3:2,0:0:0:0:
377,149,122430,5,10,0:2:0:0:
143,83,122584,1,8,0:2:0:0:
400,14,122737,1,10,0:2:0:0:
238,211,122891,1,8,0:2:0:0:
186,0,123045,5,10,0:2:0:0:
354,260,123199,1,8,0:2:0:0:
298,0,123353,1,8,0:2:0:0:
217,250,123507,1,0,3:2:0:0:
466,95,123660,5,14,0:2:0:0:
222,114,123814,1,2,3:2:0:0:
203,117,124122,1,2,3:2:0:0:
184,120,124430,1,2,3:2:0:0:
0,244,124584,5,10,0:2:0:0:
56,70,124737,1,2,3:2:0:0:
75,73,125045,1,2,3:2:0:0:
94,76,125353,1,2,3:2:0:0:
278,200,125507,5,10,0:2:0:0:
88,182,125660,1,2,3:2:0:0:
248,299,125814,1,8,0:2:0:0:
278,305,125891,1,8,0:2:0:0:
309,310,125968,1,8,0:2:0:0:
339,315,126045,1,8,0:2:0:0:
369,321,126122,6,0,B|378:285|378:285|367:247,1,76.5000014591217,6|2,3:2|3:2,0:0:0:0:
472,105,126430,2,0,B|463:141|463:141|474:179,1,76.5000014591217,10|2,0:2|3:2,0:0:0:0:
381,28,126737,1,2,3:2:0:0:
306,162,126891,1,2,3:2:0:0:
242,3,127045,2,0,L|167:16,1,76.5000014591217,10|2,0:2|3:2,0:0:0:0:
27,112,127353,5,2,3:2:0:0:
187,118,127507,1,2,3:2:0:0:
37,213,127660,2,0,P|29:251|37:288,1,76.5000014591217,10|2,0:2|3:2,0:0:0:0:
186,384,127968,1,2,3:2:0:0:
117,251,128122,1,2,3:2:0:0:
283,346,128276,2,0,L|358:333,1,76.5000014591217,10|2,0:2|3:2,0:0:0:0:
504,217,128584,5,14,0:2:0:0:
294,231,128737,1,2,3:2:0:0:
291,212,129045,1,2,3:2:0:0:
288,193,129353,1,2,3:2:0:0:
164,9,129507,5,10,0:2:0:0:
338,65,129660,1,2,3:2:0:0:
335,84,129968,1,2,3:2:0:0:
332,103,130276,1,2,3:2:0:0:
208,287,130430,5,10,0:2:0:0:
226,97,130584,1,2,3:2:0:0:
109,257,130737,1,8,0:2:0:0:
103,287,130814,1,8,0:2:0:0:
98,318,130891,1,8,0:2:0:0:
93,348,130968,1,8,0:2:0:0:
87,378,131045,6,0,B|123:387|123:387|161:376,1,76.5000014591217,6|2,3:2|3:2,0:0:0:0:
358,332,131353,2,0,B|322:341|322:341|284:330,1,76.5000014591217,10|2,0:2|3:2,0:0:0:0:
434,225,131660,1,2,3:2:0:0:
444,383,131814,1,2,3:2:0:0:
347,217,131968,2,0,L|360:142,1,76.5000014591217,10|2,0:2|3:2,0:0:0:0:
490,6,132276,5,2,3:2:0:0:
444,182,132430,1,2,3:2:0:0:
309,23,132584,1,10,0:2:0:0:
502,106,132737,5,2,3:2:0:0:
271,134,132891,1,2,3:2:0:0:
487,211,133045,1,10,0:2:0:0:
394,0,133199,1,8,0:2:0:0:
343,236,133353,6,0,B|324:331|324:331|284:373|250:342,1,180,6|0,3:2|3:2,0:0:0:0:
226,130,133814,2,0,L|209:225,1,90,10|0,0:2|0:0,0:0:0:0:
157,384,134122,1,2,3:2:0:0:
121,213,134276,1,2,3:2:0:0:
31,371,134430,2,0,L|46:282,1,90,8|2,0:2|0:2,0:0:0:0:
112,125,134737,5,2,3:2:0:0:
137,301,134891,1,2,3:2:0:0:
23,121,135045,2,0,P|34:79|65:46,1,90,8|2,0:2|0:2,0:0:0:0:
211,0,135353,1,0,3:2:0:0:
112,125,135507,1,2,3:2:0:0:
299,45,135660,2,0,P|342:35|385:44,1,90,10|0,0:2|0:0,0:0:0:0:
499,230,135968,6,0,B|459:272|459:272|481:151,1,180,2|8,3:2|0:2,0:0:0:0:
512,0,136430,1,0,0:0:0:0:
383,173,136584,2,0,L|351:354,1,180,2|8,3:2|0:2,0:0:0:0:
499,230,137045,1,0,3:2:0:0:
277,273,137199,6,0,B|158:296|158:296|120:250,1,180,2|8,0:2|0:2,0:0:0:0:
36,96,137660,1,0,0:0:0:0:
202,192,137814,1,2,3:2:0:0:
2,199,137968,1,0,3:2:0:0:
166,62,138122,2,0,L|255:77,1,90,8|0,0:2|0:0,0:0:0:0:
422,146,138430,6,0,L|333:161,1,90,2|0,3:2|3:2,0:0:0:0:
499,83,138737,2,0,P|518:122|518:167,1,90,10|0,0:2|0:0,0:0:0:0:
414,30,139045,1,2,3:2:0:0:
456,224,139199,2,0,L|441:313,1,90,2|8,3:2|0:2,0:0:0:0:
265,253,139507,2,0,P|309:243|353:253,1,90,2|0,0:2|3:2,0:0:0:0:
225,349,139814,2,0,P|181:360|137:350,1,90,2|8,3:2|0:2,0:0:0:0:
197,178,140122,6,0,L|182:267,1,90,2|0,0:2|3:2,0:0:0:0:
47,384,140430,1,2,3:2:0:0:
7,209,140584,2,0,L|22:120,1,90,10|0,0:2|0:0,0:0:0:0:
228,71,140891,6,0,P|145:93|78:37,1,180,2|8,3:2|0:2,0:0:0:0:
276,0,141353,1,0,3:2:0:0:
350,177,141507,2,0,B|362:248|362:248|398:266|398:266|408:332,1,180,2|8,0:2|0:2,0:0:0:0:
455,177,141968,1,0,3:2:0:0:
317,333,142122,6,0,B|279:323|231:352|231:352|198:309|154:305,1,180,2|8,0:2|0:2,0:0:0:0:
7,268,142584,1,0,0:0:0:0:
168,213,142737,1,2,3:2:0:0:
66,361,142891,1,0,3:2:0:0:
34,174,143045,2,0,P|41:130|66:94,1,90,8|0,0:2|0:0,0:0:0:0:
229,71,143353,5,2,0:2:0:0:
256,192,143430,12,0,144584,3:2:0:0:
194,197,154122,6,0,L|182:123,1,74.2500022659302,2|0,0:2|0:0,0:0:0:0:
128,57,154430,6,0,L|164:260,1,207.000003948212,6|8,3:2|0:2,0:0:0:0:
35,99,154891,1,2,0:2:0:0:
71,294,155045,2,0,P|102:334|149:355,1,103.500001974106,0|0,3:2|0:0,0:0:0:0:
341,322,155353,2,0,B|291:309|291:309|240:322,1,103.500001974106,10|0,0:2|0:0,0:0:0:0:
460,179,155660,6,0,B|440:288|440:288|415:251,1,155.250002961159,2|0,3:2|0:0,0:0:0:0:
373,172,155968,1,8,0:2:0:0:
413,371,156122,1,2,0:2:0:0:
292,202,156276,2,0,L|181:182,1,103.500001974106,0|0,3:2|0:0,0:0:0:0:
373,84,156584,2,0,L|484:64,1,103.500001974106,10|0,0:2|0:0,0:0:0:0:
268,35,156891,6,0,B|160:52|160:52|133:4|79:0,1,207.000003948212,2|8,3:2|0:2,0:0:0:0:
253,136,157353,1,2,0:2:0:0:
62,209,157507,2,0,P|51:159|66:110,1,103.500001974106,0|0,3:2|0:0,0:0:0:0:
159,276,157814,2,0,B|123:313|123:313|73:329,1,103.500001974106,10|0,0:2|0:0,0:0:0:0:
253,136,158122,6,0,B|292:168|292:168|272:270,1,155.250002961159,2|0,3:2|0:0,0:0:0:0:
218,341,158430,1,8,0:2:0:0:
168,151,158584,1,2,0:2:0:0:
356,326,158737,2,0,L|374:224,1,103.500001974106,0|0,3:2|0:0,0:0:0:0:
459,35,159045,1,10,0:2:0:0:
505,226,159199,1,2,0:2:0:0:
346,82,159353,6,0,B|263:96|263:96|242:138|242:138|168:150,1,207.000003948212,2|10,3:2|0:2,0:0:0:0:
16,260,159814,1,2,0:2:0:0:
218,340,159968,2,0,P|228:290|214:242,1,103.500001974106,0|0,3:2|0:0,0:0:0:0:
47,64,160276,2,0,L|65:166,1,103.500001974106,10|0,0:2|0:0,0:0:0:0:
106,370,160584,5,10,0:2:0:0:
106,370,160660,1,0,3:2:0:0:
106,370,160737,2,0,L|114:319,1,51.7500009870529,0|0,3:2|3:2,0:0:0:0:
167,150,160891,5,8,0:2:0:0:
218,340,161045,1,8,0:2:0:0:
64,165,161199,1,10,0:2:0:0:
248,231,161353,1,10,0:2:0:0:
34,261,161507,1,8,0:2:0:0:
240,55,161660,6,0,B|404:23|404:23|446:75,1,233.999989288331,6|0,3:2|3:2,0:0:0:0:
494,329,162122,1,10,0:2:0:0:
368,126,162276,1,0,3:2:0:0:
288,378,162430,1,10,0:2:0:0:
480,227,162584,1,0,3:2:0:0:
214,195,162737,1,10,0:2:0:0:
394,379,162891,1,2,3:2:0:0:
394,379,162968,1,0,3:2:0:0:
394,379,163045,6,0,L|373:260,1,116.999994644165,8|2,0:2|3:2,0:0:0:0:
234,79,163353,2,0,L|213:197,1,116.999994644165,8|0,0:2|3:2,0:0:0:0:
288,378,163660,1,10,0:2:0:0:
49,285,163814,1,2,3:2:0:0:
316,212,163968,1,8,0:2:0:0:
60,128,164122,2,0,L|-12:140,1,58.4999973220826,2|0,3:2|3:2,0:0:0:0:
308,59,164276,5,8,0:2:0:0:
144,256,164430,1,0,3:2:0:0:
206,2,164584,1,10,0:2:0:0:
290,231,164737,1,0,3:2:0:0:
414,0,164891,1,10,0:2:0:0:
451,215,165045,1,0,3:2:0:0:
232,111,165199,1,10,0:2:0:0:
509,121,165353,1,2,3:2:0:0:
509,121,165430,1,0,3:2:0:0:
509,121,165507,6,0,P|455:103|399:119,1,116.999994644165,8|2,0:2|3:2,0:0:0:0:
432,331,165814,2,0,L|451:216,1,116.999994644165,8|0,0:2|3:2,0:0:0:0:
308,59,166122,1,10,0:2:0:0:
304,327,166276,1,2,3:2:0:0:
398,119,166430,1,8,0:2:0:0:
159,269,166584,1,2,3:2:0:0:
159,269,166660,1,0,3:2:0:0:
159,269,166737,6,0,L|25:292,1,116.999994644165,12|0,0:2|3:2,0:0:0:0:
254,130,167045,2,0,L|369:149,1,116.999994644165,10|0,0:2|3:2,0:0:0:0:
512,319,167353,1,10,0:2:0:0:
461,89,167507,1,0,3:2:0:0:
333,295,167660,1,10,0:2:0:0:
372,61,167814,2,0,L|360:-9,1,58.4999973220826,0|0,3:2|3:2,0:0:0:0:
426,273,167968,6,0,P|421:331|385:376,1,116.999994644165,10|0,0:2|3:2,0:0:0:0:
164,174,168276,2,0,P|218:156|274:172,1,116.999994644165,10|0,0:2|3:2,0:0:0:0:
241,384,168584,2,0,L|222:269,1,116.999994644165,10|0,0:2|3:2,0:0:0:0:
95,74,168891,1,10,0:2:0:0:
25,300,169045,1,0,3:2:0:0:
25,300,169122,1,0,3:2:0:0:
25,300,169199,6,0,L|44:185,1,116.999994644165,10|0,0:2|3:2,0:0:0:0:
180,17,169507,1,10,0:2:0:0:
136,257,169660,1,0,3:2:0:0:
302,60,169814,1,10,0:2:0:0:
316,293,169968,1,0,3:2:0:0:
134,109,170122,1,10,0:2:0:0:
383,173,170276,2,0,L|453:161,1,58.4999973220826,0|0,3:2|3:2,0:0:0:0:
146,239,170430,5,10,0:2:0:0:
400,318,170584,1,0,3:2:0:0:
230,122,170737,1,10,0:2:0:0:
254,378,170891,1,8,0:2:0:0:
254,378,170968,1,8,0:2:0:0:
254,378,171045,5,10,0:2:0:0:
328,95,171199,1,2,3:2:0:0:
481,344,171353,1,8,0:2:0:0:
403,36,171507,6,0,P|298:1|231:88,1,233.999989288331,6|0,3:2|3:2,0:0:0:0:
359,286,171968,2,0,P|377:231|361:176,1,116.999994644165,10|0,0:2|0:0,0:0:0:0:
149,29,172276,1,2,3:2:0:0:
209,267,172430,1,0,3:2:0:0:
333,97,172584,1,10,0:2:0:0:
77,98,172737,6,0,L|58:213,1,116.999994644165,2|0,0:0|3:2,0:0:0:0:
231,86,173045,1,2,3:2:0:0:
133,321,173199,2,0,P|179:355|236:356,1,116.999994644165,8|2,0:2|0:2,0:0:0:0:
371,197,173507,1,2,3:2:0:0:
149,165,173660,1,2,3:2:0:0:
237,356,173814,1,8,0:2:0:0:
296,131,173968,1,2,0:2:0:0:
427,355,174122,5,0,3:2:0:0:
209,267,174276,1,0,3:2:0:0:
456,148,174430,2,0,L|475:263,1,116.999994644165,10|0,0:2|0:0,0:0:0:0:
311,131,174737,2,0,L|330:16,1,116.999994644165,2|0,3:2|3:2,0:0:0:0:
371,240,175045,1,10,0:2:0:0:
166,148,175199,6,0,L|185:263,1,116.999994644165,2|0,0:2|3:2,0:0:0:0:
64,145,175507,1,2,0:2:0:0:
130,340,175660,2,0,P|185:358|240:342,1,116.999994644165,8|0,0:2|0:0,0:0:0:0:
423,222,175968,1,2,3:2:0:0:
185,263,176122,1,2,3:2:0:0:
446,360,176276,2,0,P|464:305|448:250,1,116.999994644165,8|2,0:2|0:2,0:0:0:0:
287,75,176584,5,4,3:2:0:0:
485,164,176737,1,0,3:2:0:0:
273,185,176891,1,10,0:2:0:0:
448,60,177045,1,0,3:2:0:0:
266,64,177199,5,2,3:2:0:0:
512,174,177353,1,0,3:2:0:0:
249,199,177507,1,10,0:2:0:0:
466,45,177660,1,0,3:2:0:0:
349,250,177814,5,2,3:2:0:0:
245,39,177968,1,0,3:2:0:0:
174,262,178122,1,10,0:2:0:0:
128,32,178276,1,0,3:2:0:0:
344,139,178430,5,2,3:2:0:0:
110,161,178584,1,0,3:2:0:0:
303,328,178737,1,10,0:2:0:0:
224,132,178891,1,0,3:2:0:0:
224,132,178968,1,0,3:2:0:0:
224,132,179045,5,6,3:2:0:0:
159,353,179199,1,0,3:2:0:0:
76,133,179353,1,2,0:2:0:0:
286,230,179507,1,0,3:2:0:0:
286,230,179584,1,0,3:2:0:0:
286,230,179660,5,6,3:2:0:0:
67,271,179814,1,0,3:2:0:0:
170,34,179968,1,2,0:2:0:0:
195,277,180122,1,0,3:2:0:0:
195,277,180199,1,0,3:2:0:0:
195,277,180276,5,10,0:2:0:0:
296,65,180430,1,0,3:2:0:0:
399,326,180584,5,10,0:2:0:0:
224,132,180737,1,8,0:2:0:0:
389,205,180891,2,0,P|444:208|487:171,1,114.750002188683,2|0,0:2|0:0,0:0:0:0:
494,145,181199,2,0,L|479:63,1,76.5000014591217,2|0,0:2|0:0,0:0:0:0:
256,25,181507,5,14,0:2:0:0:
218,32,181584,1,8,0:2:0:0:
181,38,181660,1,8,0:2:0:0:
143,44,181737,1,8,0:2:0:0:
106,52,181814,1,8,0:2:0:0:
69,62,181891,1,8,0:2:0:0:
40,85,181968,1,8,0:2:0:0:
21,118,182045,1,8,0:2:0:0:
16,155,182122,1,8,0:2:0:0:
27,200,182199,1,8,0:2:0:0:
59,235,182276,1,8,0:2:0:0:
103,251,182353,1,8,0:2:0:0:
149,247,182430,1,8,0:2:0:0:
188,222,182507,1,8,0:2:0:0:
211,181,182584,2,0,L|221:127,1,51.7500009870529,8|8,0:2|0:2,0:0:0:0:
345,38,182737,6,0,B|334:80|334:80|350:123,1,90,6|2,3:2|3:2,0:0:0:0:
454,272,183045,1,8,0:2:0:0:
512,72,183199,2,0,B|470:61|470:61|427:77,1,90,2|0,0:2|3:2,0:0:0:0:
274,190,183507,1,2,3:2:0:0:
475,159,183660,2,0,L|459:248,1,90,10|0,0:2|0:0,0:0:0:0:
333,384,183968,5,2,3:2:0:0:
369,216,184122,1,2,3:2:0:0:
484,362,184276,1,8,0:2:0:0:
299,288,184430,2,0,P|257:277|214:288,1,90,2|0,0:2|3:2,0:0:0:0:
92,384,184737,1,2,3:2:0:0:
156,208,184891,2,0,L|140:119,1,90,10|0,0:2|0:0,0:0:0:0:
23,4,185199,5,2,3:2:0:0:
50,163,185353,1,2,3:2:0:0:
166,0,185507,1,8,0:2:0:0:
244,166,185660,2,0,P|287:178|330:167,1,90,2|0,0:2|3:2,0:0:0:0:
468,64,185968,1,2,3:2:0:0:
288,84,186122,1,8,0:2:0:0:
423,235,186276,6,0,B|405:329|405:329|365:370|332:340,1,180,2|2,3:2|3:2,0:0:0:0:
244,166,186737,1,8,0:2:0:0:
164,347,186891,2,0,B|122:358|122:358|79:342,1,90,2|0,0:2|3:2,0:0:0:0:
243,274,187199,1,2,3:2:0:0:
50,211,187353,2,0,P|38:168|50:125,1,90,14|0,0:2|0:0,0:0:0:0:
231,78,187660,6,0,B|189:89|189:89|146:73,1,90,6|2,3:2|3:2,0:0:0:0:
294,2,187968,1,8,0:2:0:0:
330,190,188122,2,0,B|319:148|319:148|335:105,1,90,2|0,0:2|3:2,0:0:0:0:
444,0,188430,1,2,3:2:0:0:
510,175,188584,2,0,L|494:264,1,90,10|0,0:2|0:0,0:0:0:0:
360,343,188891,5,2,3:2:0:0:
414,193,189045,1,2,3:2:0:0:
491,363,189199,1,8,0:2:0:0:
295,266,189353,2,0,P|252:254|209:265,1,90,2|0,0:2|3:2,0:0:0:0:
101,384,189660,1,2,3:2:0:0:
31,215,189814,2,0,L|47:126,1,90,10|0,0:2|0:0,0:0:0:0:
163,12,190122,5,2,3:2:0:0:
162,173,190276,1,2,3:2:0:0:
51,0,190430,1,8,0:2:0:0:
221,94,190584,2,0,P|263:105|306:95,1,90,2|0,0:2|3:2,0:0:0:0:
435,0,190891,1,2,3:2:0:0:
377,198,191045,1,10,0:2:0:0:
512,63,191199,1,8,0:2:0:0:
512,63,191276,1,8,0:2:0:0:
512,63,191353,5,10,0:2:0:0:
447,311,191507,1,10,0:2:0:0:
388,83,191660,1,8,0:2:0:0:
243,277,191814,1,10,0:2:0:0:
511,203,191968,1,8,0:2:0:0:
244,105,192122,2,0,B|123:83|123:83|165:123,1,180,6|0,3:2|3:2,0:0:0:0:
377,198,192584,5,6,3:2:0:0:
256,192,192660,12,2,198891,0:2:0:0:
