osu file format v14

[General]
AudioFilename: audio.mp3
AudioLeadIn: 0
PreviewTime: 161122
Countdown: 0
SampleSet: Soft
StackLeniency: 0.6
Mode: 0
LetterboxInBreaks: 0
EpilepsyWarning: 1
WidescreenStoryboard: 1

[Editor]
Bookmarks: 584,5507,10430,20276,30122,39968,46122,47199,57045,67045,76891,86737,96584,102737,103814,113660,123660,133353,144584,154122,154430,161660,171507,182737,192584,198891
DistanceSpacing: 1.8
BeatDivisor: 4
GridSize: 8
TimelineZoom: 2.599999

[Metadata]
Title:Mikansei Koukyoukyoku
TitleUnicode:未完成交響曲
Artist:ONE OK ROCK
ArtistUnicode:ONE OK ROCK
Creator:TheSea
Version:Hard
Source:
Tags:Nicheシンドローム Niche Syndrome Japanese Jp JRock J-Rock Rock OOR Taka Toru Ryota Tomoya Pepekcz Akareh
BeatmapID:2578656
BeatmapSetID:1229815

[Difficulty]
HPDrainRate:4.5
CircleSize:3.6
OverallDifficulty:6.5
ApproachRate:8
SliderMultiplier:1.5
SliderTickRate:1

[Events]
//Background and Video events
0,0,"Bg.jpg",0,0
//Break Periods
2,40167,45372
2,68476,76141
2,96783,101987
2,144784,153372
//Storyboard Layer 0 (Background)
//Storyboard Layer 1 (Fail)
//Storyboard Layer 2 (Pass)
//Storyboard Layer 3 (Foreground)
Sprite,Foreground,Centre,"sb\circle.png",382,324 C,0,9354,,255,255,0 F,2,9354,9754,0.4,0 S,2,9354,9754,1,0.2 P,0,9354,9754,A
Sprite,Foreground,Centre,"sb\circle.png",382,324 C,0,9431,,255,255,0 F,2,9431,9831,0.4,0 S,2,9431,9831,1,0.2 P,0,9431,9831,A
Sprite,Foreground,Centre,"sb\circle.png",0,0 C,0,9507,,255,255,0 M,0,9507,9545,382,324,378.8142,305.5226 F,2,9507,10137,0.4,0 S,2,9507,10137,1,0.2 P,0,9507,10137,A M,0,9545,9583,378.8142,305.5226,375.6285,287.0452 M,0,9583,9622,375.6285,287.0452,378.8142,305.5226 M,0,9622,9660,378.8142,305.5226,382,324 M,0,9660,9699,382,324,378.8142,305.5226 M,0,9699,9737,378.8142,305.5226,375.6285,287.0452
Sprite,Foreground,Centre,"sb\circle.png",0,0 C,0,9815,,255,255,0 M,0,9815,9853,350,250,346.8142,231.5226 F,2,9815,10445,0.4,0 S,2,9815,10445,1,0.2 P,0,9815,10445,A M,0,9853,9891,346.8142,231.5226,343.6285,213.0452 M,0,9891,9930,343.6285,213.0452,346.8142,231.5226 M,0,9930,9968,346.8142,231.5226,350,250 M,0,9968,10007,350,250,346.8142,231.5226 M,0,10007,10045,346.8142,231.5226,343.6285,213.0452
Sprite,Foreground,Centre,"sb\circle.png",0,0 C,0,10123,,255,255,0 M,0,10123,10161,318,176,314.8142,157.5226 F,2,10123,10753,0.4,0 S,2,10123,10753,1,0.2 P,0,10123,10753,A M,0,10161,10199,314.8142,157.5226,311.6285,139.0452 M,0,10199,10238,311.6285,139.0452,314.8142,157.5226 M,0,10238,10276,314.8142,157.5226,318,176 M,0,10276,10315,318,176,314.8142,157.5226 M,0,10315,10353,314.8142,157.5226,311.6285,139.0452
Sprite,Foreground,Centre,"sb\circle.png",0,0 C,0,46123,,0,64,128 M,0,46123,46161,445,119,448.1858,137.4774 F,2,46123,46753,0.4,0 S,2,46123,46753,1,0.2 P,0,46123,46753,A M,0,46161,46199,448.1858,137.4774,451.3715,155.9548 M,0,46199,46238,451.3715,155.9548,448.1858,137.4774 M,0,46238,46276,448.1858,137.4774,445,119 M,0,46276,46315,445,119,448.1858,137.4774 M,0,46315,46353,448.1858,137.4774,451.3715,155.9548
Sprite,Foreground,Centre,"sb\circle.png",477,193 C,0,46431,,0,64,128 F,2,46431,46831,0.4,0 S,2,46431,46831,1,0.2 P,0,46431,46831,A
Sprite,Foreground,Centre,"sb\circle.png",535,124 C,0,46584,,0,64,128 F,2,46584,46984,0.4,0 S,2,46584,46984,1,0.2 P,0,46584,46984,A
Sprite,Foreground,Centre,"sb\circle.png",0,0 C,0,66431,,0,255,255 M,0,66431,66469,371,200,374.345,219.4012 F,2,66431,67061,0.4,0 S,2,66431,67061,1,0.2 P,0,66431,67061,A M,0,66469,66507,374.345,219.4012,377.6901,238.8025 M,0,66507,66546,377.6901,238.8025,374.345,219.4012 M,0,66546,66584,374.345,219.4012,371,200 M,0,66584,66623,371,200,374.345,219.4012 M,0,66623,66661,374.345,219.4012,377.6901,238.8025
Sprite,Foreground,Centre,"sb\circle.png",0,0 C,0,66738,,0,255,255 M,0,66738,66776,415,272,418.345,291.4012 F,2,66738,67368,0.4,0 S,2,66738,67368,1,0.2 P,0,66738,67368,A M,0,66776,66814,418.345,291.4012,421.6901,310.8025 M,0,66814,66853,421.6901,310.8025,418.345,291.4012 M,0,66853,66891,418.345,291.4012,415,272 M,0,66891,66930,415,272,418.345,291.4012 M,0,66930,66968,418.345,291.4012,421.6901,310.8025
Sprite,Foreground,Centre,"sb\circle.png",0,0 C,0,102738,,0,64,128 M,0,102738,102776,195,119,191.8142,137.4774 F,2,102738,103368,0.4,0 S,2,102738,103368,1,0.2 P,0,102738,103368,A M,0,102776,102814,191.8142,137.4774,188.6285,155.9548 M,0,102814,102853,188.6285,155.9548,191.8142,137.4774 M,0,102853,102891,191.8142,137.4774,195,119 M,0,102891,102930,195,119,191.8142,137.4774 M,0,102930,102968,191.8142,137.4774,188.6285,155.9548
Sprite,Foreground,Centre,"sb\circle.png",163,193 C,0,103046,,0,64,128 F,2,103046,103446,0.4,0 S,2,103046,103446,1,0.2 P,0,103046,103446,A
Sprite,Foreground,Centre,"sb\circle2.png",0,0 C,0,126123,,255,255,0 M,0,126123,126161,98,207,100.58,221.7765 F,2,126123,126676,0.4,0 S,2,126123,126676,0.3,0.06 P,0,126123,126676,A M,0,126161,126199,100.58,221.7765,103.16,236.5529 M,0,126199,126238,103.16,236.5529,105.7401,251.3294 M,0,126238,126276,105.7401,251.3294,108.3201,266.1058
Sprite,Foreground,Centre,"sb\circle2.png",0,0 C,0,126431,,255,255,0 M,0,126431,126469,164,329,176.6925,336.8962 F,2,126431,127138,0.4,0 S,2,126431,127138,0.3,0.06 P,0,126431,127138,A M,0,126469,126507,176.6925,336.8962,190.3246,342.9593 M,0,126507,126546,190.3246,342.9593,204.7918,346.6972 M,0,126546,126584,204.7918,346.6972,219.7111,347.9998 M,0,126584,126623,219.7111,347.9998,234.5524,346.2166 M,0,126623,126661,234.5524,346.2166,248.9786,342.4123 M,0,126661,126700,248.9786,342.4123,262.6005,336.2722 M,0,126700,126738,262.6005,336.2722,275,328
Sprite,Foreground,Centre,"sb\circle2.png",332,266 C,0,126892,,255,255,0 F,2,126892,127292,0.4,0 S,2,126892,127292,0.3,0.06 P,0,126892,127292,A
Sprite,Foreground,Centre,"sb\circle2.png",0,0 C,0,127046,,255,255,0 M,0,127046,127084,384,329,398.2801,333.3891 F,2,127046,127599,0.4,0 S,2,127046,127599,0.3,0.06 P,0,127046,127599,A M,0,127084,127122,398.2801,333.3891,413.0188,335.6261 M,0,127122,127161,413.0188,335.6261,427.9507,335.2209 M,0,127161,127199,427.9507,335.2209,442.5963,332.1088
Sprite,Foreground,Centre,"sb\circle2.png",0,0 C,0,127354,,0,255,255 M,0,127354,127392,476,410,488.6338,401.9844 F,2,127354,127907,0.4,0 S,2,127354,127907,0.3,0.06 P,0,127354,127907,A M,0,127392,127430,488.6338,401.9844,500.1366,392.4559 M,0,127430,127469,500.1366,392.4559,510.1044,381.3224 M,0,127469,127507,510.1044,381.3224,518.4157,368.8729
Sprite,Foreground,Centre,"sb\circle2.png",0,0 C,0,127661,,0,255,255 M,0,127661,127699,518,285,515.5341,270.2041 F,2,127661,128368,0.4,0 S,2,127661,128368,0.3,0.06 P,0,127661,128368,A M,0,127699,127737,515.5341,270.2041,513.068,255.4082 M,0,127737,127776,513.068,255.4082,510.6021,240.6123 M,0,127776,127814,510.6021,240.6123,502.1808,228.7898 M,0,127814,127853,502.1808,228.7898,491.8359,217.9277 M,0,127853,127891,491.8359,217.9277,487.9716,203.83 M,0,127891,127930,487.9716,203.83,485.5057,189.0341 M,0,127930,127968,485.5057,189.0341,483.0397,174.2382
Sprite,Foreground,Centre,"sb\circle2.png",449,96 C,0,128123,,0,255,255 F,2,128123,128523,0.4,0 S,2,128123,128523,0.3,0.06 P,0,128123,128523,A
Sprite,Foreground,Centre,"sb\circle2.png",0,0 C,0,128277,,0,255,255 M,0,128277,128315,392,158,377.2235,155.42 F,2,128277,128830,0.4,0 S,2,128277,128830,0.3,0.06 P,0,128277,128830,A M,0,128315,128353,377.2235,155.42,362.4471,152.84 M,0,128353,128392,362.4471,152.84,347.6707,150.2599 M,0,128392,128430,347.6707,150.2599,332.8942,147.6799
Sprite,Foreground,Centre,"sb\circle2.png",0,0 C,0,131046,,0,128,255 M,0,131046,131084,344,393,358.2801,397.3891 F,2,131046,131599,0.4,0 S,2,131046,131599,0.3,0.06 P,0,131046,131599,A M,0,131084,131122,358.2801,397.3891,373.0188,399.6261 M,0,131122,131161,373.0188,399.6261,387.9507,399.2209 M,0,131161,131199,387.9507,399.2209,402.5963,396.1088
Sprite,Foreground,Centre,"sb\circle2.png",0,0 C,0,131354,,0,128,255 M,0,131354,131392,464,337,466.4861,322.2075 F,2,131354,132061,0.4,0 S,2,131354,132061,0.3,0.06 P,0,131354,132061,A M,0,131392,131430,466.4861,322.2075,468.9723,307.4149 M,0,131430,131469,468.9723,307.4149,471.4584,292.6224 M,0,131469,131507,471.4584,292.6224,473.9445,277.8299 M,0,131507,131546,473.9445,277.8299,476.4307,263.0373 M,0,131546,131584,476.4307,263.0373,478.9168,248.2448 M,0,131584,131623,478.9168,248.2448,481.403,233.4523 M,0,131623,131661,481.403,233.4523,483.8891,218.6597
Sprite,Foreground,Centre,"sb\circle2.png",443,145 C,0,131815,,0,128,255 F,2,131815,132215,0.4,0 S,2,131815,132215,0.3,0.06 P,0,131815,132215,A
Sprite,Foreground,Centre,"sb\circle2.png",0,0 C,0,131969,,0,128,255 M,0,131969,132007,385,206,370.7199,210.3891 F,2,131969,132522,0.4,0 S,2,131969,132522,0.3,0.06 P,0,131969,132522,A M,0,132007,132045,370.7199,210.3891,355.9812,212.6261 M,0,132045,132084,355.9812,212.6261,341.0493,212.2208 M,0,132084,132122,341.0493,212.2208,326.4037,209.1088
Sprite,Foreground,Centre,"sb\circle2.png",0,0 C,0,132277,,255,255,0 M,0,132277,132315,276,140,261.7199,135.6109 F,2,132277,132830,0.4,0 S,2,132277,132830,0.3,0.06 P,0,132277,132830,A M,0,132315,132353,261.7199,135.6109,246.9812,133.3739 M,0,132353,132392,246.9812,133.3739,232.0493,133.7792 M,0,132392,132430,232.0493,133.7792,217.4037,136.8912
Sprite,Foreground,Centre,"sb\circle2.png",0,0 C,0,132584,,255,255,0 M,0,132584,132622,150,188,147.42,202.7765 F,2,132584,133137,0.4,0 S,2,132584,133137,0.3,0.06 P,0,132584,133137,A M,0,132622,132660,147.42,202.7765,144.84,217.5529 M,0,132660,132699,144.84,217.5529,142.2599,232.3294 M,0,132699,132737,142.2599,232.3294,139.6799,247.1058
Sprite,Foreground,Centre,"sb\circle2.png",177,327 C,0,132892,,255,255,0 F,2,132892,133292,0.4,0 S,2,132892,133292,0.3,0.06 P,0,132892,133292,A
Sprite,Foreground,Centre,"sb\circle2.png",177,327 C,0,133046,,255,255,0 F,2,133046,133446,0.4,0 S,2,133046,133446,0.3,0.06 P,0,133046,133446,A
Sprite,Foreground,Centre,"sb\circle2.png",227,260 C,0,133200,,255,255,0 F,2,133200,133600,0.4,0 S,2,133200,133600,0.3,0.06 P,0,133200,133600,A
Sprite,Foreground,Centre,"sb\circle2.png",0,0 C,0,160584,,0,128,255 M,0,160584,160622,290,399,293.4855,380.5768 F,2,160584,161214,0.4,0 S,2,160584,161214,0.3,0.06 P,0,160584,161214,A M,0,160622,160660,293.4855,380.5768,296.9709,362.1536 M,0,160660,160699,296.9709,362.1536,293.4855,380.5768 M,0,160699,160737,293.4855,380.5768,290,399 M,0,160737,160776,290,399,293.4855,380.5768 M,0,160776,160814,293.4855,380.5768,296.9709,362.1536
Sprite,Foreground,Centre,"sb\circle2.png",0,0 C,0,160892,,255,255,0 M,0,160892,160930,321,324,339.4672,320.7558 F,2,160892,161445,0.4,0 S,2,160892,161445,0.3,0.06 P,0,160892,161445,A M,0,160930,160968,339.4672,320.7558,357.9344,317.5115 M,0,160968,161007,357.9344,317.5115,376.4016,314.2673 M,0,161007,161045,376.4016,314.2673,394.8688,311.0231
Sprite,Foreground,Centre,"sb\circle2.png",456,244 C,0,161200,,255,255,0 F,2,161200,161600,0.4,0 S,2,161200,161600,0.3,0.06 P,0,161200,161600,A
Sprite,Foreground,Centre,"sb\circle2.png",456,244 C,0,161354,,255,255,0 F,2,161354,161754,0.4,0 S,2,161354,161754,0.3,0.06 P,0,161354,161754,A
Sprite,Foreground,Centre,"sb\circle.png",0,0 C,0,160584,,0,128,255 M,0,160584,160622,290,399,293.4855,380.5768 F,2,160584,161214,0.4,0 S,2,160584,161214,2,0.4 P,0,160584,161214,A M,0,160622,160660,293.4855,380.5768,296.9709,362.1536 M,0,160660,160699,296.9709,362.1536,293.4855,380.5768 M,0,160699,160737,293.4855,380.5768,290,399 M,0,160737,160776,290,399,293.4855,380.5768 M,0,160776,160814,293.4855,380.5768,296.9709,362.1536
Sprite,Foreground,Centre,"sb\circle.png",0,0 C,0,160892,,255,255,0 M,0,160892,160930,321,324,339.4672,320.7558 F,2,160892,161445,0.4,0 S,2,160892,161445,2,0.4 P,0,160892,161445,A M,0,160930,160968,339.4672,320.7558,357.9344,317.5115 M,0,160968,161007,357.9344,317.5115,376.4016,314.2673 M,0,161007,161045,376.4016,314.2673,394.8688,311.0231
Sprite,Foreground,Centre,"sb\circle.png",456,244 C,0,161200,,255,255,0 F,2,161200,161600,0.4,0 S,2,161200,161600,2,0.4 P,0,161200,161600,A
Sprite,Foreground,Centre,"sb\circle.png",456,244 C,0,161354,,255,255,0 F,2,161354,161754,0.4,0 S,2,161354,161754,2,0.4 P,0,161354,161754,A
Sprite,Foreground,Centre,"sb\circle.png",0,0 C,0,170892,,255,255,0 M,0,170892,170930,365,277,362.0064,257.5414 F,2,170892,171445,0.4,0 S,2,170892,171445,1,0.2 P,0,170892,171445,A M,0,170930,170968,362.0064,257.5414,359.0128,238.0829 M,0,170968,171007,359.0128,238.0829,362.0064,257.5414 M,0,171007,171045,362.0064,257.5414,365,277
Sprite,Foreground,Centre,"sb\circle.png",0,0 C,0,171200,,255,255,0 M,0,171200,171238,417,356,435.3427,362.9553 F,2,171200,171753,0.4,0 S,2,171200,171753,1,0.2 P,0,171200,171753,A M,0,171238,171276,435.3427,362.9553,454.7438,365.6586 M,0,171276,171315,454.7438,365.6586,474.2404,363.9858 M,0,171315,171353,474.2404,363.9858,493.033,358.388
Sprite,Foreground,Centre,"sb\circle.png",492,337 C,0,181508,,0,255,255 F,2,181508,181908,0.4,0 S,2,181508,181908,1,0.2 P,0,181508,181908,A
Sprite,Foreground,Centre,"sb\circle.png",428,272 C,0,181661,,0,255,255 F,2,181661,182061,0.4,0 S,2,181661,182061,1,0.2 P,0,181661,182061,A
Sprite,Foreground,Centre,"sb\circle.png",428,272 C,0,181738,,0,255,255 F,2,181738,182138,0.4,0 S,2,181738,182138,1,0.2 P,0,181738,182138,A
Sprite,Foreground,Centre,"sb\circle.png",0,0 C,0,181815,,0,255,255 M,0,181815,181853,428,272,409.5226,268.8142 F,2,181815,182445,0.4,0 S,2,181815,182445,1,0.2 P,0,181815,182445,A M,0,181853,181891,409.5226,268.8142,391.0453,265.6285 M,0,181891,181930,391.0453,265.6285,409.5226,268.8142 M,0,181930,181968,409.5226,268.8142,428,272 M,0,181968,182007,428,272,409.5226,268.8142 M,0,182007,182045,409.5226,268.8142,391.0453,265.6285
Sprite,Foreground,Centre,"sb\circle.png",0,0 C,0,182123,,0,255,255 M,0,182123,182161,354,240,335.5226,236.8142 F,2,182123,182753,0.4,0 S,2,182123,182753,1,0.2 P,0,182123,182753,A M,0,182161,182199,335.5226,236.8142,317.0452,233.6285 M,0,182199,182238,317.0452,233.6285,335.5226,236.8142 M,0,182238,182276,335.5226,236.8142,354,240 M,0,182276,182315,354,240,335.5226,236.8142 M,0,182315,182353,335.5226,236.8142,317.0452,233.6285
Sprite,Foreground,Centre,"sb\circle.png",0,0 C,0,182431,,0,255,255 M,0,182431,182469,280,208,261.5226,204.8142 F,2,182431,183061,0.4,0 S,2,182431,183061,1,0.2 P,0,182431,183061,A M,0,182469,182507,261.5226,204.8142,243.0452,201.6285 M,0,182507,182546,243.0452,201.6285,261.5226,204.8142 M,0,182546,182584,261.5226,204.8142,280,208 M,0,182584,182623,280,208,261.5226,204.8142 M,0,182623,182661,261.5226,204.8142,243.0452,201.6285
//Storyboard Layer 4 (Overlay)
//Storyboard Sound Samples

[TimingPoints]
584,307.692307692308,4,2,1,50,1,0
584,-125,4,2,1,50,0,0
2507,-125,4,2,1,5,0,0
2584,-125,4,2,1,50,0,0
5199,-125,4,2,1,50,0,0
5430,-125,4,2,1,5,0,0
5507,-100,4,2,1,70,0,0
9199,-100,4,2,1,70,0,0
10430,-100,4,2,1,70,0,0
20276,-125,4,2,1,60,0,0
39660,-125,4,2,1,60,0,0
39891,-125,4,2,1,5,0,0
39968,-125,4,2,1,60,0,0
46122,-100,4,2,1,70,0,0
46507,-100,4,2,1,5,0,0
46584,-100,4,2,1,70,0,0
46660,-100,4,2,1,5,0,0
46737,-100,4,2,1,70,0,0
46891,-181.818181818182,4,2,1,70,0,0
47122,-181.818181818182,4,2,1,5,0,0
47199,-95.2380952380952,4,2,1,80,0,1
67045,-100,4,2,1,80,0,0
76891,-125,4,2,1,60,0,0
96276,-125,4,2,1,60,0,0
96507,-125,4,2,1,5,0,0
96584,-125,4,2,1,60,0,0
102737,-100,4,2,1,70,0,0
103122,-100,4,2,1,5,0,0
103199,-100,4,2,1,70,0,0
103276,-100,4,2,1,70,0,0
103507,-181.818181818181,4,2,1,70,0,0
103737,-181.818181818181,4,2,1,5,0,0
103814,-95.2380952380952,4,2,1,80,0,1
123660,-125,4,2,1,60,0,0
133353,-100,4,2,1,60,0,0
154122,-181.818181818181,4,2,1,70,0,0
154353,-181.818181818181,4,2,1,5,0,0
154430,-100,4,2,1,80,0,0
155891,-100,4,2,1,5,0,0
155968,-100,4,2,1,80,0,0
158353,-100,4,2,1,5,0,0
158430,-100,4,2,1,80,0,0
161660,-95.2380952380951,4,2,1,85,0,1
180891,-125,4,2,1,85,0,0
181122,-125,4,2,1,5,0,0
181199,-125,4,2,1,85,0,0
181507,-100,4,2,1,85,0,0
182737,-100,4,2,1,70,0,0
198891,-100,4,2,1,5,0,0

[Colours]
Combo1 : 255,255,0
Combo2 : 0,255,255
Combo3 : 0,64,128
Combo4 : 0,128,255

[HitObjects]
96,111,584,5,8,0:2:0:0:
84,193,737,1,8,0:2:0:0:
243,246,2584,5,2,3:2:0:0:
281,171,2737,2,0,L|270:111,1,60,10|0,0:2|3:2,0:0:0:0:
232,39,3045,5,10,0:2:0:0:
183,104,3199,1,10,0:2:0:0:
342,48,4891,6,0,L|396:58,3,30,0|0|2|0,3:2|3:2|3:2|3:2,0:0:0:0:
412,64,5199,2,0,L|401:123,1,60,14|0,0:2|0:0,0:0:0:0:
341,191,5507,6,0,L|354:265,1,75,2|10,3:2|0:2,0:0:0:0:
414,332,5814,2,0,P|381:349|343:354,1,75,10|2,0:2|3:2,0:0:0:0:
273,296,6122,1,8,0:2:0:0:
200,349,6276,2,0,L|126:336,1,75,10|2,0:2|3:2,0:0:0:0:
51,285,6584,6,0,L|-7:295,2,37.5,2|0|4,3:2|3:2|3:2,0:0:0:0:
127,237,6891,1,10,0:2:0:0:
62,174,7045,2,0,P|56:137|61:100,1,75,10|2,0:2|3:2,0:0:0:0:
117,28,7353,1,8,0:2:0:0:
182,89,7507,2,0,L|256:76,1,75,10|2,0:2|3:2,0:0:0:0:
325,18,7814,1,2,3:2:0:0:
325,18,7891,1,0,3:2:0:0:
325,18,7968,6,0,L|399:31,1,75,4|10,3:2|0:2,0:0:0:0:
488,36,8276,2,0,P|476:71|454:101,1,75,10|2,0:2|3:2,0:0:0:0:
382,156,8584,1,8,0:2:0:0:
463,194,8737,2,0,L|450:268,1,75,10|2,0:2|3:2,0:0:0:0:
383,332,9045,6,0,L|393:390,2,37.5,2|0|6,3:2|3:2|3:2,0:0:0:0:
318,268,9353,1,10,0:2:0:0:
318,268,9430,1,8,0:2:0:0:
318,268,9507,2,0,L|308:210,3,37.5,10|8|10|8,0:2|0:2|0:2|0:2,0:0:0:0:
286,194,9814,2,0,L|276:136,3,37.5,8|8|8|8,0:2|0:2|0:2|0:2,0:0:0:0:
254,120,10122,2,0,L|244:62,3,37.5,8|8|8|8,0:2|0:2|0:2|0:2,0:0:0:0:
222,46,10430,6,0,P|185:40|148:46,1,75,6|2,3:2|3:2,0:0:0:0:
72,94,10737,1,8,0:2:0:0:
72,94,10891,2,0,L|45:241,1,150,2|2,0:2|3:2,0:0:0:0:
66,330,11353,2,0,P|103:336|140:330,1,75,10|0,0:2|0:0,0:0:0:0:
202,266,11660,6,0,P|239:260|276:266,1,75,2|2,3:2|3:2,0:0:0:0:
340,329,11968,1,8,0:2:0:0:
340,329,12122,2,0,P|409:357|478:321,1,150,2|2,0:2|3:2,0:0:0:0:
406,264,12584,2,0,L|393:190,1,75,10|0,0:2|0:0,0:0:0:0:
457,126,12891,6,0,L|470:52,1,75,2|2,3:2|3:2,0:0:0:0:
381,74,13199,1,8,0:2:0:0:
381,74,13353,2,0,B|328:84|328:84|303:112|303:112|244:123,1,150,2|2,0:2|3:2,0:0:0:0:
162,86,13814,1,8,0:2:0:0:
82,129,13968,6,0,B|62:176|62:176|79:273,1,150,2|2,3:2|3:2,0:0:0:0:
12,335,14430,1,8,0:2:0:0:
12,335,14584,2,0,P|78:364|145:335,1,150,2|2,0:2|3:2,0:0:0:0:
196,260,15045,2,0,L|270:273,1,75,14|0,0:2|0:0,0:0:0:0:
303,358,15353,6,0,P|333:336|355:305,1,75,6|2,3:2|3:2,0:0:0:0:
445,308,15660,1,8,0:2:0:0:
445,308,15814,2,0,B|435:255|435:255|407:230|407:230|396:172,1,150,2|2,0:2|3:2,0:0:0:0:
338,101,16276,2,0,P|301:95|264:101,1,75,10|0,0:2|0:0,0:0:0:0:
229,17,16584,6,0,P|198:38|176:69,1,75,2|2,3:2|3:2,0:0:0:0:
100,116,16891,1,8,0:2:0:0:
100,116,17045,2,0,L|127:263,1,150,2|2,0:2|3:2,0:0:0:0:
213,248,17507,2,0,L|200:174,1,75,10|0,0:2|0:0,0:0:0:0:
233,90,17814,6,0,P|270:84|307:90,1,75,2|2,3:2|3:2,0:0:0:0:
338,5,18122,2,0,P|369:26|391:57,1,75,10|2,0:2|0:2,0:0:0:0:
474,19,18430,2,0,P|480:55|474:92,1,75,2|2,3:2|3:2,0:0:0:0:
400,145,18737,1,10,0:2:0:0:
459,226,18891,1,10,0:2:0:0:
459,226,18968,1,8,0:2:0:0:
459,226,19045,6,0,L|446:300,1,75,8|8,0:2|0:2,0:0:0:0:
372,351,19353,1,8,0:2:0:0:
372,351,19507,1,8,0:2:0:0:
340,266,19660,1,8,0:2:0:0:
272,326,19814,2,0,B|225:346|225:346|128:329,1,150,4|0,3:2|3:2,0:0:0:0:
54,288,20276,6,0,B|62:240|62:240|82:219|82:219|89:177,2,120,14|2|2,0:2|0:2|0:2,0:0:0:0:
16,123,21199,1,10,0:2:0:0:
16,123,21353,2,0,P|38:102|71:87,1,60,2|0,3:2|0:0,0:0:0:0:
145,110,21660,2,0,P|200:129|255:109,1,120,2|0,3:2|3:2,0:0:0:0:
317,50,22122,2,0,P|346:44|382:50,1,60,8|0,0:2|3:2,0:0:0:0:
448,91,22430,2,0,L|453:122,3,30,10|8|8|8,0:2|0:2|0:2|0:2,0:0:0:0:
478,154,22737,6,0,B|491:229|491:229|474:269,2,120,2|2|2,3:2|0:2|0:2,0:0:0:0:
365,278,23660,1,10,0:2:0:0:
365,278,23814,2,0,P|336:284|300:278,1,60,2|0,3:2|0:0,0:0:0:0:
242,224,24122,2,0,P|186:205|131:225,1,120,2|0,3:2|3:2,0:0:0:0:
70,284,24584,2,0,P|53:258|46:229,1,60,8|0,0:2|3:2,0:0:0:0:
52,146,24891,2,0,L|57:115,3,30,10|8|8|8,0:2|0:2|0:2|0:2,0:0:0:0:
78,79,25199,6,0,L|152:66,1,60,2|2,3:2|3:2,0:0:0:0:
214,33,25507,2,0,L|332:53,1,120,2|0,0:2|0:0,0:0:0:0:
412,22,25968,1,2,3:2:0:0:
412,22,26122,2,0,P|419:52|415:81,1,60,10|2,0:2|3:2,0:0:0:0:
357,142,26430,2,0,L|283:129,2,60,2|2|2,0:2|3:2|0:2,0:0:0:0:
429,184,26891,1,2,3:2:0:0:
429,184,27045,2,0,P|436:214|432:243,1,60,10|2,0:2|3:2,0:0:0:0:
369,299,27353,2,0,L|338:294,3,30,10|8|10|8,0:2|0:2|0:2|0:2,0:0:0:0:
301,276,27660,6,0,B|253:284|253:284|232:304|232:304|190:311,1,120,2|0,3:2|0:0,0:0:0:0:
121,360,28122,1,2,3:2:0:0:
121,360,28276,2,0,B|104:320|104:320|117:245,1,120,2|10,0:2|0:2,0:0:0:0:
83,167,28737,1,2,3:2:0:0:
83,167,28891,2,0,P|113:160|142:164,1,60,2|2,0:2|3:2,0:0:0:0:
211,211,29199,2,0,L|285:198,1,60,2|2,0:2|3:2,0:0:0:0:
335,146,29507,1,10,0:2:0:0:
496,192,29814,2,0,P|503:162|499:133,1,60,10|0,0:2|3:2,0:0:0:0:
440,71,30122,6,0,L|322:51,1,120,6|10,3:2|0:2,0:0:0:0:
244,15,30584,2,0,L|126:35,1,120,2|2,3:2|3:2,0:0:0:0:
57,83,31045,2,0,P|50:113|54:142,1,60,10|0,0:2|3:2,0:0:0:0:
123,199,31353,1,2,0:2:0:0:
123,199,31507,2,0,P|130:229|126:258,1,60,2|8,3:2|0:2,0:0:0:0:
59,309,31814,1,2,0:2:0:0:
125,360,31968,6,0,B|165:377|165:377|240:364,1,120,2|8,3:2|0:2,0:0:0:0:
291,203,32584,2,0,P|284:233|288:262,1,60,2|2,3:2|0:2,0:0:0:0:
335,331,32891,2,0,L|394:321,1,60,10|2,0:2|3:2,0:0:0:0:
453,260,33199,2,0,L|512:270,2,60,2|2|10,0:2|3:2|0:2,0:0:0:0:
379,218,33660,2,0,B|387:170|387:170|407:149|407:149|414:107,1,120,2|2,3:2|3:2,0:0:0:0:
402,23,34122,2,0,P|372:16|343:20,1,60,10|2,0:2|0:2,0:0:0:0:
273,67,34430,6,0,P|217:86|162:66,1,120,2|10,3:2|0:2,0:0:0:0:
8,134,35045,1,2,3:2:0:0:
8,134,35199,2,0,L|67:144,1,60,2|8,0:2|0:2,0:0:0:0:
145,175,35507,2,0,B|162:215|162:215|149:290,1,120,2|2,3:2|3:2,0:0:0:0:
117,368,35968,2,0,P|147:375|176:371,1,60,10|2,0:2|3:2,0:0:0:0:
248,327,36276,2,0,L|366:347,1,120,2|10,0:2|0:2,0:0:0:0:
447,369,36737,1,2,0:2:0:0:
429,286,36891,6,0,B|421:238|421:238|401:217|401:217|394:175,1,120,2|10,3:2|0:2,0:0:0:0:
342,14,37507,2,0,B|334:62|334:62|314:83|314:83|307:125,1,120,2|10,3:2|0:2,0:0:0:0:
258,193,37968,1,2,3:2:0:0:
209,124,38122,2,0,P|153:105|98:125,1,120,2|8,0:2|0:2,0:0:0:0:
48,193,38584,6,0,B|35:268|35:268|52:308,1,120,0|2,3:2|3:2,0:0:0:0:
129,340,39045,2,0,L|188:330,1,60,10|0,0:2|0:0,0:0:0:0:
252,274,39353,1,2,3:2:0:0:
252,274,39507,1,2,3:2:0:0:
313,331,39660,2,0,P|369:350|424:330,1,120,10|0,0:2|3:2,0:0:0:0:
381,63,46122,6,0,L|391:121,3,37.5,10|0|2|0,0:2|3:2|3:2|3:2,0:0:0:0:
413,137,46430,1,10,0:2:0:0:
471,68,46584,1,10,0:2:0:0:
484,255,47199,6,0,P|413:286|342:255,1,157.499995193482,6|0,3:2|3:2,0:0:0:0:
310,166,47660,2,0,P|277:186|255:218,1,78.7499975967408,10|0,0:2|3:2,0:0:0:0:
275,311,47968,2,0,L|191:296,1,78.7499975967408,10|0,0:2|3:2,0:0:0:0:
135,225,48276,1,10,0:2:0:0:
91,309,48430,6,0,L|101:367,2,39.3749987983704,2|0|8,3:2|3:2|0:2,0:0:0:0:
27,238,48737,2,0,L|54:80,1,157.499995193482,2|0,3:2|3:2,0:0:0:0:
120,14,49199,1,10,0:2:0:0:
180,86,49353,2,0,P|217:95|255:88,1,78.7499975967408,2|8,3:2|0:2,0:0:0:0:
288,176,49660,1,2,3:2:0:0:
288,176,49737,1,0,3:2:0:0:
288,176,49814,6,0,P|320:156|342:124,1,78.7499975967408,8|0,0:2|3:2,0:0:0:0:
419,66,50122,2,0,L|434:150,1,78.7499975967408,10|0,0:2|3:2,0:0:0:0:
488,221,50430,2,0,L|474:298,1,78.7499975967408,10|0,0:2|3:2,0:0:0:0:
411,369,50737,1,10,0:2:0:0:
378,280,50891,6,0,L|368:222,2,39.3749987983704,2|0|8,3:2|3:2|0:2,0:0:0:0:
308,345,51199,2,0,B|250:335|250:335|221:304|221:304|166:293,1,157.499995193482,2|0,3:2|3:2,0:0:0:0:
80,333,51660,1,10,0:2:0:0:
39,247,51814,2,0,P|30:210|37:172,1,78.7499975967408,2|8,3:2|0:2,0:0:0:0:
72,82,52122,1,2,3:2:0:0:
72,82,52199,1,0,3:2:0:0:
72,82,52276,6,0,B|121:61|121:61|223:78,1,157.499995193482,12|10,0:2|0:2,0:0:0:0:
298,136,52737,1,0,3:2:0:0:
334,49,52891,2,0,P|373:39|411:47,1,78.7499975967408,10|0,0:2|3:2,0:0:0:0:
493,95,53199,1,10,0:2:0:0:
432,168,53353,1,0,3:2:0:0:
432,168,53430,1,0,3:2:0:0:
432,168,53507,6,0,L|446:245,1,78.7499975967408,10|0,0:2|3:2,0:0:0:0:
487,330,53814,2,0,P|448:340|410:332,1,78.7499975967408,10|0,0:2|3:2,0:0:0:0:
349,259,54122,2,0,P|310:249|272:257,1,78.7499975967408,10|0,0:2|3:2,0:0:0:0:
211,330,54430,2,0,P|172:340|134:332,1,78.7499975967408,10|0,0:2|3:2,0:0:0:0:
60,273,54737,6,0,L|74:196,1,78.7499975967408,10|0,0:2|3:2,0:0:0:0:
32,109,55045,2,0,P|69:100|108:107,1,78.7499975967408,10|0,0:2|3:2,0:0:0:0:
142,18,55353,2,0,P|176:38|197:71,1,78.7499975967408,10|0,0:2|3:2,0:0:0:0:
189,164,55660,1,10,0:2:0:0:
281,130,55814,1,0,3:2:0:0:
281,130,55891,1,0,3:2:0:0:
281,130,55968,6,0,L|358:116,1,78.7499975967408,10|0,0:2|3:2,0:0:0:0:
449,142,56276,1,10,0:2:0:0:
384,211,56430,2,0,L|326:221,2,39.3749987983704,8|8|10,3:2|3:2|0:2,0:0:0:0:
474,236,56737,2,0,P|483:273|476:312,1,78.7499975967408,2|8,3:2|0:2,0:0:0:0:
386,346,57045,6,0,L|228:319,1,157.499995193482,6|0,3:2|3:2,0:0:0:0:
135,323,57507,2,0,B|145:265|145:265|176:236|176:236|187:181,1,157.499995193482,10|2,0:2|3:2,0:0:0:0:
230,96,57968,1,0,3:2:0:0:
158,34,58122,1,10,0:2:0:0:
158,34,58276,6,0,P|121:25|82:32,1,78.7499975967408,2|0,0:2|3:2,0:0:0:0:
29,111,58584,2,0,B|12:213|12:213|33:262,1,157.499995193482,2|0,3:2|0:0,0:0:0:0:
94,334,59045,1,2,3:2:0:0:
94,334,59199,2,0,L|171:320,1,78.7499975967408,2|8,3:2|0:2,0:0:0:0:
242,256,59507,6,0,L|397:282,1,157.499995193482,2|0,0:2|3:2,0:0:0:0:
434,369,59968,2,0,P|466:346|486:313,1,78.7499975967408,10|0,0:2|0:0,0:0:0:0:
473,218,60276,2,0,L|459:141,1,78.7499975967408,2|0,3:2|3:2,0:0:0:0:
416,55,60584,1,10,0:2:0:0:
416,55,60737,6,0,P|379:46|340:53,1,78.7499975967408,2|0,0:0|3:2,0:0:0:0:
269,117,61045,2,0,P|198:148|127:117,1,157.499995193482,2|0,3:2|0:0,0:0:0:0:
51,62,61507,1,2,3:2:0:0:
51,62,61660,2,0,L|37:139,1,78.7499975967408,2|8,3:2|0:2,0:0:0:0:
54,233,61968,6,0,B|112:243|112:243|141:274|141:274|196:285,1,157.499995193482,2|0,0:2|3:2,0:0:0:0:
276,336,62430,2,0,L|353:322,1,78.7499975967408,10|0,0:2|3:2,0:0:0:0:
437,364,62737,2,0,P|446:327|439:288,1,78.7499975967408,2|0,3:2|3:2,0:0:0:0:
359,234,63045,2,0,L|373:157,1,78.7499975967408,10|0,0:2|3:2,0:0:0:0:
355,62,63353,6,0,B|306:41|306:41|204:58,1,157.499995193482,2|10,3:2|0:2,0:0:0:0:
115,93,63814,1,0,3:2:0:0:
115,93,63968,2,0,L|101:170,1,78.7499975967408,2|0,3:2|3:2,0:0:0:0:
26,230,64276,2,0,L|40:307,1,78.7499975967408,10|0,0:2|3:2,0:0:0:0:
120,256,64584,2,0,P|157:247|196:254,1,78.7499975967408,2|0,3:2|3:2,0:0:0:0:
253,329,64891,6,0,L|408:303,1,157.499995193482,10|2,0:2|3:2,0:0:0:0:
481,241,65353,1,0,3:2:0:0:
481,241,65507,2,0,P|490:204|483:165,1,78.7499975967408,10|0,0:2|0:0,0:0:0:0:
451,75,65814,2,0,L|374:89,1,78.7499975967408,2|0,3:2|3:2,0:0:0:0:
336,1,66122,2,0,P|303:20|280:53,1,78.7499975967408,10|0,0:2|3:2,0:0:0:0:
307,144,66430,2,0,L|317:202,3,39.3749987983704,10|8|8|8,0:2|0:2|0:2|0:2,0:0:0:0:
351,216,66737,2,0,L|361:274,3,39.3749987983704,10|8|8|8,0:2|0:2|0:2|0:2,0:0:0:0:
331,292,67045,5,6,3:2:0:0:
256,192,67122,12,2,68276,3:2:0:0:
336,268,76891,6,0,L|316:150,2,120,10|2|2,0:2|0:2|0:2,0:0:0:0:
298,343,77660,1,2,3:2:0:0:
298,343,77814,1,14,0:2:0:0:
242,279,77968,6,0,B|194:287|194:287|173:307|173:307|131:314,1,120,2|2,3:2|3:2,0:0:0:0:
50,281,78430,2,0,P|33:225|53:170,1,120,2|8,0:2|0:2,0:0:0:0:
115,228,78891,1,2,3:2:0:0:
136,146,79045,2,0,L|131:115,3,30,10|8|10|8,0:2|0:2|0:2|0:2,0:0:0:0:
149,78,79353,6,0,P|178:72|214:78,1,60,2|2,3:2|3:2,0:0:0:0:
280,118,79660,2,0,P|309:124|345:118,1,60,2|0,0:2|3:2,0:0:0:0:
406,69,79968,2,0,L|393:-5,2,60,2|2|10,0:2|3:2|0:2,0:0:0:0:
459,134,80430,2,0,L|439:252,1,120,2|2,3:2|3:2,0:0:0:0:
396,324,80891,2,0,P|340:341|285:321,1,120,2|8,0:2|0:2,0:0:0:0:
232,253,81353,1,2,3:2:0:0:
167,307,81507,2,0,L|136:312,3,30,8|8|10|8,0:2|0:2|0:2|0:2,0:0:0:0:
98,296,81814,6,0,L|85:222,1,60,2|2,3:2|3:2,0:0:0:0:
34,171,82122,2,0,B|42:123|42:123|62:102|62:102|69:60,1,120,2|0,0:2|0:0,0:0:0:0:
139,13,82584,1,2,3:2:0:0:
139,13,82737,2,0,L|213:26,1,60,10|2,0:2|3:2,0:0:0:0:
254,86,83045,2,0,P|260:115|254:151,2,60,2|2|2,0:2|3:2|0:2,0:0:0:0:
299,14,83507,1,2,3:2:0:0:
351,79,83660,2,0,P|380:85|416:79,1,60,10|2,0:2|3:2,0:0:0:0:
489,52,83968,2,0,L|494:83,3,30,10|8|10|8,0:2|0:2|0:2|0:2,0:0:0:0:
488,123,84276,6,0,B|501:198|501:198|484:238,1,120,2|0,3:2|0:0,0:0:0:0:
425,299,84737,1,2,3:2:0:0:
376,230,84891,2,0,L|389:151,2,60,2|2|10,0:2|3:2|0:2,0:0:0:0:
317,291,85353,6,0,B|242:304|242:304|202:287,2,120,10|10|6,3:0|3:0|3:0,0:0:0:0:
376,230,86122,2,0,L|389:151,1,60,2|2,3:2|3:2,0:0:0:0:
419,93,86430,1,8,0:2:0:0:
257,48,86737,6,0,P|227:41|198:46,1,60,6|2,3:2|0:2,0:0:0:0:
122,9,87045,2,0,P|115:39|120:68,1,60,10|2,0:2|3:2,0:0:0:0:
165,139,87353,2,0,L|244:152,2,60,2|2|10,0:2|3:2|0:2,0:0:0:0:
83,160,87814,2,0,B|66:200|66:200|79:275,1,120,2|2,3:2|3:2,0:0:0:0:
53,356,88276,2,0,P|82:359|117:351,1,60,10|2,0:2|0:2,0:0:0:0:
171,293,88584,6,0,P|227:276|282:296,1,120,2|8,3:2|0:2,0:0:0:0:
429,377,89199,2,0,L|416:298,1,60,2|2,3:2|0:2,0:0:0:0:
362,255,89507,2,0,L|371:195,1,60,10|2,0:2|3:2,0:0:0:0:
420,127,89814,2,0,P|449:121|485:127,2,60,2|2|10,0:2|3:2|0:2,0:0:0:0:
338,103,90276,2,0,B|290:95|290:95|269:75|269:75|227:68,1,120,2|2,3:2|3:2,0:0:0:0:
156,23,90737,2,0,L|96:32,1,60,10|2,0:2|0:2,0:0:0:0:
27,78,91045,6,0,L|47:196,1,120,2|10,3:2|0:2,0:0:0:0:
128,343,91660,2,0,P|125:314|133:279,1,60,2|2,3:2|0:2,0:0:0:0:
181,215,91968,2,0,L|241:206,1,60,10|2,0:2|3:2,0:0:0:0:
309,254,92276,2,0,B|349:271|349:271|424:258,1,120,2|10,0:2|0:2,0:0:0:0:
474,190,92737,1,2,3:2:0:0:
474,190,92891,2,0,L|465:130,1,60,2|2,0:2|3:2,0:0:0:0:
416,61,93199,2,0,P|387:58|352:66,1,60,10|2,0:2|0:2,0:0:0:0:
289,114,93507,6,0,L|298:174,2,60,2|2|10,3:2|3:2|0:2,0:0:0:0:
137,40,94122,2,0,P|81:23|26:43,1,120,2|10,3:2|0:2,0:0:0:0:
27,128,94584,2,0,P|83:148|139:131,1,120,2|0,3:2|3:2,0:0:0:0:
209,86,95045,1,8,0:2:0:0:
217,169,95199,6,0,B|209:217|209:217|189:238|189:238|182:280,1,120,0|0,3:2|3:2,0:0:0:0:
242,338,95660,2,0,P|271:341|306:333,1,60,10|0,0:2|0:0,0:0:0:0:
365,279,95968,1,2,3:2:0:0:
365,279,96122,1,2,3:2:0:0:
289,244,96276,2,0,L|309:126,1,120,10|0,0:2|3:2,0:0:0:0:
131,63,102737,6,0,L|121:121,3,37.5,8|0|2|0,0:2|3:2|3:2|3:2,0:0:0:0:
99,137,103045,1,8,0:2:0:0:
41,68,103199,1,10,0:2:0:0:
28,255,103814,6,0,B|86:265|86:265|115:296|115:296|170:307,1,157.499995193482,6|0,3:2|3:2,0:0:0:0:
254,350,104276,2,0,L|331:336,1,78.7499975967408,10|0,0:2|3:2,0:0:0:0:
415,291,104584,2,0,P|424:253|417:215,1,78.7499975967408,10|0,0:2|3:2,0:0:0:0:
387,124,104891,1,10,0:2:0:0:
319,190,105045,6,0,L|329:248,2,39.3749987983704,2|0|8,3:2|3:2|0:2,0:0:0:0:
282,100,105353,2,0,P|212:70|142:99,1,157.499995193482,2|2,3:2|3:2,0:0:0:0:
121,191,105814,1,10,0:2:0:0:
212,165,105968,2,0,L|226:242,1,78.7499975967408,2|8,3:2|0:2,0:0:0:0:
290,312,106276,1,2,3:2:0:0:
290,312,106353,1,0,3:2:0:0:
290,312,106430,6,0,P|328:321|366:314,1,78.7499975967408,8|0,0:2|3:2,0:0:0:0:
439,253,106737,2,0,L|453:176,1,78.7499975967408,10|0,0:2|3:2,0:0:0:0:
494,89,107045,2,0,P|456:80|418:87,1,78.7499975967408,10|0,0:2|3:2,0:0:0:0:
346,150,107353,1,10,0:2:0:0:
318,59,107507,6,0,L|328:1,2,39.3749987983704,2|0|8,3:2|3:2|0:2,0:0:0:0:
252,126,107814,2,0,B|203:147|203:147|101:130,1,157.499995193482,2|0,3:2|3:2,0:0:0:0:
35,60,108276,1,10,0:2:0:0:
12,151,108430,2,0,L|26:228,1,78.7499975967408,2|8,3:2|0:2,0:0:0:0:
66,313,108737,1,2,3:2:0:0:
66,313,108814,1,0,3:2:0:0:
66,313,108891,6,0,P|136:343|206:314,1,157.499995193482,12|10,0:2|0:2,0:0:0:0:
263,236,109353,1,0,3:2:0:0:
325,305,109507,2,0,P|364:315|402:307,1,78.7499975967408,10|0,0:2|3:2,0:0:0:0:
460,232,109814,1,10,0:2:0:0:
365,222,109968,1,0,3:2:0:0:
365,222,110045,1,0,3:2:0:0:
365,222,110122,6,0,L|379:145,1,78.7499975967408,10|0,0:2|3:2,0:0:0:0:
469,114,110430,2,0,P|448:79|415:58,1,78.7499975967408,10|0,0:2|3:2,0:0:0:0:
324,77,110737,2,0,L|247:63,1,78.7499975967408,10|0,0:2|3:2,0:0:0:0:
160,21,111045,2,0,L|83:35,1,78.7499975967408,10|0,0:2|3:2,0:0:0:0:
19,106,111353,6,0,P|9:145|17:183,1,78.7499975967408,10|0,0:2|3:2,0:0:0:0:
69,260,111660,2,0,L|146:246,1,78.7499975967408,10|0,0:2|3:2,0:0:0:0:
233,204,111968,2,0,L|310:218,1,78.7499975967408,10|0,0:2|3:2,0:0:0:0:
397,260,112276,1,10,0:2:0:0:
331,328,112430,1,0,3:2:0:0:
331,328,112507,1,0,3:2:0:0:
331,328,112584,6,0,L|254:342,1,78.7499975967408,10|0,0:2|3:2,0:0:0:0:
185,276,112891,1,10,0:2:0:0:
121,345,113045,2,0,L|131:403,2,39.3749987983704,8|8|10,0:2|0:2|0:2,0:0:0:0:
60,271,113353,2,0,L|46:194,1,78.7499975967408,2|8,3:2|0:2,0:0:0:0:
33,99,113660,6,0,P|103:69|173:98,1,157.499995193482,6|0,3:2|3:2,0:0:0:0:
234,172,114122,2,0,P|304:202|374:173,1,157.499995193482,10|2,0:2|3:2,0:0:0:0:
429,93,114584,1,0,3:2:0:0:
479,172,114737,1,10,0:2:0:0:
479,172,114891,6,0,P|489:211|481:249,1,78.7499975967408,2|0,0:0|3:2,0:0:0:0:
429,328,115199,2,0,L|255:297,1,157.499995193482,2|0,3:2|0:0,0:0:0:0:
209,231,115660,1,2,3:2:0:0:
209,231,115814,2,0,L|132:245,1,78.7499975967408,2|8,3:2|0:2,0:0:0:0:
58,305,116122,6,0,B|37:256|37:256|54:153,1,157.499995193482,2|0,0:2|3:2,0:0:0:0:
127,91,116584,2,0,P|164:82|203:89,1,78.7499975967408,10|0,0:2|0:0,0:0:0:0:
236,1,116891,2,0,P|269:20|290:53,1,78.7499975967408,2|0,3:2|3:2,0:0:0:0:
364,113,117199,1,10,0:2:0:0:
364,113,117353,6,0,L|441:127,1,78.7499975967408,2|0,0:2|3:2,0:0:0:0:
499,201,117660,2,0,B|516:304|516:304|495:353,1,157.499995193482,2|0,3:2|0:0,0:0:0:0:
422,290,118122,1,2,3:2:0:0:
422,290,118276,2,0,P|384:280|345:287,1,78.7499975967408,2|8,3:2|0:2,0:0:0:0:
272,348,118584,6,0,B|214:338|214:338|185:307|185:307|130:296,1,157.499995193482,2|0,0:2|3:2,0:0:0:0:
45,339,119045,2,0,P|35:301|42:262,1,78.7499975967408,10|0,0:2|0:0,0:0:0:0:
113,199,119353,2,0,P|123:161|116:122,1,78.7499975967408,2|0,3:2|3:2,0:0:0:0:
66,42,119660,2,0,L|143:28,1,78.7499975967408,10|0,0:2|0:0,0:0:0:0:
220,83,119968,6,0,P|290:113|360:84,1,157.499995193482,2|10,3:2|0:2,0:0:0:0:
438,27,120430,1,0,0:0:0:0:
438,27,120584,2,0,L|452:104,1,78.7499975967408,2|0,3:2|3:2,0:0:0:0:
508,180,120891,2,0,L|494:257,1,78.7499975967408,10|0,0:2|3:2,0:0:0:0:
440,336,121199,6,0,P|402:346|363:339,1,78.7499975967408,2|0,3:2|3:2,0:0:0:0:
298,269,121507,2,0,B|249:248|249:248|146:265,1,157.499995193482,10|2,0:2|3:2,0:0:0:0:
61,307,121968,1,0,3:2:0:0:
61,307,122122,2,0,P|51:269|58:230,1,78.7499975967408,10|0,0:2|3:2,0:0:0:0:
126,165,122430,5,10,0:2:0:0:
126,165,122584,1,8,0:2:0:0:
37,131,122737,2,0,L|51:54,1,78.7499975967408,10|8,0:2|0:2,0:0:0:0:
132,3,123045,1,10,0:2:0:0:
132,3,123199,1,8,0:2:0:0:
172,90,123353,2,0,P|209:100|248:93,1,78.7499975967408,8|0,0:2|3:2,0:0:0:0:
308,34,123660,5,14,0:2:0:0:
308,34,123814,2,0,P|364:15|419:35,2,120,2|2|2,3:2|3:2|3:2,0:0:0:0:
248,92,124584,1,10,0:2:0:0:
248,92,124737,2,0,L|271:225,2,120,2|2|2,3:2|3:2|3:2,0:0:0:0:
185,34,125507,2,0,P|156:28|120:34,1,60,10|2,0:2|3:2,0:0:0:0:
62,86,125814,2,0,L|57:117,3,30,8|8|8|8,0:2|0:2|0:2|0:2,0:0:0:0:
34,151,126122,6,0,L|45:214,1,60,6|2,3:2|3:2,0:0:0:0:
100,273,126430,2,0,P|156:292|211:272,1,120,10|2,0:2|3:2,0:0:0:0:
268,210,126891,1,2,3:2:0:0:
320,273,127045,2,0,P|350:280|379:276,1,60,10|2,0:2|3:2,0:0:0:0:
412,354,127353,6,0,P|436:337|457:308,1,60,2|2,3:2|3:2,0:0:0:0:
454,229,127660,2,0,B|446:181|446:181|426:160|426:160|419:118,1,120,10|2,0:2|3:2,0:0:0:0:
385,40,128122,1,2,3:2:0:0:
328,102,128276,2,0,L|265:91,1,60,10|2,0:2|3:2,0:0:0:0:
202,39,128584,5,14,0:2:0:0:
202,39,128737,2,0,B|127:26|127:26|87:43,2,120,2|2|2,3:2|3:2|3:2,0:0:0:0:
271,96,129507,1,10,0:2:0:0:
271,96,129660,2,0,B|346:83|346:83|386:100,2,120,2|2|2,3:2|3:2|3:2,0:0:0:0:
203,146,130430,2,0,L|214:209,1,60,10|2,0:2|3:2,0:0:0:0:
267,269,130737,2,0,L|262:300,3,30,8|8|8|8,0:2|0:2|0:2|0:2,0:0:0:0:
280,337,131045,6,0,P|310:344|339:340,1,60,6|2,3:2|3:2,0:0:0:0:
400,281,131353,2,0,L|420:162,1,120,10|2,0:2|3:2,0:0:0:0:
379,89,131814,1,2,3:2:0:0:
321,150,131968,2,0,P|291:157|262:153,1,60,10|2,0:2|3:2,0:0:0:0:
212,84,132276,6,0,P|182:77|153:81,1,60,2|2,3:2|3:2,0:0:0:0:
86,132,132584,2,0,L|75:195,1,60,10|2,0:2|3:2,0:0:0:0:
113,271,132891,1,2,3:2:0:0:
113,271,133045,1,10,0:2:0:0:
163,204,133199,1,8,0:2:0:0:
211,278,133353,6,0,P|278:308|345:278,1,150,6|0,3:2|3:2,0:0:0:0:
279,217,133814,2,0,B|289:164|289:164|317:139|317:139|328:81,1,150,10|2,0:2|3:2,0:0:0:0:
403,32,134276,1,2,3:2:0:0:
403,32,134430,2,0,L|420:134,1,75,8|2,0:2|0:2,0:0:0:0:
478,170,134737,5,2,3:2:0:0:
478,170,134891,2,0,L|461:272,1,75,2|8,3:2|0:2,0:0:0:0:
423,324,135199,2,0,B|326:341|326:341|279:321,1,150,2|2,0:2|3:2,0:0:0:0:
215,263,135660,2,0,P|178:257|141:263,1,75,10|0,0:2|0:0,0:0:0:0:
71,320,135968,6,0,B|51:273|51:273|68:176,1,150,2|8,3:2|0:2,0:0:0:0:
95,89,136430,1,0,0:0:0:0:
169,139,136584,2,0,P|235:168|302:138,1,150,2|8,3:2|0:2,0:0:0:0:
353,64,137045,1,0,3:2:0:0:
406,136,137199,6,0,L|433:296,1,150,2|8,0:2|0:2,0:0:0:0:
393,365,137660,1,0,0:0:0:0:
320,311,137814,2,0,B|267:301|267:301|242:273|242:273|184:262,1,150,2|8,3:2|0:2,0:0:0:0:
116,321,138276,1,0,0:0:0:0:
55,254,138430,6,0,L|72:152,1,75,2|0,3:2|3:2,0:0:0:0:
101,97,138737,2,0,P|167:68|234:98,1,150,10|2,0:2|3:2,0:0:0:0:
268,14,139199,2,0,P|298:35|320:66,1,75,2|8,3:2|0:2,0:0:0:0:
315,156,139507,6,0,L|298:258,1,75,2|0,0:2|3:2,0:0:0:0:
380,274,139814,2,0,L|397:172,1,75,2|8,3:2|0:2,0:0:0:0:
462,142,140122,2,0,B|482:189|482:189|465:286,1,150,2|2,0:2|3:2,0:0:0:0:
421,367,140584,2,0,P|384:373|347:367,1,75,10|0,0:2|0:0,0:0:0:0:
283,302,140891,6,0,P|217:273|150:303,1,150,2|8,3:2|0:2,0:0:0:0:
94,374,141353,1,0,3:2:0:0:
48,296,141507,2,0,B|38:243|38:243|10:218|10:218|-1:160,1,150,2|8,0:2|0:2,0:0:0:0:
53,88,141968,1,0,3:2:0:0:
104,162,142122,6,0,B|151:182|151:182|248:165,1,150,2|8,0:2|0:2,0:0:0:0:
295,87,142584,1,0,0:0:0:0:
373,129,142737,2,0,L|400:289,1,150,2|8,3:2|0:2,0:0:0:0:
387,367,143199,1,0,0:0:0:0:
315,311,143353,5,2,0:2:0:0:
256,192,143430,12,0,144584,3:2:0:0:
95,280,154122,5,2,0:2:0:0:
95,280,154430,6,0,B|142:260|142:260|239:277,1,150,6|8,3:2|0:2,0:0:0:0:
314,326,154891,2,0,B|411:343|411:343|458:323,1,150,2|0,0:2|0:0,0:0:0:0:
489,237,155353,2,0,L|472:135,1,75,10|0,0:2|0:0,0:0:0:0:
456,75,155660,6,0,P|390:46|323:76,1,150,2|8,3:2|0:2,0:0:0:0:
258,139,156122,2,0,P|191:167|124:137,1,150,2|0,0:2|0:0,0:0:0:0:
95,53,156584,2,0,P|64:74|42:105,1,75,10|0,0:2|0:0,0:0:0:0:
57,194,156891,6,0,B|47:247|47:247|19:272|19:272|8:330,1,150,2|8,3:2|0:2,0:0:0:0:
87,373,157353,2,0,B|97:320|97:320|125:295|125:295|136:237,1,150,2|0,0:2|0:0,0:0:0:0:
206,181,157814,2,0,P|242:175|279:181,1,75,10|0,0:2|0:0,0:0:0:0:
357,228,158122,6,0,L|384:388,1,150,2|8,3:2|0:2,0:0:0:0:
464,337,158584,2,0,L|437:177,1,150,2|0,0:2|0:0,0:0:0:0:
406,110,159045,1,10,0:2:0:0:
406,110,159199,1,2,0:2:0:0:
323,146,159353,6,0,B|226:163|226:163|179:143,1,150,2|10,3:2|0:2,0:0:0:0:
181,52,159814,2,0,P|113:78|87:146,1,150,2|0,0:2|0:0,0:0:0:0:
138,220,160276,2,0,L|155:322,1,75,10|0,0:2|0:0,0:0:0:0:
226,343,160584,2,0,L|233:306,3,37.5,10|0|0|0,0:2|3:2|3:2|3:2,0:0:0:0:
257,268,160891,6,0,L|331:255,1,75,8|8,0:2|0:2,0:0:0:0:
392,188,161199,1,10,0:2:0:0:
392,188,161353,1,10,0:2:0:0:
307,156,161507,1,8,0:2:0:0:
384,95,161660,6,0,P|456:123|484:195,1,157.499995193482,6|0,3:2|3:2,0:0:0:0:
426,269,162122,2,0,L|412:346,1,78.7499975967408,10|0,0:2|3:2,0:0:0:0:
332,295,162430,2,0,P|295:286|256:293,1,78.7499975967408,10|0,0:2|3:2,0:0:0:0:
187,359,162737,1,10,0:2:0:0:
169,265,162891,6,0,L|175:226,2,39.3749987983704,2|0|8,3:2|3:2|0:2,0:0:0:0:
98,328,163199,2,0,B|77:279|77:279|94:176,1,157.499995193482,2|0,3:2|3:2,0:0:0:0:
128,88,163660,1,10,0:2:0:0:
204,144,163814,2,0,P|241:153|280:146,1,78.7499975967408,2|8,3:2|0:2,0:0:0:0:
350,81,164122,1,2,3:2:0:0:
350,81,164199,1,0,3:2:0:0:
350,81,164276,6,0,P|387:72|426:79,1,78.7499975967408,8|0,0:2|3:2,0:0:0:0:
489,150,164584,2,0,L|475:227,1,78.7499975967408,10|0,0:2|3:2,0:0:0:0:
442,316,164891,2,0,P|405:325|366:318,1,78.7499975967408,10|0,0:2|3:2,0:0:0:0:
317,235,165199,1,10,0:2:0:0:
257,308,165353,6,0,L|263:347,2,39.3749987983704,2|0|8,3:2|3:2|0:2,0:0:0:0:
221,220,165660,2,0,B|163:230|163:230|134:261|134:261|79:272,1,157.499995193482,2|0,3:2|3:2,0:0:0:0:
1,216,166122,1,10,0:2:0:0:
87,177,166276,2,0,L|73:100,1,78.7499975967408,2|8,3:2|0:2,0:0:0:0:
146,36,166584,1,2,3:2:0:0:
146,36,166660,1,0,3:2:0:0:
146,36,166737,6,0,B|195:15|195:15|298:32,1,157.499995193482,12|10,0:2|0:2,0:0:0:0:
334,119,167199,1,0,3:2:0:0:
395,47,167353,2,0,P|434:37|472:45,1,78.7499975967408,10|0,0:2|3:2,0:0:0:0:
508,131,167660,1,10,0:2:0:0:
426,178,167814,1,0,3:2:0:0:
426,178,167891,1,0,3:2:0:0:
426,178,167968,6,0,L|440:255,1,78.7499975967408,10|0,0:2|3:2,0:0:0:0:
481,341,168276,2,0,P|442:351|404:343,1,78.7499975967408,10|0,0:2|3:2,0:0:0:0:
334,279,168584,2,0,P|295:269|257:277,1,78.7499975967408,10|0,0:2|3:2,0:0:0:0:
225,189,168891,2,0,P|192:208|171:241,1,78.7499975967408,10|0,0:2|3:2,0:0:0:0:
93,297,169199,6,0,L|79:220,1,78.7499975967408,10|0,0:2|3:2,0:0:0:0:
17,146,169507,2,0,L|31:69,1,78.7499975967408,10|0,0:2|3:2,0:0:0:0:
116,28,169814,2,0,P|155:18|193:26,1,78.7499975967408,10|0,0:2|3:2,0:0:0:0:
261,90,170122,1,10,0:2:0:0:
179,137,170276,1,0,3:2:0:0:
179,137,170353,1,0,3:2:0:0:
179,137,170430,6,0,L|193:214,1,78.7499975967408,10|0,0:2|3:2,0:0:0:0:
241,295,170737,1,10,0:2:0:0:
301,221,170891,2,0,L|295:182,2,39.3749987983704,8|8|10,0:2|0:2|0:2,0:0:0:0:
353,300,171199,2,0,P|392:310|430:302,1,78.7499975967408,2|8,3:2|0:2,0:0:0:0:
512,257,171507,6,0,L|485:99,1,157.499995193482,6|0,3:2|3:2,0:0:0:0:
489,10,171968,2,0,B|431:20|431:20|402:51|402:51|347:62,1,157.499995193482,10|2,0:2|3:2,0:0:0:0:
269,116,172430,1,0,3:2:0:0:
216,37,172584,1,10,0:2:0:0:
216,37,172737,6,0,L|139:23,1,78.7499975967408,2|0,0:0|3:2,0:0:0:0:
45,44,173045,2,0,B|24:93|24:93|41:196,1,157.499995193482,2|2,3:2|0:2,0:0:0:0:
84,286,173507,1,2,3:2:0:0:
84,286,173660,2,0,L|161:272,1,78.7499975967408,2|8,3:2|0:2,0:0:0:0:
236,213,173968,6,0,B|294:223|294:223|323:254|323:254|378:265,1,157.499995193482,2|0,0:2|3:2,0:0:0:0:
463,306,174430,2,0,P|473:267|465:229,1,78.7499975967408,10|0,0:2|0:0,0:0:0:0:
386,177,174737,2,0,L|400:100,1,78.7499975967408,2|0,3:2|3:2,0:0:0:0:
490,68,175045,1,10,0:2:0:0:
490,68,175199,6,0,P|469:33|436:12,1,78.7499975967408,2|0,0:2|3:2,0:0:0:0:
344,32,175507,2,0,L|188:58,1,157.499995193482,2|0,0:2|0:0,0:0:0:0:
103,17,175968,1,2,3:2:0:0:
103,17,176122,2,0,P|93:56|101:94,1,78.7499975967408,2|8,3:2|0:2,0:0:0:0:
179,146,176430,6,0,P|210:216|180:286,1,157.499995193482,2|0,0:2|3:2,0:0:0:0:
126,364,176891,2,0,L|203:378,1,78.7499975967408,10|0,0:2|3:2,0:0:0:0:
274,315,177199,2,0,L|351:301,1,78.7499975967408,2|0,3:2|3:2,0:0:0:0:
436,341,177507,2,0,P|446:302|438:264,1,78.7499975967408,10|0,0:2|3:2,0:0:0:0:
371,198,177814,2,0,B|350:149|350:149|367:46,1,157.499995193482,2|10,3:2|0:2,0:0:0:0:
279,7,178276,1,0,3:2:0:0:
279,7,178430,6,0,L|265:84,1,78.7499975967408,2|0,3:2|3:2,0:0:0:0:
224,170,178737,1,10,0:2:0:0:
168,93,178891,1,0,3:2:0:0:
168,93,179045,6,0,P|98:62|28:92,1,157.499995193482,6|2,3:2|0:2,0:0:0:0:
3,184,179507,1,0,3:2:0:0:
3,184,179660,6,0,B|13:242|13:242|44:271|44:271|55:326,1,157.499995193482,6|2,3:2|0:2,0:0:0:0:
137,274,180122,1,0,3:2:0:0:
137,274,180199,1,0,3:2:0:0:
137,274,180276,2,0,P|176:264|214:272,1,78.7499975967408,10|0,0:2|3:2,0:0:0:0:
277,341,180584,1,10,0:2:0:0:
185,360,180737,1,8,0:2:0:0:
428,281,181507,5,14,0:2:0:0:
364,216,181660,1,8,0:2:0:0:
364,216,181737,1,8,0:2:0:0:
364,216,181814,2,0,L|306:206,3,37.5,8|8|8|8,0:2|0:2|0:2|0:2,0:0:0:0:
290,184,182122,2,0,L|232:174,3,37.5,8|8|8|8,0:2|0:2|0:2|0:2,0:0:0:0:
216,152,182430,2,0,L|158:142,3,37.5,8|8|8|8,0:2|0:2|0:2|0:2,0:0:0:0:
142,120,182737,6,0,P|136:83|142:46,1,75,6|2,3:2|3:2,0:0:0:0:
222,4,183045,1,8,0:2:0:0:
222,4,183199,2,0,L|369:31,1,150,2|2,0:2|3:2,0:0:0:0:
453,66,183660,2,0,P|459:103|453:140,1,75,10|0,0:2|0:0,0:0:0:0:
378,190,183968,6,0,P|372:227|378:264,1,75,2|2,3:2|3:2,0:0:0:0:
384,354,184276,1,8,0:2:0:0:
384,354,184430,2,0,B|331:344|331:344|306:316|306:316|247:305,1,150,2|2,0:2|3:2,0:0:0:0:
177,360,184891,2,0,P|140:366|103:360,1,75,10|0,0:2|0:0,0:0:0:0:
50,286,185199,6,0,L|63:212,1,75,2|2,3:2|3:2,0:0:0:0:
2,144,185507,1,8,0:2:0:0:
2,144,185660,2,0,B|49:124|49:124|146:141,1,150,2|2,0:2|3:2,0:0:0:0:
198,215,186122,1,8,0:2:0:0:
250,141,186276,6,0,P|317:112|383:142,1,150,2|2,3:2|3:2,0:0:0:0:
462,98,186737,1,8,0:2:0:0:
462,98,186891,2,0,L|489:245,1,150,2|2,0:2|3:2,0:0:0:0:
447,326,187353,2,0,P|410:332|373:326,1,75,14|0,0:2|0:0,0:0:0:0:
307,265,187660,6,0,P|270:259|233:265,1,75,6|2,3:2|3:2,0:0:0:0:
142,263,187968,1,8,0:2:0:0:
142,263,188122,2,0,B|152:210|152:210|180:185|180:185|191:126,1,150,2|2,0:2|3:2,0:0:0:0:
158,43,188584,2,0,P|195:37|232:43,1,75,10|0,0:2|0:0,0:0:0:0:
291,110,188891,6,0,P|328:116|365:110,1,75,2|2,3:2|3:2,0:0:0:0:
437,54,189199,1,8,0:2:0:0:
437,54,189353,2,0,B|457:100|457:100|440:198,1,150,2|2,0:2|3:2,0:0:0:0:
395,277,189814,2,0,L|321:264,1,75,10|0,0:2|0:0,0:0:0:0:
242,219,190122,6,0,L|168:232,1,75,2|2,3:2|3:2,0:0:0:0:
85,196,190430,1,8,0:2:0:0:
85,196,190584,2,0,P|56:130|85:63,1,150,2|2,0:2|3:2,0:0:0:0:
165,20,191045,1,10,0:2:0:0:
216,106,191199,1,8,0:2:0:0:
216,106,191276,1,8,0:2:0:0:
216,106,191353,6,0,L|290:93,1,75,10|10,0:2|0:2,0:0:0:0:
380,122,191660,1,8,0:2:0:0:
380,122,191814,1,10,0:2:0:0:
415,40,191968,1,8,0:2:0:0:
467,113,192122,2,0,B|457:166|457:166|429:191|429:191|418:250,1,150,6|0,3:2|3:2,0:0:0:0:
454,332,192584,5,6,3:2:0:0:
256,192,192737,12,2,198891,0:2:0:0:
