osu file format v14

[General]
AudioFilename: audio.mp3
AudioLeadIn: 0
PreviewTime: 161251
Countdown: 0
SampleSet: Normal
StackLeniency: 0.7
Mode: 1
LetterboxInBreaks: 0
WidescreenStoryboard: 1

[Editor]
DistanceSpacing: 1.1
BeatDivisor: 4
GridSize: 4
TimelineZoom: 2

[Metadata]
Title:Mikansei Koukyoukyoku
TitleUnicode:未完成交響曲
Artist:ONE OK ROCK
ArtistUnicode:ONE OK ROCK
Creator:Chromoxx
Version:Oni
Source:
Tags:Nicheシンドローム niche syndrome unfinished symphony taka toru ryota tomoya j-rock jrock ワンオクロック
BeatmapID:1425213
BeatmapSetID:667682

[Difficulty]
HPDrainRate:5
CircleSize:5
OverallDifficulty:6
ApproachRate:5
SliderMultiplier:1.4
SliderTickRate:1

[Events]
//Background and Video events
0,0,"bg.jpg",0,0
//Break Periods
2,40220,44974
2,96836,101589
2,144836,152974
//Storyboard Layer 0 (Background)
//Storyboard Layer 1 (Fail)
//Storyboard Layer 2 (Pass)
//Storyboard Layer 3 (Foreground)
//Storyboard Sound Samples

[TimingPoints]
636,307.692307692308,4,1,0,60,1,0
5559,-100,4,1,0,70,0,0
10482,-100,4,1,0,80,0,0
40174,-100,4,1,0,50,0,0
46174,-100,4,1,0,80,0,0
47251,-100,4,1,0,90,0,1
67097,-100,4,1,0,90,0,0
67251,-100,4,1,0,80,0,0
96789,-100,4,1,0,50,0,0
102789,-100,4,1,0,80,0,0
103866,-100,4,1,0,90,0,1
123712,-100,4,1,0,90,0,0
123866,-100,4,1,0,80,0,0
143405,-100,4,1,0,50,0,0
154174,-100,4,1,0,70,0,0
154482,-100,4,1,0,90,0,1
160636,-100,4,1,0,90,0,0
161712,-100,4,1,0,90,0,1
181559,-100,4,1,0,80,0,0

[HitObjects]
244,240,636,5,12,0:0:0:0:
244,240,789,1,12,0:0:0:0:
280,272,1097,1,0,0:0:0:0:
280,272,1405,1,8,0:0:0:0:
280,272,1559,1,0,0:0:0:0:
276,308,1712,1,8,0:0:0:0:
276,308,1866,1,0,0:0:0:0:
232,268,2020,1,8,0:0:0:0:
232,268,2174,1,0,0:0:0:0:
232,268,2328,1,0,0:0:0:0:
236,300,2636,1,0,0:0:0:0:
244,272,2789,1,12,0:0:0:0:
248,284,3097,1,0,0:0:0:0:
248,284,3251,1,0,0:0:0:0:
216,264,3559,1,8,0:0:0:0:
216,264,3866,1,0,0:0:0:0:
216,264,4020,1,8,0:0:0:0:
216,264,4174,1,0,0:0:0:0:
200,276,4328,1,8,0:0:0:0:
200,276,4482,1,0,0:0:0:0:
200,276,4636,1,0,0:0:0:0:
264,252,4789,1,8,0:0:0:0:
256,248,4943,1,0,0:0:0:0:
256,248,5020,1,0,0:0:0:0:
256,248,5097,1,0,0:0:0:0:
256,248,5174,1,0,0:0:0:0:
232,240,5251,1,8,0:0:0:0:
236,232,5559,1,0,0:0:0:0:
212,244,5712,1,8,0:0:0:0:
212,244,5866,1,8,0:0:0:0:
180,256,6020,1,0,0:0:0:0:
180,256,6174,1,8,0:0:0:0:
180,256,6328,1,8,0:0:0:0:
196,256,6482,1,0,0:0:0:0:
196,256,6636,1,0,0:0:0:0:
192,256,6712,1,0,0:0:0:0:
172,244,6789,1,0,0:0:0:0:
188,252,6943,1,8,0:0:0:0:
284,268,7097,1,8,0:0:0:0:
320,288,7251,1,0,0:0:0:0:
208,264,7405,1,8,0:0:0:0:
272,312,7559,1,8,0:0:0:0:
272,244,7712,1,0,0:0:0:0:
272,244,7866,1,0,0:0:0:0:
188,288,7943,1,0,0:0:0:0:
192,272,8020,1,0,0:0:0:0:
192,272,8174,1,8,0:0:0:0:
192,272,8328,1,8,0:0:0:0:
272,144,8482,1,0,0:0:0:0:
272,144,8636,1,8,0:0:0:0:
272,144,8789,1,8,0:0:0:0:
272,144,8943,1,0,0:0:0:0:
256,272,9097,1,0,0:0:0:0:
216,264,9174,1,0,0:0:0:0:
256,272,9251,1,0,0:0:0:0:
216,264,9405,1,8,0:0:0:0:
216,264,9482,1,8,0:0:0:0:
216,264,9559,1,8,0:0:0:0:
200,256,9636,1,8,0:0:0:0:
208,256,9712,1,0,0:0:0:0:
204,256,9789,1,0,0:0:0:0:
204,256,9866,1,8,0:0:0:0:
200,256,9943,1,8,0:0:0:0:
200,256,10020,1,8,0:0:0:0:
200,252,10097,1,8,0:0:0:0:
200,256,10174,1,8,0:0:0:0:
200,252,10251,1,8,0:0:0:0:
192,248,10328,1,8,0:0:0:0:
200,252,10482,1,4,0:0:0:0:
192,304,10636,1,0,0:0:0:0:
216,304,10712,1,0,0:0:0:0:
308,280,10789,1,8,0:0:0:0:
168,228,10943,1,0,0:0:0:0:
288,248,11251,1,0,0:0:0:0:
288,248,11405,1,8,0:0:0:0:
224,232,11559,1,0,0:0:0:0:
224,232,11712,1,0,0:0:0:0:
220,228,11866,1,8,0:0:0:0:
204,224,11943,1,8,0:0:0:0:
220,228,12020,1,8,0:0:0:0:
204,224,12174,1,0,0:0:0:0:
144,224,12482,1,0,0:0:0:0:
264,232,12636,1,8,0:0:0:0:
320,244,12789,1,8,0:0:0:0:
340,320,12943,1,0,0:0:0:0:
288,284,13097,1,0,0:0:0:0:
340,320,13174,1,0,0:0:0:0:
136,252,13251,1,8,0:0:0:0:
196,296,13405,1,0,0:0:0:0:
196,292,13559,1,8,0:0:0:0:
136,252,13712,1,8,0:0:0:0:
200,288,13789,1,8,0:0:0:0:
136,232,13866,1,0,0:0:0:0:
136,232,14020,1,8,0:0:0:0:
296,236,14328,1,0,0:0:0:0:
288,280,14482,1,8,0:0:0:0:
244,256,14636,1,0,0:0:0:0:
300,268,14712,1,0,0:0:0:0:
300,268,14789,1,0,0:0:0:0:
164,284,14943,1,0,0:0:0:0:
164,284,15097,1,8,0:0:0:0:
216,268,15405,1,0,0:0:0:0:
216,268,15559,1,0,0:0:0:0:
124,240,15636,1,0,0:0:0:0:
160,248,15712,1,8,0:0:0:0:
192,260,15866,1,0,0:0:0:0:
240,292,16174,1,0,0:0:0:0:
240,292,16328,1,8,0:0:0:0:
240,292,16482,1,0,0:0:0:0:
220,284,16636,1,0,0:0:0:0:
220,284,16789,1,8,0:0:0:0:
208,280,16866,1,8,0:0:0:0:
220,284,16943,1,8,0:0:0:0:
232,248,17097,1,0,0:0:0:0:
224,248,17405,1,0,0:0:0:0:
232,248,17559,1,8,0:0:0:0:
300,140,17712,1,8,0:0:0:0:
248,272,17866,1,0,0:0:0:0:
256,316,17943,1,0,0:0:0:0:
248,272,18020,1,0,0:0:0:0:
304,280,18174,1,8,0:0:0:0:
144,284,18328,1,8,0:0:0:0:
152,280,18482,1,0,0:0:0:0:
156,272,18559,1,0,0:0:0:0:
164,152,18636,1,8,0:0:0:0:
256,268,18789,1,0,0:0:0:0:
216,296,18943,1,8,0:0:0:0:
200,288,19020,1,8,0:0:0:0:
216,296,19097,1,8,0:0:0:0:
200,288,19251,1,8,0:0:0:0:
200,288,19405,1,8,0:0:0:0:
204,284,19559,1,8,0:0:0:0:
204,280,19712,1,8,0:0:0:0:
200,280,19866,1,0,0:0:0:0:
304,304,20174,1,0,0:0:0:0:
168,328,20328,1,12,0:0:0:0:
152,264,20482,1,0,0:0:0:0:
304,304,20789,1,0,0:0:0:0:
304,304,21097,1,0,0:0:0:0:
304,304,21251,1,8,0:0:0:0:
304,304,21405,1,0,0:0:0:0:
240,240,21712,1,0,0:0:0:0:
240,240,22020,1,0,0:0:0:0:
240,240,22174,1,8,0:0:0:0:
224,308,22328,1,0,0:0:0:0:
224,308,22482,1,8,0:0:0:0:
224,308,22559,1,8,0:0:0:0:
200,168,22636,1,8,0:0:0:0:
200,168,22712,1,8,0:0:0:0:
200,168,22789,1,0,0:0:0:0:
320,276,22943,1,0,0:0:0:0:
320,276,23251,1,0,0:0:0:0:
332,276,23559,1,0,0:0:0:0:
332,276,23712,1,8,0:0:0:0:
332,276,23866,1,0,0:0:0:0:
256,272,24174,1,0,0:0:0:0:
256,256,24482,1,0,0:0:0:0:
192,108,24636,1,8,0:0:0:0:
192,108,24789,1,0,0:0:0:0:
192,108,24943,1,8,0:0:0:0:
192,108,25020,1,8,0:0:0:0:
192,108,25097,1,8,0:0:0:0:
192,108,25174,1,8,0:0:0:0:
192,108,25251,1,0,0:0:0:0:
272,272,25405,1,0,0:0:0:0:
280,248,25559,1,8,0:0:0:0:
272,280,25712,1,0,0:0:0:0:
272,280,26020,1,0,0:0:0:0:
276,248,26174,1,8,0:0:0:0:
276,248,26328,1,8,0:0:0:0:
256,252,26482,1,0,0:0:0:0:
252,248,26789,1,8,0:0:0:0:
240,248,26943,1,0,0:0:0:0:
240,244,27097,1,8,0:0:0:0:
240,244,27251,1,8,0:0:0:0:
168,132,27405,1,0,0:0:0:0:
168,132,27482,1,0,0:0:0:0:
168,132,27559,1,0,0:0:0:0:
168,132,27636,1,0,0:0:0:0:
172,136,27712,1,8,0:0:0:0:
300,308,27866,1,0,0:0:0:0:
360,268,28174,1,0,0:0:0:0:
196,288,28328,1,8,0:0:0:0:
360,260,28482,1,0,0:0:0:0:
268,192,28636,1,8,0:0:0:0:
200,276,28789,1,8,0:0:0:0:
248,256,28943,1,0,0:0:0:0:
212,296,29097,1,0,0:0:0:0:
288,336,29405,1,0,0:0:0:0:
288,336,29559,1,8,0:0:0:0:
292,260,29712,1,0,0:0:0:0:
292,260,29866,1,8,0:0:0:0:
292,260,30020,1,0,0:0:0:0:
292,260,30174,1,0,0:0:0:0:
216,300,30482,1,8,0:0:0:0:
216,300,30636,1,0,0:0:0:0:
204,280,30712,1,0,0:0:0:0:
184,312,30789,1,0,0:0:0:0:
184,312,30943,1,0,0:0:0:0:
184,312,31097,1,8,0:0:0:0:
184,312,31405,1,0,0:0:0:0:
184,312,31559,1,8,0:0:0:0:
184,312,31636,1,8,0:0:0:0:
176,304,31712,1,8,0:0:0:0:
176,304,31866,1,8,0:0:0:0:
280,120,32020,1,0,0:0:0:0:
280,120,32174,1,0,0:0:0:0:
280,120,32328,1,8,0:0:0:0:
308,276,32636,1,0,0:0:0:0:
308,276,32789,1,0,0:0:0:0:
204,272,32943,1,8,0:0:0:0:
212,264,33097,1,0,0:0:0:0:
200,256,33174,1,0,0:0:0:0:
212,264,33251,1,0,0:0:0:0:
200,256,33405,1,0,0:0:0:0:
216,252,33559,1,8,0:0:0:0:
216,252,33712,1,0,0:0:0:0:
252,248,34020,1,0,0:0:0:0:
252,248,34174,1,8,0:0:0:0:
316,256,34328,1,8,0:0:0:0:
224,288,34482,1,0,0:0:0:0:
212,264,34636,1,0,0:0:0:0:
188,264,34789,1,8,0:0:0:0:
296,304,35097,1,0,0:0:0:0:
296,304,35251,1,0,0:0:0:0:
144,280,35405,1,8,0:0:0:0:
144,280,35559,1,0,0:0:0:0:
128,272,35866,1,0,0:0:0:0:
144,280,36020,1,8,0:0:0:0:
144,280,36174,1,8,0:0:0:0:
228,280,36328,1,0,0:0:0:0:
276,320,36405,1,0,0:0:0:0:
228,280,36482,1,0,0:0:0:0:
276,320,36636,1,8,0:0:0:0:
276,320,36789,1,0,0:0:0:0:
256,308,36943,1,8,0:0:0:0:
244,300,37020,1,8,0:0:0:0:
256,308,37097,1,8,0:0:0:0:
324,284,37251,1,0,0:0:0:0:
192,348,37405,1,0,0:0:0:0:
312,264,37559,1,8,0:0:0:0:
272,292,37866,1,0,0:0:0:0:
212,304,38020,1,0,0:0:0:0:
244,220,38174,1,8,0:0:0:0:
244,220,38328,1,0,0:0:0:0:
240,216,38405,1,0,0:0:0:0:
240,216,38482,1,8,0:0:0:0:
240,216,38636,1,0,0:0:0:0:
256,176,38943,1,0,0:0:0:0:
296,176,39097,1,8,0:0:0:0:
284,280,39251,1,8,0:0:0:0:
284,264,39328,1,8,0:0:0:0:
240,292,39405,1,0,0:0:0:0:
240,292,39559,1,0,0:0:0:0:
236,288,39712,1,8,0:0:0:0:
236,288,40020,1,0,0:0:0:0:
300,252,46174,5,8,0:0:0:0:
304,292,46251,1,8,0:0:0:0:
304,292,46328,1,0,0:0:0:0:
304,292,46482,1,0,0:0:0:0:
208,296,46636,1,8,0:0:0:0:
232,288,46943,1,8,0:0:0:0:
268,220,47251,1,4,0:0:0:0:
324,276,47559,1,0,0:0:0:0:
268,220,47712,1,8,0:0:0:0:
216,276,47789,1,8,0:0:0:0:
184,268,47866,1,0,0:0:0:0:
184,268,48020,1,8,0:0:0:0:
260,296,48174,1,0,0:0:0:0:
252,344,48328,1,8,0:0:0:0:
248,316,48482,1,0,0:0:0:0:
284,324,48559,1,0,0:0:0:0:
284,324,48636,1,0,0:0:0:0:
160,232,48789,1,0,0:0:0:0:
248,236,48943,1,8,0:0:0:0:
204,240,49020,1,8,0:0:0:0:
200,240,49097,1,0,0:0:0:0:
196,240,49174,1,0,0:0:0:0:
196,240,49251,1,8,0:0:0:0:
204,240,49405,1,8,0:0:0:0:
204,240,49559,1,0,0:0:0:0:
232,288,49712,1,0,0:0:0:0:
232,288,49789,1,0,0:0:0:0:
232,288,49866,1,8,0:0:0:0:
192,256,50020,1,8,0:0:0:0:
324,240,50174,1,0,0:0:0:0:
172,276,50251,1,0,0:0:0:0:
172,276,50328,1,8,0:0:0:0:
164,268,50405,1,8,0:0:0:0:
164,264,50482,1,0,0:0:0:0:
292,304,50636,1,0,0:0:0:0:
292,304,50789,1,8,0:0:0:0:
284,300,50943,1,8,0:0:0:0:
292,304,51020,1,8,0:0:0:0:
212,264,51097,1,0,0:0:0:0:
288,220,51251,1,0,0:0:0:0:
276,192,51405,1,8,0:0:0:0:
360,288,51559,1,0,0:0:0:0:
232,296,51636,1,0,0:0:0:0:
392,284,51712,1,8,0:0:0:0:
208,96,51866,1,8,0:0:0:0:
208,96,52020,1,0,0:0:0:0:
264,216,52174,1,0,0:0:0:0:
268,208,52251,1,0,0:0:0:0:
268,204,52328,1,8,0:0:0:0:
308,272,52636,1,0,0:0:0:0:
236,316,52789,1,0,0:0:0:0:
244,336,52943,1,8,0:0:0:0:
196,128,53097,1,0,0:0:0:0:
200,128,53251,1,8,0:0:0:0:
200,128,53405,1,8,0:0:0:0:
200,128,53482,1,8,0:0:0:0:
200,128,53559,1,0,0:0:0:0:
256,232,53866,1,8,0:0:0:0:
256,232,54020,1,0,0:0:0:0:
256,232,54174,1,8,0:0:0:0:
256,232,54328,1,8,0:0:0:0:
252,276,54482,1,0,0:0:0:0:
252,276,54636,1,0,0:0:0:0:
252,296,54712,1,0,0:0:0:0:
252,276,54789,1,8,0:0:0:0:
252,276,55097,1,0,0:0:0:0:
252,276,55251,1,0,0:0:0:0:
304,288,55405,1,8,0:0:0:0:
304,288,55559,1,0,0:0:0:0:
296,284,55712,1,8,0:0:0:0:
296,284,55866,1,8,0:0:0:0:
292,280,55943,1,8,0:0:0:0:
268,264,56020,1,0,0:0:0:0:
420,280,56174,1,0,0:0:0:0:
276,212,56328,1,8,0:0:0:0:
304,216,56482,1,0,0:0:0:0:
188,256,56559,1,0,0:0:0:0:
188,256,56636,1,0,0:0:0:0:
220,248,56789,1,0,0:0:0:0:
224,248,56943,1,8,0:0:0:0:
204,272,57097,1,4,0:0:0:0:
272,308,57405,1,0,0:0:0:0:
320,300,57559,1,8,0:0:0:0:
380,296,57866,1,0,0:0:0:0:
380,296,58020,1,0,0:0:0:0:
336,272,58174,1,8,0:0:0:0:
344,268,58328,1,0,0:0:0:0:
328,256,58405,1,0,0:0:0:0:
344,268,58482,1,0,0:0:0:0:
328,256,58636,1,0,0:0:0:0:
168,116,58789,1,8,0:0:0:0:
176,280,59097,1,0,0:0:0:0:
176,280,59251,1,8,0:0:0:0:
176,280,59405,1,8,0:0:0:0:
272,268,59559,1,0,0:0:0:0:
260,320,59636,1,0,0:0:0:0:
260,320,59712,1,8,0:0:0:0:
136,108,59866,1,0,0:0:0:0:
136,108,60020,1,8,0:0:0:0:
352,248,60328,1,0,0:0:0:0:
352,248,60482,1,0,0:0:0:0:
344,236,60636,1,8,0:0:0:0:
344,236,60789,1,0,0:0:0:0:
336,232,60866,1,0,0:0:0:0:
344,236,60943,1,0,0:0:0:0:
256,260,61097,1,0,0:0:0:0:
280,260,61251,1,8,0:0:0:0:
280,260,61559,1,0,0:0:0:0:
296,256,61712,1,8,0:0:0:0:
296,260,61866,1,8,0:0:0:0:
292,256,62020,1,0,0:0:0:0:
284,256,62097,1,0,0:0:0:0:
292,256,62174,1,0,0:0:0:0:
332,240,62482,1,8,0:0:0:0:
332,240,62636,1,0,0:0:0:0:
328,248,62712,1,0,0:0:0:0:
332,240,62789,1,0,0:0:0:0:
320,268,62943,1,0,0:0:0:0:
320,268,63097,1,8,0:0:0:0:
220,260,63251,1,8,0:0:0:0:
228,264,63328,1,8,0:0:0:0:
216,312,63405,1,0,0:0:0:0:
224,304,63712,1,8,0:0:0:0:
232,300,63866,1,0,0:0:0:0:
228,288,63943,1,0,0:0:0:0:
228,288,64020,1,8,0:0:0:0:
224,284,64174,1,0,0:0:0:0:
224,284,64328,1,8,0:0:0:0:
176,264,64482,1,8,0:0:0:0:
156,248,64559,1,8,0:0:0:0:
224,280,64636,1,0,0:0:0:0:
256,260,64943,1,8,0:0:0:0:
184,116,65097,1,0,0:0:0:0:
184,116,65174,1,0,0:0:0:0:
184,116,65251,1,0,0:0:0:0:
184,116,65405,1,0,0:0:0:0:
184,116,65559,1,8,0:0:0:0:
228,312,65712,1,8,0:0:0:0:
224,304,65789,1,8,0:0:0:0:
200,304,65866,1,0,0:0:0:0:
296,280,66020,1,0,0:0:0:0:
296,280,66174,1,8,0:0:0:0:
192,292,66328,1,0,0:0:0:0:
212,296,66482,1,8,0:0:0:0:
192,284,66559,1,8,0:0:0:0:
192,288,66636,1,8,0:0:0:0:
192,280,66712,1,8,0:0:0:0:
212,296,66789,1,8,0:0:0:0:
192,280,66866,1,8,0:0:0:0:
192,280,66943,1,8,0:0:0:0:
196,276,67097,1,4,0:0:0:0:
192,304,67252,1,0,0:0:0:0:
216,304,67328,1,0,0:0:0:0:
308,280,67405,1,8,0:0:0:0:
168,228,67559,1,0,0:0:0:0:
288,248,67867,1,0,0:0:0:0:
288,248,68021,1,8,0:0:0:0:
224,232,68175,1,0,0:0:0:0:
224,232,68328,1,0,0:0:0:0:
220,228,68482,1,8,0:0:0:0:
204,224,68559,1,8,0:0:0:0:
220,228,68636,1,8,0:0:0:0:
204,224,68790,1,0,0:0:0:0:
144,224,69098,1,0,0:0:0:0:
264,232,69252,1,8,0:0:0:0:
320,244,69405,1,8,0:0:0:0:
340,320,69559,1,0,0:0:0:0:
288,284,69713,1,0,0:0:0:0:
340,320,69790,1,0,0:0:0:0:
136,252,69867,1,8,0:0:0:0:
196,296,70021,1,0,0:0:0:0:
196,292,70175,1,8,0:0:0:0:
136,252,70328,1,8,0:0:0:0:
200,288,70405,1,8,0:0:0:0:
136,232,70482,1,0,0:0:0:0:
136,232,70636,1,8,0:0:0:0:
296,236,70944,1,0,0:0:0:0:
288,280,71098,1,8,0:0:0:0:
244,256,71252,1,0,0:0:0:0:
300,268,71328,1,0,0:0:0:0:
300,268,71405,1,0,0:0:0:0:
164,284,71559,1,0,0:0:0:0:
164,284,71713,1,8,0:0:0:0:
216,268,72021,1,0,0:0:0:0:
216,268,72175,1,0,0:0:0:0:
124,240,72252,1,0,0:0:0:0:
160,248,72328,1,8,0:0:0:0:
192,260,72482,1,0,0:0:0:0:
240,292,72790,1,0,0:0:0:0:
240,292,72944,1,8,0:0:0:0:
240,292,73098,1,0,0:0:0:0:
220,284,73252,1,0,0:0:0:0:
220,284,73405,1,8,0:0:0:0:
208,280,73482,1,8,0:0:0:0:
220,284,73559,1,8,0:0:0:0:
232,248,73713,1,0,0:0:0:0:
224,248,74021,1,0,0:0:0:0:
232,248,74175,1,8,0:0:0:0:
300,140,74328,1,8,0:0:0:0:
248,272,74482,1,0,0:0:0:0:
256,316,74559,1,0,0:0:0:0:
248,272,74636,1,0,0:0:0:0:
304,280,74790,1,8,0:0:0:0:
144,284,74944,1,8,0:0:0:0:
152,280,75098,1,0,0:0:0:0:
156,272,75175,1,0,0:0:0:0:
164,152,75252,1,8,0:0:0:0:
256,268,75405,1,0,0:0:0:0:
216,296,75559,1,8,0:0:0:0:
200,288,75636,1,8,0:0:0:0:
256,312,75712,1,0,0:0:0:0:
200,288,75866,1,0,0:0:0:0:
344,268,76020,1,8,0:0:0:0:
260,264,76174,1,8,0:0:0:0:
256,268,76251,1,8,0:0:0:0:
252,260,76328,1,8,0:0:0:0:
252,260,76482,1,0,0:0:0:0:
236,264,76636,1,8,0:0:0:0:
236,264,76789,1,8,0:0:0:0:
244,248,76943,1,0,0:0:0:0:
244,248,77097,1,0,0:0:0:0:
292,268,77405,1,0,0:0:0:0:
292,268,77712,1,0,0:0:0:0:
248,280,77789,1,0,0:0:0:0:
248,280,77866,1,8,0:0:0:0:
236,276,78020,1,0,0:0:0:0:
228,320,78328,1,0,0:0:0:0:
228,320,78482,1,8,0:0:0:0:
228,320,78636,1,0,0:0:0:0:
228,320,78789,1,8,0:0:0:0:
228,320,78943,1,0,0:0:0:0:
228,320,79097,1,8,0:0:0:0:
200,132,79174,1,8,0:0:0:0:
228,320,79251,1,8,0:0:0:0:
200,132,79328,1,8,0:0:0:0:
200,132,79405,1,0,0:0:0:0:
360,264,79559,1,0,0:0:0:0:
360,264,79866,1,0,0:0:0:0:
332,316,80174,1,0,0:0:0:0:
332,316,80328,1,8,0:0:0:0:
332,316,80482,1,0,0:0:0:0:
256,324,80789,1,0,0:0:0:0:
256,324,80943,1,8,0:0:0:0:
260,316,81097,1,0,0:0:0:0:
260,316,81251,1,8,0:0:0:0:
208,280,81405,1,0,0:0:0:0:
208,280,81559,1,8,0:0:0:0:
208,280,81636,1,8,0:0:0:0:
208,280,81712,1,8,0:0:0:0:
208,280,81789,1,8,0:0:0:0:
208,280,81866,1,0,0:0:0:0:
208,280,82020,1,0,0:0:0:0:
240,264,82174,1,8,0:0:0:0:
240,264,82328,1,0,0:0:0:0:
248,264,82636,1,0,0:0:0:0:
248,264,82789,1,8,0:0:0:0:
248,264,82943,1,8,0:0:0:0:
248,264,83097,1,0,0:0:0:0:
248,264,83251,1,0,0:0:0:0:
256,264,83405,1,8,0:0:0:0:
252,256,83712,1,8,0:0:0:0:
256,256,83866,1,0,0:0:0:0:
256,256,84020,1,8,0:0:0:0:
256,256,84097,1,8,0:0:0:0:
252,256,84174,1,8,0:0:0:0:
252,256,84251,1,8,0:0:0:0:
252,252,84328,1,0,0:0:0:0:
252,256,84482,1,0,0:0:0:0:
280,256,84789,1,0,0:0:0:0:
280,256,84943,1,8,0:0:0:0:
272,248,85097,1,8,0:0:0:0:
268,248,85251,1,0,0:0:0:0:
268,248,85405,1,8,0:0:0:0:
268,248,85712,1,8,0:0:0:0:
280,244,86020,1,0,0:0:0:0:
280,244,86174,1,8,0:0:0:0:
280,244,86328,1,0,0:0:0:0:
276,244,86482,1,8,0:0:0:0:
244,276,86789,1,0,0:0:0:0:
264,292,86943,1,0,0:0:0:0:
244,276,87097,1,8,0:0:0:0:
240,268,87251,1,0,0:0:0:0:
240,268,87328,1,0,0:0:0:0:
240,264,87405,1,0,0:0:0:0:
240,264,87559,1,0,0:0:0:0:
240,264,87712,1,8,0:0:0:0:
240,264,87866,1,0,0:0:0:0:
240,268,88174,1,0,0:0:0:0:
240,268,88328,1,8,0:0:0:0:
240,264,88482,1,8,0:0:0:0:
240,264,88636,1,0,0:0:0:0:
240,264,88789,1,0,0:0:0:0:
240,260,88943,1,8,0:0:0:0:
204,96,89251,1,8,0:0:0:0:
192,96,89405,1,8,0:0:0:0:
192,96,89559,1,0,0:0:0:0:
192,96,89712,1,8,0:0:0:0:
192,96,89789,1,8,0:0:0:0:
192,96,89866,1,8,0:0:0:0:
328,272,90020,1,8,0:0:0:0:
328,272,90174,1,0,0:0:0:0:
224,232,90328,1,8,0:0:0:0:
224,232,90636,1,8,0:0:0:0:
260,240,90789,1,0,0:0:0:0:
260,240,90943,1,0,0:0:0:0:
276,108,91097,1,8,0:0:0:0:
276,108,91251,1,8,0:0:0:0:
276,108,91405,1,0,0:0:0:0:
400,188,91712,1,8,0:0:0:0:
360,304,91866,1,0,0:0:0:0:
360,304,92020,1,8,0:0:0:0:
360,304,92174,1,8,0:0:0:0:
296,280,92328,1,0,0:0:0:0:
296,280,92482,1,0,0:0:0:0:
280,268,92636,1,8,0:0:0:0:
280,268,92789,1,8,0:0:0:0:
272,276,92943,1,0,0:0:0:0:
272,276,93097,1,8,0:0:0:0:
232,296,93251,1,8,0:0:0:0:
232,296,93405,1,0,0:0:0:0:
232,296,93559,1,8,0:0:0:0:
232,296,93712,1,0,0:0:0:0:
232,296,93866,1,8,0:0:0:0:
216,280,94174,1,0,0:0:0:0:
348,288,94482,1,8,0:0:0:0:
304,272,94636,1,0,0:0:0:0:
304,272,94712,1,0,0:0:0:0:
232,296,94789,1,0,0:0:0:0:
304,272,94943,1,0,0:0:0:0:
232,140,95097,1,8,0:0:0:0:
232,140,95251,1,0,0:0:0:0:
308,296,95559,1,0,0:0:0:0:
340,300,95712,1,8,0:0:0:0:
348,300,95866,1,8,0:0:0:0:
348,300,95943,1,8,0:0:0:0:
340,300,96020,1,8,0:0:0:0:
180,284,96174,1,0,0:0:0:0:
180,284,96328,1,8,0:0:0:0:
268,284,96636,1,0,0:0:0:0:
272,288,102789,5,8,0:0:0:0:
368,280,102866,1,8,0:0:0:0:
348,272,102943,1,0,0:0:0:0:
348,272,103097,1,0,0:0:0:0:
348,272,103251,1,8,0:0:0:0:
348,272,103559,1,8,0:0:0:0:
100,128,103866,1,4,0:0:0:0:
324,276,104174,1,8,0:0:0:0:
268,220,104327,1,0,0:0:0:0:
216,276,104404,1,0,0:0:0:0:
184,268,104481,1,8,0:0:0:0:
184,268,104636,1,0,0:0:0:0:
260,296,104789,1,8,0:0:0:0:
252,344,104943,1,0,0:0:0:0:
248,316,105097,1,8,0:0:0:0:
284,324,105174,1,8,0:0:0:0:
284,324,105251,1,8,0:0:0:0:
160,232,105405,1,8,0:0:0:0:
248,236,105558,1,0,0:0:0:0:
204,240,105635,1,0,0:0:0:0:
200,240,105712,1,8,0:0:0:0:
196,240,105789,1,8,0:0:0:0:
196,240,105866,1,0,0:0:0:0:
204,240,106020,1,0,0:0:0:0:
204,240,106174,1,8,0:0:0:0:
232,288,106327,1,8,0:0:0:0:
232,288,106404,1,8,0:0:0:0:
232,288,106481,1,0,0:0:0:0:
192,256,106635,1,0,0:0:0:0:
324,240,106789,1,8,0:0:0:0:
172,276,106866,1,8,0:0:0:0:
172,276,106943,1,0,0:0:0:0:
164,268,107020,1,0,0:0:0:0:
164,264,107097,1,8,0:0:0:0:
292,304,107251,1,8,0:0:0:0:
292,304,107404,1,0,0:0:0:0:
284,300,107559,1,0,0:0:0:0:
292,304,107635,1,0,0:0:0:0:
212,264,107712,1,8,0:0:0:0:
288,220,107866,1,8,0:0:0:0:
276,192,108020,1,0,0:0:0:0:
360,288,108174,1,8,0:0:0:0:
232,296,108251,1,8,0:0:0:0:
392,284,108327,1,0,0:0:0:0:
208,96,108482,1,0,0:0:0:0:
208,96,108635,1,8,0:0:0:0:
264,216,108789,1,8,0:0:0:0:
268,208,108866,1,8,0:0:0:0:
268,204,108943,1,0,0:0:0:0:
308,272,109251,1,8,0:0:0:0:
236,316,109404,1,8,0:0:0:0:
244,336,109558,1,0,0:0:0:0:
196,128,109712,1,8,0:0:0:0:
200,128,109866,1,0,0:0:0:0:
200,128,110020,1,0,0:0:0:0:
200,128,110097,1,0,0:0:0:0:
200,128,110174,1,8,0:0:0:0:
256,232,110481,1,0,0:0:0:0:
256,232,110635,1,8,0:0:0:0:
256,232,110789,1,0,0:0:0:0:
256,232,110943,1,0,0:0:0:0:
252,276,111097,1,8,0:0:0:0:
252,276,111251,1,8,0:0:0:0:
252,296,111327,1,8,0:0:0:0:
252,276,111404,1,0,0:0:0:0:
252,276,111712,1,8,0:0:0:0:
252,276,111866,1,8,0:0:0:0:
304,288,112020,1,0,0:0:0:0:
304,288,112174,1,8,0:0:0:0:
296,284,112327,1,0,0:0:0:0:
296,284,112481,1,0,0:0:0:0:
292,280,112558,1,0,0:0:0:0:
268,264,112635,1,8,0:0:0:0:
420,280,112789,1,8,0:0:0:0:
276,212,112943,1,0,0:0:0:0:
304,216,113097,1,8,0:0:0:0:
188,256,113174,1,8,0:0:0:0:
188,256,113251,1,8,0:0:0:0:
220,248,113404,1,8,0:0:0:0:
224,248,113558,1,0,0:0:0:0:
204,272,113712,1,12,0:0:0:0:
272,308,114020,1,8,0:0:0:0:
320,300,114174,1,0,0:0:0:0:
380,296,114482,1,8,0:0:0:0:
380,296,114635,1,8,0:0:0:0:
336,272,114789,1,0,0:0:0:0:
344,268,114943,1,8,0:0:0:0:
328,256,115020,1,8,0:0:0:0:
344,268,115097,1,8,0:0:0:0:
328,256,115251,1,8,0:0:0:0:
168,116,115405,1,0,0:0:0:0:
176,280,115712,1,8,0:0:0:0:
176,280,115866,1,0,0:0:0:0:
176,280,116020,1,0,0:0:0:0:
272,268,116174,1,8,0:0:0:0:
260,320,116251,1,8,0:0:0:0:
260,320,116327,1,0,0:0:0:0:
136,108,116482,1,8,0:0:0:0:
136,108,116635,1,0,0:0:0:0:
352,248,116943,1,8,0:0:0:0:
352,248,117097,1,8,0:0:0:0:
344,236,117251,1,0,0:0:0:0:
344,236,117404,1,8,0:0:0:0:
336,232,117481,1,8,0:0:0:0:
344,236,117558,1,8,0:0:0:0:
256,260,117712,1,8,0:0:0:0:
280,260,117866,1,0,0:0:0:0:
280,260,118174,1,8,0:0:0:0:
296,256,118327,1,0,0:0:0:0:
296,260,118481,1,0,0:0:0:0:
292,256,118635,1,8,0:0:0:0:
284,256,118712,1,8,0:0:0:0:
292,256,118789,1,8,0:0:0:0:
332,240,119097,1,0,0:0:0:0:
332,240,119251,1,8,0:0:0:0:
328,248,119327,1,8,0:0:0:0:
332,240,119405,1,8,0:0:0:0:
320,268,119558,1,8,0:0:0:0:
320,268,119712,1,0,0:0:0:0:
220,260,119866,1,0,0:0:0:0:
228,264,119943,1,0,0:0:0:0:
216,312,120020,1,8,0:0:0:0:
224,304,120328,1,0,0:0:0:0:
232,300,120482,1,8,0:0:0:0:
228,288,120558,1,8,0:0:0:0:
228,288,120635,1,0,0:0:0:0:
224,284,120789,1,8,0:0:0:0:
224,284,120943,1,0,0:0:0:0:
176,264,121097,1,0,0:0:0:0:
156,248,121174,1,0,0:0:0:0:
224,280,121251,1,8,0:0:0:0:
256,260,121558,1,0,0:0:0:0:
184,116,121712,1,8,0:0:0:0:
184,116,121789,1,8,0:0:0:0:
184,116,121866,1,8,0:0:0:0:
184,116,122020,1,8,0:0:0:0:
184,116,122174,1,0,0:0:0:0:
228,312,122327,1,0,0:0:0:0:
224,304,122404,1,0,0:0:0:0:
200,304,122481,1,8,0:0:0:0:
296,280,122635,1,8,0:0:0:0:
296,280,122789,1,0,0:0:0:0:
340,304,122943,1,0,0:0:0:0:
348,292,123097,1,8,0:0:0:0:
348,292,123251,1,8,0:0:0:0:
348,292,123405,1,8,0:0:0:0:
308,320,123559,1,0,0:0:0:0:
196,276,123712,1,12,0:0:0:0:
316,316,123866,1,0,0:0:0:0:
228,288,124174,1,0,0:0:0:0:
276,280,124482,1,0,0:0:0:0:
276,280,124636,1,8,0:0:0:0:
276,280,124789,1,0,0:0:0:0:
380,300,125097,1,0,0:0:0:0:
380,300,125405,1,0,0:0:0:0:
380,300,125559,1,8,0:0:0:0:
216,308,125712,1,0,0:0:0:0:
288,292,125866,1,8,0:0:0:0:
288,292,125943,1,8,0:0:0:0:
288,292,126020,1,8,0:0:0:0:
288,292,126097,1,8,0:0:0:0:
280,288,126174,1,0,0:0:0:0:
280,288,126482,1,8,0:0:0:0:
400,240,126636,1,0,0:0:0:0:
272,272,126712,1,0,0:0:0:0:
400,240,126789,1,0,0:0:0:0:
272,272,126943,1,0,0:0:0:0:
132,156,127097,1,8,0:0:0:0:
292,300,127405,1,0,0:0:0:0:
288,328,127559,1,0,0:0:0:0:
280,320,127712,1,8,0:0:0:0:
244,168,127866,1,8,0:0:0:0:
268,336,127943,1,8,0:0:0:0:
244,168,128020,1,0,0:0:0:0:
244,168,128174,1,0,0:0:0:0:
244,168,128328,1,8,0:0:0:0:
280,268,128482,1,0,0:0:0:0:
368,300,128636,1,12,0:0:0:0:
368,292,128789,1,0,0:0:0:0:
368,292,129097,1,0,0:0:0:0:
368,292,129405,1,0,0:0:0:0:
368,292,129559,1,8,0:0:0:0:
252,296,129712,1,0,0:0:0:0:
252,296,130020,1,0,0:0:0:0:
256,248,130328,1,0,0:0:0:0:
256,248,130482,1,8,0:0:0:0:
256,248,130636,1,0,0:0:0:0:
236,244,130789,1,8,0:0:0:0:
212,276,130866,1,8,0:0:0:0:
236,244,130943,1,8,0:0:0:0:
168,272,131020,1,8,0:0:0:0:
168,272,131097,1,0,0:0:0:0:
168,272,131405,1,8,0:0:0:0:
304,120,131559,1,0,0:0:0:0:
304,120,131636,1,0,0:0:0:0:
304,120,131712,1,0,0:0:0:0:
304,120,131866,1,0,0:0:0:0:
304,120,132020,1,8,0:0:0:0:
272,268,132328,1,0,0:0:0:0:
288,268,132482,1,0,0:0:0:0:
288,268,132636,1,8,0:0:0:0:
228,112,132789,1,0,0:0:0:0:
228,112,132943,1,0,0:0:0:0:
228,112,133097,1,8,0:0:0:0:
228,112,133174,1,8,0:0:0:0:
228,112,133251,1,8,0:0:0:0:
304,248,133405,1,4,0:0:0:0:
296,324,133712,1,0,0:0:0:0:
296,324,133866,1,8,0:0:0:0:
236,304,133943,1,8,0:0:0:0:
220,308,134020,1,0,0:0:0:0:
220,308,134174,1,8,0:0:0:0:
220,308,134328,1,8,0:0:0:0:
268,312,134482,1,0,0:0:0:0:
268,312,134636,1,8,0:0:0:0:
216,288,134789,1,0,0:0:0:0:
136,248,134943,1,0,0:0:0:0:
288,196,135020,1,0,0:0:0:0:
128,244,135097,1,8,0:0:0:0:
128,244,135251,1,8,0:0:0:0:
316,292,135405,1,0,0:0:0:0:
284,304,135482,1,0,0:0:0:0:
128,244,135559,1,0,0:0:0:0:
128,244,135712,1,8,0:0:0:0:
248,264,136020,1,0,0:0:0:0:
184,264,136097,1,0,0:0:0:0:
232,256,136174,1,0,0:0:0:0:
176,252,136328,1,8,0:0:0:0:
176,252,136482,1,8,0:0:0:0:
200,256,136636,1,0,0:0:0:0:
200,280,136712,1,0,0:0:0:0:
200,280,136789,1,8,0:0:0:0:
200,280,136943,1,0,0:0:0:0:
200,280,137097,1,0,0:0:0:0:
196,276,137251,1,8,0:0:0:0:
192,276,137328,1,8,0:0:0:0:
184,296,137405,1,0,0:0:0:0:
176,296,137559,1,8,0:0:0:0:
176,296,137712,1,8,0:0:0:0:
212,292,137866,1,0,0:0:0:0:
248,288,137943,1,0,0:0:0:0:
232,276,138020,1,0,0:0:0:0:
228,272,138174,1,8,0:0:0:0:
376,272,138482,1,8,0:0:0:0:
376,272,138559,1,8,0:0:0:0:
304,280,138636,1,0,0:0:0:0:
284,272,138789,1,8,0:0:0:0:
284,272,138943,1,0,0:0:0:0:
248,256,139097,1,8,0:0:0:0:
248,256,139251,1,8,0:0:0:0:
248,256,139405,1,0,0:0:0:0:
228,252,139559,1,8,0:0:0:0:
228,252,139636,1,8,0:0:0:0:
224,252,139712,1,0,0:0:0:0:
224,252,139789,1,0,0:0:0:0:
224,252,139866,1,8,0:0:0:0:
184,280,140020,1,0,0:0:0:0:
184,280,140174,1,0,0:0:0:0:
200,276,140328,1,8,0:0:0:0:
160,184,140482,1,0,0:0:0:0:
160,184,140559,1,0,0:0:0:0:
184,120,140636,1,8,0:0:0:0:
232,228,140943,1,0,0:0:0:0:
212,128,141097,1,0,0:0:0:0:
212,128,141251,1,8,0:0:0:0:
212,128,141405,1,0,0:0:0:0:
212,128,141482,1,0,0:0:0:0:
212,128,141559,1,8,0:0:0:0:
256,252,141712,1,0,0:0:0:0:
256,252,141866,1,8,0:0:0:0:
252,248,142020,1,8,0:0:0:0:
260,240,142097,1,8,0:0:0:0:
260,240,142174,1,0,0:0:0:0:
352,280,142328,1,0,0:0:0:0:
304,300,142482,1,8,0:0:0:0:
248,204,142636,1,0,0:0:0:0:
160,296,142712,1,8,0:0:0:0:
212,300,142789,1,8,0:0:0:0:
172,280,142943,1,0,0:0:0:0:
172,280,143097,1,8,0:0:0:0:
256,192,143405,12,0,144328,0:0:0:0:
272,200,144636,5,0,0:0:0:0:
288,240,154174,5,8,0:0:0:0:
200,140,154482,1,4,0:0:0:0:
288,192,154789,1,8,0:0:0:0:
288,192,154943,1,0,0:0:0:0:
220,280,155020,1,0,0:0:0:0:
288,192,155097,1,0,0:0:0:0:
220,280,155251,1,0,0:0:0:0:
240,248,155405,1,8,0:0:0:0:
240,248,155712,1,0,0:0:0:0:
272,240,156020,1,8,0:0:0:0:
224,212,156174,1,8,0:0:0:0:
216,204,156251,1,8,0:0:0:0:
200,192,156328,1,8,0:0:0:0:
200,192,156482,1,0,0:0:0:0:
184,188,156636,1,8,0:0:0:0:
184,188,156943,1,0,0:0:0:0:
232,204,157251,1,8,0:0:0:0:
232,204,157405,1,0,0:0:0:0:
200,264,157482,1,0,0:0:0:0:
232,204,157559,1,0,0:0:0:0:
200,296,157712,1,0,0:0:0:0:
200,296,157866,1,8,0:0:0:0:
200,296,158174,1,0,0:0:0:0:
260,300,158482,1,8,0:0:0:0:
260,300,158636,1,8,0:0:0:0:
244,284,158712,1,8,0:0:0:0:
232,268,158789,1,8,0:0:0:0:
316,244,158943,1,0,0:0:0:0:
316,244,159097,1,8,0:0:0:0:
316,244,159251,1,8,0:0:0:0:
316,244,159405,1,0,0:0:0:0:
216,272,159712,1,8,0:0:0:0:
228,300,159866,1,0,0:0:0:0:
216,272,159943,1,0,0:0:0:0:
220,268,160020,1,0,0:0:0:0:
224,312,160174,1,0,0:0:0:0:
224,312,160328,1,8,0:0:0:0:
340,272,160636,1,8,0:0:0:0:
164,240,160712,1,8,0:0:0:0:
168,264,160789,1,0,0:0:0:0:
192,280,160943,1,8,0:0:0:0:
192,280,161097,1,8,0:0:0:0:
236,264,161251,1,0,0:0:0:0:
236,264,161405,1,8,0:0:0:0:
236,264,161559,1,8,0:0:0:0:
264,256,161712,1,4,0:0:0:0:
324,276,162021,1,0,0:0:0:0:
268,220,162174,1,8,0:0:0:0:
216,276,162251,1,8,0:0:0:0:
184,268,162328,1,0,0:0:0:0:
184,268,162482,1,8,0:0:0:0:
260,296,162636,1,0,0:0:0:0:
252,344,162790,1,8,0:0:0:0:
248,316,162944,1,0,0:0:0:0:
284,324,163021,1,0,0:0:0:0:
284,324,163098,1,0,0:0:0:0:
160,232,163251,1,0,0:0:0:0:
248,236,163405,1,8,0:0:0:0:
204,240,163482,1,8,0:0:0:0:
200,240,163559,1,0,0:0:0:0:
196,240,163636,1,0,0:0:0:0:
196,240,163713,1,8,0:0:0:0:
204,240,163867,1,8,0:0:0:0:
204,240,164021,1,0,0:0:0:0:
232,288,164174,1,0,0:0:0:0:
232,288,164251,1,0,0:0:0:0:
232,288,164328,1,8,0:0:0:0:
192,256,164482,1,8,0:0:0:0:
324,240,164636,1,0,0:0:0:0:
172,276,164713,1,0,0:0:0:0:
172,276,164790,1,8,0:0:0:0:
164,268,164867,1,8,0:0:0:0:
164,264,164944,1,0,0:0:0:0:
292,304,165098,1,0,0:0:0:0:
292,304,165251,1,8,0:0:0:0:
284,300,165405,1,8,0:0:0:0:
292,304,165482,1,8,0:0:0:0:
212,264,165559,1,0,0:0:0:0:
288,220,165713,1,0,0:0:0:0:
276,192,165867,1,8,0:0:0:0:
360,288,166021,1,0,0:0:0:0:
232,296,166098,1,0,0:0:0:0:
392,284,166174,1,8,0:0:0:0:
208,96,166328,1,8,0:0:0:0:
208,96,166482,1,0,0:0:0:0:
264,216,166636,1,0,0:0:0:0:
268,208,166713,1,0,0:0:0:0:
268,204,166790,1,8,0:0:0:0:
308,272,167098,1,0,0:0:0:0:
236,316,167251,1,0,0:0:0:0:
244,336,167405,1,8,0:0:0:0:
196,128,167559,1,0,0:0:0:0:
200,128,167713,1,8,0:0:0:0:
200,128,167867,1,8,0:0:0:0:
200,128,167944,1,8,0:0:0:0:
200,128,168021,1,0,0:0:0:0:
256,232,168328,1,8,0:0:0:0:
256,232,168482,1,0,0:0:0:0:
256,232,168636,1,8,0:0:0:0:
256,232,168790,1,8,0:0:0:0:
252,276,168944,1,0,0:0:0:0:
252,276,169098,1,0,0:0:0:0:
252,296,169174,1,0,0:0:0:0:
252,276,169251,1,8,0:0:0:0:
252,276,169559,1,0,0:0:0:0:
252,276,169713,1,0,0:0:0:0:
304,288,169867,1,8,0:0:0:0:
304,288,170021,1,0,0:0:0:0:
296,284,170174,1,8,0:0:0:0:
296,284,170328,1,8,0:0:0:0:
292,280,170405,1,8,0:0:0:0:
268,264,170482,1,0,0:0:0:0:
420,280,170636,1,0,0:0:0:0:
276,212,170790,1,8,0:0:0:0:
304,216,170944,1,0,0:0:0:0:
188,256,171021,1,0,0:0:0:0:
188,256,171098,1,0,0:0:0:0:
220,248,171251,1,0,0:0:0:0:
224,248,171405,1,8,0:0:0:0:
204,272,171559,1,4,0:0:0:0:
272,308,171867,1,0,0:0:0:0:
320,300,172021,1,8,0:0:0:0:
380,296,172328,1,0,0:0:0:0:
380,296,172482,1,0,0:0:0:0:
336,272,172636,1,8,0:0:0:0:
344,268,172790,1,0,0:0:0:0:
328,256,172867,1,0,0:0:0:0:
344,268,172944,1,0,0:0:0:0:
328,256,173098,1,0,0:0:0:0:
168,116,173251,1,8,0:0:0:0:
176,280,173559,1,0,0:0:0:0:
176,280,173713,1,8,0:0:0:0:
176,280,173867,1,8,0:0:0:0:
272,268,174021,1,0,0:0:0:0:
260,320,174098,1,0,0:0:0:0:
260,320,174174,1,8,0:0:0:0:
136,108,174328,1,0,0:0:0:0:
136,108,174482,1,8,0:0:0:0:
352,248,174790,1,0,0:0:0:0:
352,248,174944,1,0,0:0:0:0:
344,236,175098,1,8,0:0:0:0:
344,236,175251,1,0,0:0:0:0:
336,232,175328,1,0,0:0:0:0:
344,236,175405,1,0,0:0:0:0:
256,260,175559,1,0,0:0:0:0:
280,260,175713,1,8,0:0:0:0:
280,260,176021,1,0,0:0:0:0:
296,256,176174,1,8,0:0:0:0:
296,260,176328,1,8,0:0:0:0:
292,256,176482,1,0,0:0:0:0:
284,256,176559,1,0,0:0:0:0:
292,256,176636,1,0,0:0:0:0:
332,240,176944,1,8,0:0:0:0:
332,240,177098,1,0,0:0:0:0:
328,248,177174,1,0,0:0:0:0:
332,240,177251,1,0,0:0:0:0:
320,268,177405,1,0,0:0:0:0:
320,268,177559,1,8,0:0:0:0:
220,260,177713,1,8,0:0:0:0:
228,264,177790,1,8,0:0:0:0:
216,312,177867,1,0,0:0:0:0:
224,304,178174,1,8,0:0:0:0:
232,300,178328,1,0,0:0:0:0:
228,288,178405,1,0,0:0:0:0:
228,288,178482,1,8,0:0:0:0:
224,284,178636,1,0,0:0:0:0:
224,284,178790,1,8,0:0:0:0:
176,264,178944,1,8,0:0:0:0:
156,248,179021,1,8,0:0:0:0:
224,280,179098,1,0,0:0:0:0:
288,240,179251,1,0,0:0:0:0:
328,228,179559,1,0,0:0:0:0:
252,300,179636,1,0,0:0:0:0:
328,228,179712,1,8,0:0:0:0:
212,292,179866,1,0,0:0:0:0:
256,264,180174,1,8,0:0:0:0:
228,240,180251,1,8,0:0:0:0:
204,240,180328,1,8,0:0:0:0:
204,240,180482,1,0,0:0:0:0:
204,240,180636,1,8,0:0:0:0:
204,240,180789,1,8,0:0:0:0:
376,260,181559,1,0,0:0:0:0:
320,300,181636,1,0,0:0:0:0:
308,296,181712,1,0,0:0:0:0:
292,284,181789,1,0,0:0:0:0:
280,276,181866,1,8,0:0:0:0:
292,284,181943,1,8,0:0:0:0:
280,276,182020,1,8,0:0:0:0:
164,240,182097,1,8,0:0:0:0:
260,264,182174,1,0,0:0:0:0:
164,240,182251,1,0,0:0:0:0:
256,256,182328,1,8,0:0:0:0:
256,252,182405,1,8,0:0:0:0:
252,252,182482,1,0,0:0:0:0:
244,248,182559,1,0,0:0:0:0:
240,248,182636,1,8,0:0:0:0:
196,256,182789,1,4,0:0:0:0:
192,304,182943,1,0,0:0:0:0:
216,304,183019,1,0,0:0:0:0:
308,280,183096,1,8,0:0:0:0:
168,228,183250,1,0,0:0:0:0:
288,248,183558,1,0,0:0:0:0:
288,248,183712,1,8,0:0:0:0:
224,232,183866,1,0,0:0:0:0:
224,232,184019,1,0,0:0:0:0:
220,228,184173,1,8,0:0:0:0:
204,224,184250,1,8,0:0:0:0:
220,228,184327,1,8,0:0:0:0:
204,224,184481,1,0,0:0:0:0:
144,224,184789,1,0,0:0:0:0:
264,232,184943,1,8,0:0:0:0:
320,244,185096,1,8,0:0:0:0:
340,320,185250,1,0,0:0:0:0:
288,284,185404,1,0,0:0:0:0:
340,320,185481,1,0,0:0:0:0:
136,252,185558,1,8,0:0:0:0:
196,296,185712,1,0,0:0:0:0:
196,292,185866,1,8,0:0:0:0:
136,252,186019,1,8,0:0:0:0:
200,288,186096,1,8,0:0:0:0:
136,232,186173,1,0,0:0:0:0:
136,232,186327,1,8,0:0:0:0:
296,236,186635,1,0,0:0:0:0:
288,280,186789,1,8,0:0:0:0:
244,256,186943,1,0,0:0:0:0:
300,268,187019,1,0,0:0:0:0:
300,268,187096,1,0,0:0:0:0:
164,284,187250,1,0,0:0:0:0:
164,284,187404,1,8,0:0:0:0:
216,268,187712,1,0,0:0:0:0:
216,268,187866,1,0,0:0:0:0:
124,240,187943,1,0,0:0:0:0:
160,248,188019,1,8,0:0:0:0:
192,260,188173,1,0,0:0:0:0:
240,292,188481,1,0,0:0:0:0:
240,292,188635,1,8,0:0:0:0:
240,292,188789,1,0,0:0:0:0:
220,284,188943,1,0,0:0:0:0:
220,284,189096,1,8,0:0:0:0:
208,280,189173,1,8,0:0:0:0:
220,284,189250,1,8,0:0:0:0:
232,248,189404,1,0,0:0:0:0:
224,248,189712,1,0,0:0:0:0:
232,248,189866,1,8,0:0:0:0:
300,140,190019,1,8,0:0:0:0:
376,244,190174,1,0,0:0:0:0:
376,244,190328,1,0,0:0:0:0:
344,304,190405,1,0,0:0:0:0:
288,312,190482,1,8,0:0:0:0:
288,312,190636,1,0,0:0:0:0:
284,296,190943,1,0,0:0:0:0:
296,308,191097,1,8,0:0:0:0:
296,308,191251,1,8,0:0:0:0:
276,288,191328,1,8,0:0:0:0:
256,276,191405,1,8,0:0:0:0:
224,264,191559,1,8,0:0:0:0:
228,284,191712,1,0,0:0:0:0:
228,284,191866,1,0,0:0:0:0:
256,276,192020,1,8,0:0:0:0:
256,276,192174,1,0,0:0:0:0:
256,276,192482,1,0,0:0:0:0:
256,276,192636,1,12,0:0:0:0:
