osu file format v14

[General]
AudioFilename: audio.mp3
AudioLeadIn: 0
PreviewTime: 161251
Countdown: 0
SampleSet: Normal
StackLeniency: 0.7
Mode: 1
LetterboxInBreaks: 0
WidescreenStoryboard: 0

[Editor]
DistanceSpacing: 1.1
BeatDivisor: 4
GridSize: 4
TimelineZoom: 2

[Metadata]
Title:Mikansei Koukyoukyoku
TitleUnicode:未完成交響曲
Artist:ONE OK ROCK
ArtistUnicode:ONE OK ROCK
Creator:Chromoxx
Version:Inner Oni
Source:
Tags:Nicheシンドローム niche syndrome unfinished symphony taka toru ryota tomoya j-rock jrock ワンオクロック
BeatmapID:1412711
BeatmapSetID:667682

[Difficulty]
HPDrainRate:6
CircleSize:5
OverallDifficulty:7
ApproachRate:5
SliderMultiplier:1.4
SliderTickRate:1

[Events]
//Background and Video events
0,0,"bg.jpg",0,0
//Break Periods
2,144836,152974
//Storyboard Layer 0 (Background)
//Storyboard Layer 1 (Fail)
//Storyboard Layer 2 (Pass)
//Storyboard Layer 3 (Foreground)
//Storyboard Sound Samples

[TimingPoints]
636,307.692307692308,4,1,0,60,1,0
5559,-100,4,1,0,70,0,0
10482,-100,4,1,0,80,0,0
40174,-100,4,1,0,50,0,0
46174,-100,4,1,0,80,0,0
47251,-100,4,1,0,90,0,1
67097,-100,4,1,0,90,0,0
67251,-100,4,1,0,80,0,0
96789,-100,4,1,0,50,0,0
102789,-100,4,1,0,80,0,0
103866,-100,4,1,0,90,0,1
123712,-100,4,1,0,90,0,0
123866,-100,4,1,0,80,0,0
143405,-100,4,1,0,50,0,0
154174,-100,4,1,0,70,0,0
154482,-100,4,1,0,90,0,1
160636,-100,4,1,0,90,0,0
161712,-100,4,1,0,90,0,1
181559,-100,4,1,0,80,0,0

[HitObjects]
262,273,636,5,4,0:0:0:0:
262,273,789,1,4,0:0:0:0:
127,139,943,1,8,0:0:0:0:
130,145,1097,1,0,0:0:0:0:
200,239,1405,1,8,0:0:0:0:
194,236,1559,1,0,0:0:0:0:
149,249,1712,1,8,0:0:0:0:
149,249,1866,1,0,0:0:0:0:
172,233,2020,1,8,0:0:0:0:
122,253,2174,1,0,0:0:0:0:
165,226,2328,1,0,0:0:0:0:
211,218,2636,1,0,0:0:0:0:
250,201,2789,1,12,0:0:0:0:
190,276,2943,1,0,0:0:0:0:
182,141,3097,1,12,0:0:0:0:
182,141,3251,1,12,0:0:0:0:
182,141,3405,1,0,0:0:0:0:
182,141,3559,1,0,0:0:0:0:
360,306,3866,1,8,0:0:0:0:
175,289,4020,1,0,0:0:0:0:
131,276,4174,1,8,0:0:0:0:
131,276,4328,1,0,0:0:0:0:
175,130,4482,1,8,0:0:0:0:
175,130,4636,1,0,0:0:0:0:
175,130,4789,1,8,0:0:0:0:
313,271,4943,1,0,0:0:0:0:
301,265,5020,1,8,0:0:0:0:
267,253,5097,1,8,0:0:0:0:
144,242,5174,1,0,0:0:0:0:
138,236,5251,1,8,0:0:0:0:
208,217,5559,1,4,0:0:0:0:
238,280,5712,1,8,0:0:0:0:
238,280,5866,1,8,0:0:0:0:
204,261,6020,1,0,0:0:0:0:
204,261,6097,1,0,0:0:0:0:
114,239,6174,1,8,0:0:0:0:
255,352,6328,1,8,0:0:0:0:
295,289,6482,1,0,0:0:0:0:
229,265,6636,1,8,0:0:0:0:
161,247,6712,1,8,0:0:0:0:
229,265,6789,1,0,0:0:0:0:
236,261,6943,1,8,0:0:0:0:
236,261,7097,1,8,0:0:0:0:
338,225,7174,1,8,0:0:0:0:
289,212,7251,1,0,0:0:0:0:
175,169,7405,1,8,0:0:0:0:
318,168,7559,1,8,0:0:0:0:
250,236,7636,1,8,0:0:0:0:
216,212,7712,1,0,0:0:0:0:
232,206,7866,1,0,0:0:0:0:
209,196,7943,1,0,0:0:0:0:
232,206,8020,1,0,0:0:0:0:
254,248,8174,1,8,0:0:0:0:
254,248,8328,1,8,0:0:0:0:
224,232,8482,1,0,0:0:0:0:
125,248,8559,1,0,0:0:0:0:
335,257,8636,1,8,0:0:0:0:
218,259,8789,1,8,0:0:0:0:
284,229,8943,1,0,0:0:0:0:
266,211,9097,1,8,0:0:0:0:
266,211,9174,1,8,0:0:0:0:
231,200,9251,1,0,0:0:0:0:
61,191,9405,1,8,0:0:0:0:
209,172,9482,1,8,0:0:0:0:
169,162,9559,1,8,0:0:0:0:
209,172,9636,1,8,0:0:0:0:
198,288,9712,1,0,0:0:0:0:
186,259,9789,1,0,0:0:0:0:
214,228,9866,1,8,0:0:0:0:
115,196,9943,1,0,0:0:0:0:
87,187,10020,1,8,0:0:0:0:
70,179,10097,1,8,0:0:0:0:
65,176,10174,1,0,0:0:0:0:
63,175,10251,1,8,0:0:0:0:
58,169,10328,1,8,0:0:0:0:
38,161,10405,1,8,0:0:0:0:
268,204,10482,1,0,0:0:0:0:
175,265,10636,1,0,0:0:0:0:
299,309,10789,1,8,0:0:0:0:
75,263,10866,1,8,0:0:0:0:
59,252,10943,1,0,0:0:0:0:
64,251,11097,1,8,0:0:0:0:
64,250,11251,1,8,0:0:0:0:
280,128,11405,1,0,0:0:0:0:
280,128,11482,1,0,0:0:0:0:
280,128,11559,1,8,0:0:0:0:
279,276,11712,1,0,0:0:0:0:
279,276,11866,1,0,0:0:0:0:
243,264,12020,1,8,0:0:0:0:
174,248,12097,1,8,0:0:0:0:
136,243,12174,1,0,0:0:0:0:
121,234,12328,1,8,0:0:0:0:
121,234,12482,1,8,0:0:0:0:
238,255,12636,1,0,0:0:0:0:
217,248,12712,1,0,0:0:0:0:
156,234,12789,1,8,0:0:0:0:
231,262,12943,1,0,0:0:0:0:
231,262,13097,1,0,0:0:0:0:
227,260,13251,1,8,0:0:0:0:
216,256,13328,1,8,0:0:0:0:
211,253,13405,1,0,0:0:0:0:
208,252,13559,1,8,0:0:0:0:
208,252,13712,1,0,0:0:0:0:
208,252,13789,1,0,0:0:0:0:
159,245,13866,1,8,0:0:0:0:
176,209,14020,1,0,0:0:0:0:
176,209,14328,1,0,0:0:0:0:
301,239,14482,1,8,0:0:0:0:
197,299,14636,1,8,0:0:0:0:
142,271,14712,1,8,0:0:0:0:
108,257,14789,1,0,0:0:0:0:
207,218,14943,1,0,0:0:0:0:
137,273,15020,1,0,0:0:0:0:
99,237,15097,1,8,0:0:0:0:
143,237,15174,1,8,0:0:0:0:
118,227,15251,1,0,0:0:0:0:
166,245,15405,1,8,0:0:0:0:
166,245,15559,1,8,0:0:0:0:
225,247,15712,1,0,0:0:0:0:
220,245,15789,1,0,0:0:0:0:
239,299,15866,1,8,0:0:0:0:
212,233,16020,1,0,0:0:0:0:
210,102,16174,1,0,0:0:0:0:
210,102,16328,1,8,0:0:0:0:
210,102,16405,1,8,0:0:0:0:
210,102,16482,1,0,0:0:0:0:
315,318,16636,1,8,0:0:0:0:
315,318,16789,1,8,0:0:0:0:
216,276,16943,1,0,0:0:0:0:
153,253,17020,1,0,0:0:0:0:
118,266,17097,1,8,0:0:0:0:
161,267,17251,1,0,0:0:0:0:
161,267,17405,1,0,0:0:0:0:
171,249,17559,1,8,0:0:0:0:
154,241,17636,1,8,0:0:0:0:
145,233,17712,1,0,0:0:0:0:
145,233,17866,1,8,0:0:0:0:
157,149,18020,1,0,0:0:0:0:
157,149,18097,1,0,0:0:0:0:
157,149,18174,1,8,0:0:0:0:
257,259,18328,1,8,0:0:0:0:
298,254,18482,1,0,0:0:0:0:
291,245,18559,1,0,0:0:0:0:
298,254,18636,1,0,0:0:0:0:
235,253,18789,1,8,0:0:0:0:
288,242,18943,1,8,0:0:0:0:
272,240,19020,1,8,0:0:0:0:
288,242,19097,1,8,0:0:0:0:
278,248,19251,1,8,0:0:0:0:
157,264,19405,1,0,0:0:0:0:
300,252,19559,1,0,0:0:0:0:
85,145,19712,1,8,0:0:0:0:
244,208,19866,1,4,0:0:0:0:
217,173,20174,1,0,0:0:0:0:
274,172,20328,1,12,0:0:0:0:
291,326,20636,1,0,0:0:0:0:
299,304,20789,1,0,0:0:0:0:
299,304,20943,1,8,0:0:0:0:
299,304,21097,1,0,0:0:0:0:
122,188,21251,1,8,0:0:0:0:
73,156,21405,1,0,0:0:0:0:
221,277,21712,1,0,0:0:0:0:
228,271,22020,1,0,0:0:0:0:
255,270,22174,1,8,0:0:0:0:
255,270,22328,1,0,0:0:0:0:
195,252,22482,1,8,0:0:0:0:
157,234,22559,1,8,0:0:0:0:
195,252,22636,1,8,0:0:0:0:
146,230,22712,1,8,0:0:0:0:
133,223,22789,1,0,0:0:0:0:
133,223,23097,1,8,0:0:0:0:
111,260,23251,1,8,0:0:0:0:
234,176,23405,1,0,0:0:0:0:
234,176,23559,1,8,0:0:0:0:
234,176,23712,1,0,0:0:0:0:
234,176,23866,1,8,0:0:0:0:
245,236,24174,1,8,0:0:0:0:
231,226,24482,1,0,0:0:0:0:
231,227,24636,1,8,0:0:0:0:
231,227,24789,1,0,0:0:0:0:
174,208,24943,1,8,0:0:0:0:
151,203,25020,1,8,0:0:0:0:
174,208,25097,1,8,0:0:0:0:
151,203,25174,1,8,0:0:0:0:
111,189,25251,1,0,0:0:0:0:
111,189,25405,1,0,0:0:0:0:
100,182,25559,1,8,0:0:0:0:
251,259,25712,1,0,0:0:0:0:
251,259,26020,1,0,0:0:0:0:
147,224,26174,1,8,0:0:0:0:
147,224,26328,1,8,0:0:0:0:
109,211,26482,1,0,0:0:0:0:
109,211,26636,1,0,0:0:0:0:
105,136,26789,1,8,0:0:0:0:
105,136,26943,1,0,0:0:0:0:
288,224,27097,1,8,0:0:0:0:
288,224,27251,1,8,0:0:0:0:
267,257,27405,1,0,0:0:0:0:
166,287,27482,1,0,0:0:0:0:
140,273,27559,1,0,0:0:0:0:
139,303,27636,1,0,0:0:0:0:
66,262,27712,1,8,0:0:0:0:
231,280,27866,1,0,0:0:0:0:
226,276,28174,1,0,0:0:0:0:
226,276,28328,1,8,0:0:0:0:
130,251,28482,1,8,0:0:0:0:
251,272,28636,1,0,0:0:0:0:
255,272,28789,1,0,0:0:0:0:
243,288,28943,1,8,0:0:0:0:
101,307,29097,1,8,0:0:0:0:
181,338,29174,1,8,0:0:0:0:
99,298,29251,1,0,0:0:0:0:
114,308,29405,1,0,0:0:0:0:
113,308,29559,1,8,0:0:0:0:
109,302,29712,1,0,0:0:0:0:
104,299,29866,1,8,0:0:0:0:
248,239,30020,1,8,0:0:0:0:
173,262,30174,1,0,0:0:0:0:
201,178,30482,1,8,0:0:0:0:
287,156,30636,1,0,0:0:0:0:
287,156,30712,1,0,0:0:0:0:
213,153,30789,1,0,0:0:0:0:
213,153,30943,1,0,0:0:0:0:
181,141,31097,1,8,0:0:0:0:
112,133,31174,1,8,0:0:0:0:
77,135,31251,1,0,0:0:0:0:
77,135,31405,1,8,0:0:0:0:
185,228,31559,1,0,0:0:0:0:
174,213,31636,1,0,0:0:0:0:
106,189,31712,1,8,0:0:0:0:
106,189,31866,1,8,0:0:0:0:
252,193,32020,1,0,0:0:0:0:
252,193,32174,1,0,0:0:0:0:
185,197,32328,1,8,0:0:0:0:
185,197,32636,1,0,0:0:0:0:
172,204,32789,1,0,0:0:0:0:
291,216,32943,1,8,0:0:0:0:
50,192,33020,1,8,0:0:0:0:
60,199,33097,1,0,0:0:0:0:
196,215,33251,1,8,0:0:0:0:
116,242,33405,1,0,0:0:0:0:
213,280,33482,1,0,0:0:0:0:
207,113,33559,1,8,0:0:0:0:
357,334,33712,1,0,0:0:0:0:
331,269,34020,1,0,0:0:0:0:
110,241,34174,1,8,0:0:0:0:
331,269,34328,1,8,0:0:0:0:
224,282,34482,1,0,0:0:0:0:
207,296,34636,1,0,0:0:0:0:
164,155,34789,1,8,0:0:0:0:
215,302,34866,1,8,0:0:0:0:
152,307,34943,1,0,0:0:0:0:
185,156,35097,1,8,0:0:0:0:
261,207,35251,1,0,0:0:0:0:
221,213,35328,1,0,0:0:0:0:
187,156,35405,1,0,0:0:0:0:
187,156,35559,1,8,0:0:0:0:
172,217,35866,1,0,0:0:0:0:
172,217,36020,1,8,0:0:0:0:
149,224,36174,1,8,0:0:0:0:
121,254,36328,1,0,0:0:0:0:
82,239,36405,1,0,0:0:0:0:
121,254,36482,1,0,0:0:0:0:
82,239,36636,1,8,0:0:0:0:
212,254,36789,1,0,0:0:0:0:
212,254,36943,1,8,0:0:0:0:
192,247,37020,1,8,0:0:0:0:
212,254,37097,1,8,0:0:0:0:
252,248,37251,1,0,0:0:0:0:
252,248,37405,1,0,0:0:0:0:
265,256,37559,1,8,0:0:0:0:
254,253,37636,1,8,0:0:0:0:
220,240,37712,1,0,0:0:0:0:
220,240,37866,1,8,0:0:0:0:
220,240,38020,1,8,0:0:0:0:
222,244,38174,1,0,0:0:0:0:
250,254,38328,1,0,0:0:0:0:
255,251,38405,1,0,0:0:0:0:
196,228,38482,1,8,0:0:0:0:
274,237,38636,1,0,0:0:0:0:
274,237,38943,1,0,0:0:0:0:
277,239,39097,1,8,0:0:0:0:
205,247,39251,1,8,0:0:0:0:
263,260,39328,1,8,0:0:0:0:
250,247,39405,1,0,0:0:0:0:
292,249,39559,1,0,0:0:0:0:
242,223,39712,1,8,0:0:0:0:
213,256,40020,1,0,0:0:0:0:
215,255,42482,1,0,0:0:0:0:
291,312,44943,1,0,0:0:0:0:
291,312,46174,1,8,0:0:0:0:
291,312,46251,1,8,0:0:0:0:
281,306,46328,1,0,0:0:0:0:
267,302,46405,1,0,0:0:0:0:
267,302,46482,1,0,0:0:0:0:
224,187,46636,1,12,0:0:0:0:
384,223,46943,1,8,0:0:0:0:
317,192,47251,1,4,0:0:0:0:
325,255,47559,1,0,0:0:0:0:
325,255,47712,1,8,0:0:0:0:
136,135,47789,1,8,0:0:0:0:
136,135,47866,1,0,0:0:0:0:
136,135,48020,1,8,0:0:0:0:
136,135,48097,1,8,0:0:0:0:
136,135,48174,1,0,0:0:0:0:
136,135,48328,1,8,0:0:0:0:
136,135,48482,1,0,0:0:0:0:
136,135,48559,1,0,0:0:0:0:
136,135,48636,1,8,0:0:0:0:
136,135,48789,1,8,0:0:0:0:
247,274,48943,1,0,0:0:0:0:
247,274,49020,1,0,0:0:0:0:
277,295,49097,1,0,0:0:0:0:
218,255,49174,1,0,0:0:0:0:
139,229,49251,1,8,0:0:0:0:
127,221,49405,1,8,0:0:0:0:
224,202,49559,1,0,0:0:0:0:
114,176,49712,1,8,0:0:0:0:
108,172,49789,1,8,0:0:0:0:
108,171,49866,1,0,0:0:0:0:
105,166,50020,1,8,0:0:0:0:
105,166,50174,1,0,0:0:0:0:
123,168,50251,1,0,0:0:0:0:
99,191,50328,1,8,0:0:0:0:
97,196,50482,1,0,0:0:0:0:
92,194,50559,1,0,0:0:0:0:
77,195,50636,1,8,0:0:0:0:
77,195,50789,1,0,0:0:0:0:
55,187,50943,1,8,0:0:0:0:
46,179,51020,1,8,0:0:0:0:
45,178,51097,1,0,0:0:0:0:
316,233,51251,1,0,0:0:0:0:
199,208,51405,1,8,0:0:0:0:
199,208,51482,1,8,0:0:0:0:
199,208,51559,1,8,0:0:0:0:
150,182,51636,1,8,0:0:0:0:
146,171,51712,1,0,0:0:0:0:
213,165,51866,1,0,0:0:0:0:
213,165,52020,1,8,0:0:0:0:
216,179,52174,1,0,0:0:0:0:
211,176,52251,1,0,0:0:0:0:
182,163,52328,1,8,0:0:0:0:
182,163,52482,1,0,0:0:0:0:
177,158,52636,1,8,0:0:0:0:
170,156,52712,1,8,0:0:0:0:
150,150,52789,1,0,0:0:0:0:
150,150,52943,1,8,0:0:0:0:
151,150,53097,1,0,0:0:0:0:
110,145,53174,1,0,0:0:0:0:
85,140,53251,1,8,0:0:0:0:
85,140,53405,1,8,0:0:0:0:
85,140,53482,1,8,0:0:0:0:
85,140,53559,1,0,0:0:0:0:
88,138,53712,1,0,0:0:0:0:
85,140,53866,1,8,0:0:0:0:
191,146,53943,1,0,0:0:0:0:
191,146,54020,1,0,0:0:0:0:
191,146,54174,1,8,0:0:0:0:
168,246,54328,1,8,0:0:0:0:
222,204,54405,1,8,0:0:0:0:
130,264,54482,1,0,0:0:0:0:
136,237,54636,1,0,0:0:0:0:
137,229,54712,1,0,0:0:0:0:
120,210,54789,1,8,0:0:0:0:
120,210,54943,1,0,0:0:0:0:
120,210,55097,1,8,0:0:0:0:
129,209,55174,1,8,0:0:0:0:
140,251,55251,1,0,0:0:0:0:
140,251,55405,1,8,0:0:0:0:
227,230,55559,1,0,0:0:0:0:
290,253,55636,1,0,0:0:0:0:
198,213,55712,1,8,0:0:0:0:
198,213,55866,1,8,0:0:0:0:
165,197,55943,1,8,0:0:0:0:
141,183,56020,1,0,0:0:0:0:
169,180,56174,1,0,0:0:0:0:
155,170,56328,1,8,0:0:0:0:
245,171,56482,1,0,0:0:0:0:
215,153,56559,1,0,0:0:0:0:
206,147,56636,1,8,0:0:0:0:
187,138,56712,1,0,0:0:0:0:
166,128,56789,1,8,0:0:0:0:
152,123,56866,1,8,0:0:0:0:
149,122,56943,1,0,0:0:0:0:
205,158,57097,1,12,0:0:0:0:
304,274,57405,1,0,0:0:0:0:
304,274,57559,1,8,0:0:0:0:
193,228,57636,1,8,0:0:0:0:
304,274,57712,1,8,0:0:0:0:
225,222,57866,1,0,0:0:0:0:
225,222,58020,1,0,0:0:0:0:
168,176,58174,1,8,0:0:0:0:
173,318,58328,1,0,0:0:0:0:
154,306,58405,1,0,0:0:0:0:
222,203,58482,1,0,0:0:0:0:
222,203,58636,1,0,0:0:0:0:
171,272,58789,1,8,0:0:0:0:
204,277,58866,1,8,0:0:0:0:
187,251,58943,1,0,0:0:0:0:
316,273,59097,1,8,0:0:0:0:
118,198,59251,1,8,0:0:0:0:
118,198,59405,1,0,0:0:0:0:
118,198,59559,1,0,0:0:0:0:
118,198,59636,1,0,0:0:0:0:
111,195,59712,1,8,0:0:0:0:
231,292,59866,1,8,0:0:0:0:
175,122,60020,1,0,0:0:0:0:
181,123,60097,1,0,0:0:0:0:
181,123,60174,1,0,0:0:0:0:
323,304,60328,1,8,0:0:0:0:
323,304,60482,1,8,0:0:0:0:
238,274,60636,1,0,0:0:0:0:
233,259,60789,1,8,0:0:0:0:
195,245,60866,1,8,0:0:0:0:
233,259,60943,1,8,0:0:0:0:
178,214,61097,1,8,0:0:0:0:
215,220,61251,1,0,0:0:0:0:
139,210,61328,1,0,0:0:0:0:
132,197,61405,1,8,0:0:0:0:
163,222,61559,1,0,0:0:0:0:
163,222,61712,1,0,0:0:0:0:
229,211,61866,1,8,0:0:0:0:
229,211,62020,1,8,0:0:0:0:
225,209,62097,1,8,0:0:0:0:
217,202,62174,1,0,0:0:0:0:
236,203,62328,1,0,0:0:0:0:
233,200,62482,1,8,0:0:0:0:
233,200,62559,1,8,0:0:0:0:
231,199,62636,1,8,0:0:0:0:
231,199,62789,1,0,0:0:0:0:
231,199,62943,1,0,0:0:0:0:
221,190,63097,1,8,0:0:0:0:
216,187,63174,1,8,0:0:0:0:
187,179,63251,1,0,0:0:0:0:
187,179,63405,1,8,0:0:0:0:
187,179,63559,1,8,0:0:0:0:
209,187,63712,1,0,0:0:0:0:
193,175,63789,1,0,0:0:0:0:
209,187,63866,1,0,0:0:0:0:
194,171,64020,1,8,0:0:0:0:
194,171,64174,1,8,0:0:0:0:
197,174,64328,1,0,0:0:0:0:
190,184,64405,1,0,0:0:0:0:
180,178,64482,1,8,0:0:0:0:
185,178,64636,1,0,0:0:0:0:
185,178,64789,1,0,0:0:0:0:
183,173,64943,1,8,0:0:0:0:
166,176,65020,1,8,0:0:0:0:
183,173,65097,1,8,0:0:0:0:
166,176,65251,1,0,0:0:0:0:
166,176,65405,1,0,0:0:0:0:
166,176,65559,1,8,0:0:0:0:
166,176,65636,1,8,0:0:0:0:
150,168,65712,1,0,0:0:0:0:
154,169,65866,1,8,0:0:0:0:
207,167,66020,1,0,0:0:0:0:
219,171,66097,1,0,0:0:0:0:
169,148,66174,1,8,0:0:0:0:
169,148,66328,1,8,0:0:0:0:
241,150,66482,1,0,0:0:0:0:
241,150,66559,1,8,0:0:0:0:
232,145,66636,1,8,0:0:0:0:
232,145,66712,1,8,0:0:0:0:
232,145,66789,1,0,0:0:0:0:
216,136,66866,1,0,0:0:0:0:
215,136,66943,1,8,0:0:0:0:
117,139,67020,1,8,0:0:0:0:
107,134,67097,1,0,0:0:0:0:
385,293,67251,1,0,0:0:0:0:
385,293,67405,1,8,0:0:0:0:
275,293,67482,1,8,0:0:0:0:
238,269,67559,1,0,0:0:0:0:
316,290,67712,1,8,0:0:0:0:
316,290,67866,1,8,0:0:0:0:
270,267,68020,1,0,0:0:0:0:
270,267,68097,1,0,0:0:0:0:
183,235,68174,1,8,0:0:0:0:
183,235,68328,1,0,0:0:0:0:
183,235,68482,1,0,0:0:0:0:
180,225,68636,1,8,0:0:0:0:
132,206,68712,1,8,0:0:0:0:
98,196,68789,1,0,0:0:0:0:
117,155,68943,1,8,0:0:0:0:
117,155,69097,1,8,0:0:0:0:
237,242,69251,1,0,0:0:0:0:
237,242,69328,1,0,0:0:0:0:
175,245,69405,1,8,0:0:0:0:
160,232,69559,1,0,0:0:0:0:
160,232,69712,1,0,0:0:0:0:
130,218,69866,1,8,0:0:0:0:
122,212,69943,1,8,0:0:0:0:
108,203,70020,1,0,0:0:0:0:
187,250,70174,1,8,0:0:0:0:
187,250,70328,1,0,0:0:0:0:
147,229,70405,1,0,0:0:0:0:
141,224,70482,1,8,0:0:0:0:
141,224,70636,1,0,0:0:0:0:
176,209,70943,1,0,0:0:0:0:
301,239,71097,1,8,0:0:0:0:
197,299,71251,1,8,0:0:0:0:
142,271,71328,1,8,0:0:0:0:
108,257,71405,1,0,0:0:0:0:
207,218,71559,1,0,0:0:0:0:
137,273,71636,1,0,0:0:0:0:
99,237,71712,1,8,0:0:0:0:
143,237,71789,1,8,0:0:0:0:
118,227,71866,1,0,0:0:0:0:
166,245,72020,1,8,0:0:0:0:
166,245,72174,1,8,0:0:0:0:
225,247,72328,1,0,0:0:0:0:
220,245,72405,1,0,0:0:0:0:
239,299,72482,1,8,0:0:0:0:
212,233,72636,1,0,0:0:0:0:
210,102,72789,1,0,0:0:0:0:
210,102,72943,1,8,0:0:0:0:
210,102,73020,1,8,0:0:0:0:
210,102,73097,1,0,0:0:0:0:
315,318,73251,1,8,0:0:0:0:
315,318,73405,1,8,0:0:0:0:
216,276,73559,1,0,0:0:0:0:
153,253,73636,1,0,0:0:0:0:
118,266,73712,1,8,0:0:0:0:
161,267,73866,1,0,0:0:0:0:
161,267,74020,1,0,0:0:0:0:
171,249,74174,1,8,0:0:0:0:
154,241,74251,1,8,0:0:0:0:
145,233,74328,1,0,0:0:0:0:
145,233,74482,1,8,0:0:0:0:
157,149,74636,1,0,0:0:0:0:
157,149,74712,1,0,0:0:0:0:
157,149,74789,1,8,0:0:0:0:
257,259,74943,1,8,0:0:0:0:
298,254,75097,1,0,0:0:0:0:
291,245,75174,1,0,0:0:0:0:
298,254,75251,1,0,0:0:0:0:
235,253,75405,1,8,0:0:0:0:
288,242,75559,1,8,0:0:0:0:
272,240,75636,1,8,0:0:0:0:
288,242,75712,1,8,0:0:0:0:
278,248,75866,1,8,0:0:0:0:
157,264,76020,1,0,0:0:0:0:
300,252,76174,1,0,0:0:0:0:
191,234,76251,1,0,0:0:0:0:
85,145,76328,1,8,0:0:0:0:
241,155,76482,1,8,0:0:0:0:
241,155,76636,1,8,0:0:0:0:
200,142,76789,1,8,0:0:0:0:
205,140,76943,1,0,0:0:0:0:
314,262,77251,1,8,0:0:0:0:
314,262,77405,1,8,0:0:0:0:
344,253,77559,1,0,0:0:0:0:
344,253,77712,1,0,0:0:0:0:
200,208,77789,1,0,0:0:0:0:
178,211,77866,1,8,0:0:0:0:
200,208,78020,1,0,0:0:0:0:
158,364,78328,1,8,0:0:0:0:
233,225,78482,1,8,0:0:0:0:
282,195,78636,1,0,0:0:0:0:
282,195,78789,1,8,0:0:0:0:
158,297,78943,1,0,0:0:0:0:
193,288,79097,1,8,0:0:0:0:
158,272,79174,1,8,0:0:0:0:
179,281,79251,1,8,0:0:0:0:
158,272,79328,1,8,0:0:0:0:
135,254,79405,1,0,0:0:0:0:
320,273,79712,1,8,0:0:0:0:
294,257,79866,1,0,0:0:0:0:
170,240,80020,1,8,0:0:0:0:
294,257,80174,1,8,0:0:0:0:
279,236,80328,1,0,0:0:0:0:
278,224,80482,1,8,0:0:0:0:
296,275,80789,1,8,0:0:0:0:
313,259,80943,1,8,0:0:0:0:
218,127,81097,1,0,0:0:0:0:
218,127,81251,1,8,0:0:0:0:
44,231,81405,1,0,0:0:0:0:
220,295,81559,1,8,0:0:0:0:
170,281,81636,1,8,0:0:0:0:
220,295,81712,1,8,0:0:0:0:
148,263,81789,1,8,0:0:0:0:
86,242,81866,1,0,0:0:0:0:
304,308,82020,1,0,0:0:0:0:
304,308,82174,1,8,0:0:0:0:
221,270,82328,1,0,0:0:0:0:
221,270,82636,1,0,0:0:0:0:
235,243,82789,1,8,0:0:0:0:
235,243,82943,1,8,0:0:0:0:
211,224,83097,1,0,0:0:0:0:
213,233,83251,1,0,0:0:0:0:
213,233,83405,1,8,0:0:0:0:
221,93,83559,1,0,0:0:0:0:
221,93,83712,1,8,0:0:0:0:
221,93,83866,1,8,0:0:0:0:
221,93,84020,1,0,0:0:0:0:
221,93,84097,1,0,0:0:0:0:
221,93,84174,1,0,0:0:0:0:
221,93,84251,1,0,0:0:0:0:
221,93,84328,1,8,0:0:0:0:
306,271,84482,1,0,0:0:0:0:
169,261,84789,1,8,0:0:0:0:
246,259,84943,1,8,0:0:0:0:
234,291,85097,1,0,0:0:0:0:
234,291,85251,1,8,0:0:0:0:
183,213,85405,1,0,0:0:0:0:
152,142,85712,1,0,0:0:0:0:
324,128,86020,1,0,0:0:0:0:
301,128,86174,1,8,0:0:0:0:
301,183,86328,1,0,0:0:0:0:
330,188,86482,1,8,0:0:0:0:
330,188,86636,1,8,0:0:0:0:
233,272,86789,1,0,0:0:0:0:
149,240,86866,1,0,0:0:0:0:
233,272,86943,1,0,0:0:0:0:
149,240,87097,1,8,0:0:0:0:
170,267,87251,1,0,0:0:0:0:
83,217,87328,1,0,0:0:0:0:
147,262,87405,1,8,0:0:0:0:
229,256,87559,1,8,0:0:0:0:
238,256,87712,1,0,0:0:0:0:
238,256,87865,1,8,0:0:0:0:
107,196,87943,1,8,0:0:0:0:
109,158,88020,1,8,0:0:0:0:
109,158,88174,1,0,0:0:0:0:
272,208,88328,1,8,0:0:0:0:
283,207,88482,1,8,0:0:0:0:
267,202,88636,1,0,0:0:0:0:
267,202,88789,1,0,0:0:0:0:
261,236,88943,1,8,0:0:0:0:
291,281,89251,1,0,0:0:0:0:
277,295,89405,1,0,0:0:0:0:
251,288,89482,1,0,0:0:0:0:
163,276,89559,1,8,0:0:0:0:
163,276,89712,1,0,0:0:0:0:
167,255,89866,1,8,0:0:0:0:
167,254,89943,1,8,0:0:0:0:
167,255,90020,1,8,0:0:0:0:
166,243,90174,1,0,0:0:0:0:
165,240,90328,1,8,0:0:0:0:
157,233,90405,1,8,0:0:0:0:
165,240,90482,1,8,0:0:0:0:
157,233,90559,1,8,0:0:0:0:
132,220,90636,1,0,0:0:0:0:
206,227,90789,1,8,0:0:0:0:
206,227,90943,1,8,0:0:0:0:
206,204,91097,1,0,0:0:0:0:
206,204,91251,1,0,0:0:0:0:
206,204,91405,1,8,0:0:0:0:
256,124,91712,1,0,0:0:0:0:
256,124,91789,1,0,0:0:0:0:
256,124,91866,1,0,0:0:0:0:
256,124,92020,1,8,0:0:0:0:
256,124,92174,1,0,0:0:0:0:
247,236,92328,1,8,0:0:0:0:
228,229,92405,1,8,0:0:0:0:
163,252,92482,1,0,0:0:0:0:
163,252,92636,1,8,0:0:0:0:
163,252,92789,1,8,0:0:0:0:
187,248,92943,1,0,0:0:0:0:
187,248,93097,1,0,0:0:0:0:
169,234,93174,1,0,0:0:0:0:
140,220,93251,1,8,0:0:0:0:
185,209,93405,1,8,0:0:0:0:
260,212,93559,1,0,0:0:0:0:
253,203,93712,1,0,0:0:0:0:
255,196,93866,1,8,0:0:0:0:
200,179,93943,1,8,0:0:0:0:
185,172,94020,1,0,0:0:0:0:
185,172,94174,1,8,0:0:0:0:
294,175,94328,1,0,0:0:0:0:
254,160,94405,1,0,0:0:0:0:
195,142,94482,1,8,0:0:0:0:
195,142,94636,1,8,0:0:0:0:
251,144,94789,1,0,0:0:0:0:
251,144,94943,1,0,0:0:0:0:
251,144,95097,1,8,0:0:0:0:
114,162,95251,1,0,0:0:0:0:
194,253,95559,1,0,0:0:0:0:
194,253,95712,1,8,0:0:0:0:
211,241,95866,1,0,0:0:0:0:
235,296,95943,1,0,0:0:0:0:
185,256,96020,1,8,0:0:0:0:
185,256,96174,1,0,0:0:0:0:
185,256,96328,1,8,0:0:0:0:
194,253,96636,1,0,0:0:0:0:
331,250,99097,1,0,0:0:0:0:
323,246,101559,1,0,0:0:0:0:
251,233,102789,1,8,0:0:0:0:
238,228,102866,1,8,0:0:0:0:
235,231,102943,1,0,0:0:0:0:
216,230,103020,1,0,0:0:0:0:
235,231,103097,1,0,0:0:0:0:
191,197,103251,1,12,0:0:0:0:
104,167,103559,1,8,0:0:0:0:
231,179,103866,1,4,0:0:0:0:
325,255,104174,1,8,0:0:0:0:
325,255,104327,1,0,0:0:0:0:
136,135,104404,1,0,0:0:0:0:
136,135,104482,1,8,0:0:0:0:
136,135,104635,1,0,0:0:0:0:
136,135,104712,1,0,0:0:0:0:
136,135,104789,1,8,0:0:0:0:
136,135,104943,1,0,0:0:0:0:
136,135,105097,1,8,0:0:0:0:
136,135,105174,1,8,0:0:0:0:
136,135,105251,1,0,0:0:0:0:
136,135,105404,1,0,0:0:0:0:
247,274,105558,1,8,0:0:0:0:
247,274,105635,1,8,0:0:0:0:
277,295,105712,1,8,0:0:0:0:
218,255,105789,1,8,0:0:0:0:
139,229,105866,1,0,0:0:0:0:
127,221,106020,1,0,0:0:0:0:
224,202,106174,1,8,0:0:0:0:
114,176,106327,1,0,0:0:0:0:
108,172,106404,1,0,0:0:0:0:
108,171,106481,1,8,0:0:0:0:
105,166,106635,1,0,0:0:0:0:
105,166,106789,1,8,0:0:0:0:
123,168,106866,1,8,0:0:0:0:
99,191,106943,1,0,0:0:0:0:
97,196,107097,1,8,0:0:0:0:
92,194,107174,1,8,0:0:0:0:
77,195,107251,1,0,0:0:0:0:
77,195,107404,1,8,0:0:0:0:
55,187,107558,1,0,0:0:0:0:
46,179,107635,1,0,0:0:0:0:
45,178,107712,1,8,0:0:0:0:
316,233,107866,1,8,0:0:0:0:
199,208,108020,1,0,0:0:0:0:
199,208,108097,1,0,0:0:0:0:
199,208,108174,1,0,0:0:0:0:
150,182,108251,1,0,0:0:0:0:
146,171,108327,1,8,0:0:0:0:
213,165,108481,1,8,0:0:0:0:
213,165,108636,1,0,0:0:0:0:
216,179,108789,1,8,0:0:0:0:
211,176,108866,1,8,0:0:0:0:
182,163,108943,1,0,0:0:0:0:
182,163,109097,1,8,0:0:0:0:
177,158,109251,1,0,0:0:0:0:
170,156,109327,1,0,0:0:0:0:
150,150,109404,1,8,0:0:0:0:
150,150,109558,1,0,0:0:0:0:
151,150,109712,1,8,0:0:0:0:
110,145,109789,1,8,0:0:0:0:
85,140,109866,1,0,0:0:0:0:
85,140,110020,1,0,0:0:0:0:
85,140,110097,1,0,0:0:0:0:
85,140,110174,1,8,0:0:0:0:
88,138,110327,1,8,0:0:0:0:
85,140,110481,1,0,0:0:0:0:
191,146,110558,1,8,0:0:0:0:
191,146,110635,1,8,0:0:0:0:
191,146,110789,1,0,0:0:0:0:
168,246,110943,1,0,0:0:0:0:
222,204,111020,1,0,0:0:0:0:
130,264,111097,1,8,0:0:0:0:
136,237,111251,1,8,0:0:0:0:
137,229,111327,1,8,0:0:0:0:
120,210,111404,1,0,0:0:0:0:
120,210,111558,1,8,0:0:0:0:
120,210,111712,1,0,0:0:0:0:
129,209,111789,1,0,0:0:0:0:
140,251,111866,1,8,0:0:0:0:
140,251,112020,1,0,0:0:0:0:
227,230,112174,1,8,0:0:0:0:
290,253,112251,1,8,0:0:0:0:
198,213,112327,1,0,0:0:0:0:
198,213,112481,1,0,0:0:0:0:
165,197,112558,1,0,0:0:0:0:
141,183,112635,1,8,0:0:0:0:
169,180,112789,1,8,0:0:0:0:
155,170,112943,1,0,0:0:0:0:
245,171,113097,1,0,0:0:0:0:
215,153,113174,1,0,0:0:0:0:
206,147,113251,1,8,0:0:0:0:
187,138,113327,1,0,0:0:0:0:
166,128,113404,1,8,0:0:0:0:
152,123,113481,1,8,0:0:0:0:
149,122,113558,1,0,0:0:0:0:
205,158,113712,1,12,0:0:0:0:
304,274,114020,1,8,0:0:0:0:
304,274,114174,1,0,0:0:0:0:
193,228,114251,1,0,0:0:0:0:
304,274,114327,1,0,0:0:0:0:
225,222,114481,1,8,0:0:0:0:
225,222,114635,1,8,0:0:0:0:
168,176,114789,1,0,0:0:0:0:
173,318,114943,1,8,0:0:0:0:
154,306,115020,1,8,0:0:0:0:
222,203,115097,1,8,0:0:0:0:
222,203,115251,1,8,0:0:0:0:
171,272,115405,1,0,0:0:0:0:
204,277,115481,1,0,0:0:0:0:
187,251,115558,1,8,0:0:0:0:
316,273,115712,1,0,0:0:0:0:
118,198,115866,1,0,0:0:0:0:
118,198,116020,1,8,0:0:0:0:
118,198,116174,1,8,0:0:0:0:
118,198,116251,1,8,0:0:0:0:
111,195,116327,1,0,0:0:0:0:
231,292,116481,1,0,0:0:0:0:
175,122,116635,1,8,0:0:0:0:
181,123,116712,1,8,0:0:0:0:
181,123,116789,1,8,0:0:0:0:
323,304,116943,1,0,0:0:0:0:
323,304,117097,1,0,0:0:0:0:
238,274,117251,1,8,0:0:0:0:
233,259,117404,1,0,0:0:0:0:
195,245,117481,1,0,0:0:0:0:
233,259,117558,1,0,0:0:0:0:
178,214,117712,1,0,0:0:0:0:
215,220,117866,1,8,0:0:0:0:
139,210,117943,1,8,0:0:0:0:
132,197,118020,1,0,0:0:0:0:
163,222,118174,1,8,0:0:0:0:
163,222,118327,1,8,0:0:0:0:
229,211,118481,1,0,0:0:0:0:
229,211,118635,1,0,0:0:0:0:
225,209,118712,1,0,0:0:0:0:
217,202,118789,1,8,0:0:0:0:
236,203,118943,1,8,0:0:0:0:
233,200,119097,1,0,0:0:0:0:
233,200,119174,1,0,0:0:0:0:
231,199,119251,1,0,0:0:0:0:
231,199,119404,1,8,0:0:0:0:
231,199,119558,1,8,0:0:0:0:
221,190,119712,1,0,0:0:0:0:
216,187,119789,1,0,0:0:0:0:
187,179,119866,1,8,0:0:0:0:
187,179,120020,1,0,0:0:0:0:
187,179,120174,1,0,0:0:0:0:
209,187,120327,1,8,0:0:0:0:
193,175,120405,1,8,0:0:0:0:
209,187,120481,1,8,0:0:0:0:
194,171,120635,1,0,0:0:0:0:
194,171,120789,1,0,0:0:0:0:
197,174,120943,1,8,0:0:0:0:
190,184,121020,1,8,0:0:0:0:
180,178,121097,1,0,0:0:0:0:
185,178,121251,1,8,0:0:0:0:
185,178,121404,1,8,0:0:0:0:
183,173,121558,1,0,0:0:0:0:
166,176,121635,1,0,0:0:0:0:
183,173,121712,1,0,0:0:0:0:
166,176,121866,1,8,0:0:0:0:
166,176,122020,1,8,0:0:0:0:
166,176,122174,1,0,0:0:0:0:
166,176,122251,1,0,0:0:0:0:
150,168,122327,1,8,0:0:0:0:
154,169,122482,1,0,0:0:0:0:
207,167,122635,1,8,0:0:0:0:
219,171,122712,1,8,0:0:0:0:
169,148,122789,1,0,0:0:0:0:
169,148,122943,1,0,0:0:0:0:
241,150,123097,1,8,0:0:0:0:
241,150,123174,1,0,0:0:0:0:
232,145,123251,1,8,0:0:0:0:
232,145,123327,1,0,0:0:0:0:
232,145,123404,1,8,0:0:0:0:
216,136,123481,1,8,0:0:0:0:
215,136,123558,1,0,0:0:0:0:
117,139,123635,1,0,0:0:0:0:
107,134,123712,1,8,0:0:0:0:
250,230,123866,1,0,0:0:0:0:
326,319,124174,1,0,0:0:0:0:
326,319,124482,1,0,0:0:0:0:
326,319,124636,1,8,0:0:0:0:
326,319,124789,1,0,0:0:0:0:
298,285,125097,1,0,0:0:0:0:
322,270,125405,1,0,0:0:0:0:
277,251,125559,1,8,0:0:0:0:
277,251,125712,1,0,0:0:0:0:
270,242,125866,1,8,0:0:0:0:
270,242,125943,1,8,0:0:0:0:
270,242,126020,1,8,0:0:0:0:
270,242,126097,1,8,0:0:0:0:
238,235,126174,1,0,0:0:0:0:
221,267,126328,1,0,0:0:0:0:
221,267,126482,1,8,0:0:0:0:
283,202,126636,1,0,0:0:0:0:
214,192,126712,1,0,0:0:0:0:
283,202,126789,1,0,0:0:0:0:
194,170,126943,1,0,0:0:0:0:
194,170,127097,1,8,0:0:0:0:
123,155,127174,1,8,0:0:0:0:
165,142,127251,1,0,0:0:0:0:
264,213,127405,1,8,0:0:0:0:
263,213,127559,1,0,0:0:0:0:
263,208,127712,1,8,0:0:0:0:
262,208,127789,1,8,0:0:0:0:
255,205,127866,1,8,0:0:0:0:
264,213,128020,1,0,0:0:0:0:
264,213,128174,1,0,0:0:0:0:
264,213,128251,1,0,0:0:0:0:
259,207,128328,1,8,0:0:0:0:
259,207,128482,1,0,0:0:0:0:
262,248,128636,1,8,0:0:0:0:
254,221,128789,1,0,0:0:0:0:
254,221,129097,1,0,0:0:0:0:
262,248,129405,1,0,0:0:0:0:
262,248,129559,1,8,0:0:0:0:
262,248,129712,1,0,0:0:0:0:
262,245,130020,1,0,0:0:0:0:
262,248,130328,1,0,0:0:0:0:
262,248,130482,1,8,0:0:0:0:
262,248,130636,1,0,0:0:0:0:
262,245,130789,1,8,0:0:0:0:
254,244,130866,1,8,0:0:0:0:
262,245,130943,1,8,0:0:0:0:
255,244,131020,1,8,0:0:0:0:
252,242,131097,1,0,0:0:0:0:
153,226,131251,1,0,0:0:0:0:
143,219,131405,1,8,0:0:0:0:
275,271,131559,1,0,0:0:0:0:
156,242,131636,1,0,0:0:0:0:
275,271,131712,1,0,0:0:0:0:
166,247,131866,1,0,0:0:0:0:
250,95,132020,1,8,0:0:0:0:
250,95,132097,1,8,0:0:0:0:
250,95,132174,1,0,0:0:0:0:
371,283,132328,1,8,0:0:0:0:
258,305,132482,1,0,0:0:0:0:
258,305,132636,1,8,0:0:0:0:
267,277,132712,1,8,0:0:0:0:
241,294,132789,1,0,0:0:0:0:
190,257,132866,1,8,0:0:0:0:
197,261,132943,1,0,0:0:0:0:
165,247,133097,1,8,0:0:0:0:
165,247,133251,1,8,0:0:0:0:
187,246,133405,1,4,0:0:0:0:
193,184,133712,1,0,0:0:0:0:
299,155,133866,1,8,0:0:0:0:
212,140,133943,1,8,0:0:0:0:
157,124,134020,1,0,0:0:0:0:
157,124,134174,1,8,0:0:0:0:
157,124,134328,1,8,0:0:0:0:
157,115,134482,1,0,0:0:0:0:
137,108,134559,1,0,0:0:0:0:
137,109,134636,1,8,0:0:0:0:
138,109,134789,1,0,0:0:0:0:
141,109,134943,1,8,0:0:0:0:
137,109,135020,1,8,0:0:0:0:
104,171,135097,1,8,0:0:0:0:
307,240,135251,1,0,0:0:0:0:
268,260,135405,1,8,0:0:0:0:
252,237,135482,1,0,0:0:0:0:
233,227,135559,1,8,0:0:0:0:
202,212,135636,1,8,0:0:0:0:
157,190,135712,1,0,0:0:0:0:
154,249,135866,1,0,0:0:0:0:
319,281,136020,1,8,0:0:0:0:
172,145,136097,1,8,0:0:0:0:
172,145,136174,1,0,0:0:0:0:
252,168,136328,1,8,0:0:0:0:
252,168,136482,1,8,0:0:0:0:
249,256,136636,1,0,0:0:0:0:
238,249,136712,1,0,0:0:0:0:
304,308,136789,1,8,0:0:0:0:
181,232,136943,1,0,0:0:0:0:
181,232,137097,1,0,0:0:0:0:
296,200,137251,1,8,0:0:0:0:
170,188,137328,1,8,0:0:0:0:
296,200,137405,1,8,0:0:0:0:
269,287,137559,1,0,0:0:0:0:
255,249,137712,1,0,0:0:0:0:
288,231,137789,1,0,0:0:0:0:
207,205,137866,1,8,0:0:0:0:
249,192,138020,1,0,0:0:0:0:
249,192,138174,1,8,0:0:0:0:
186,141,138482,1,8,0:0:0:0:
180,139,138559,1,8,0:0:0:0:
148,172,138636,1,0,0:0:0:0:
172,136,138789,1,8,0:0:0:0:
137,168,138943,1,0,0:0:0:0:
215,173,139097,1,8,0:0:0:0:
215,173,139174,1,0,0:0:0:0:
175,250,139251,1,8,0:0:0:0:
162,242,139328,1,8,0:0:0:0:
96,216,139405,1,0,0:0:0:0:
221,219,139559,1,8,0:0:0:0:
260,213,139712,1,0,0:0:0:0:
265,211,139789,1,0,0:0:0:0:
175,250,139866,1,8,0:0:0:0:
188,245,140020,1,0,0:0:0:0:
236,213,140174,1,8,0:0:0:0:
254,195,140251,1,8,0:0:0:0:
270,202,140328,1,8,0:0:0:0:
254,195,140482,1,0,0:0:0:0:
255,195,140636,1,8,0:0:0:0:
254,195,140943,1,0,0:0:0:0:
221,181,141020,1,0,0:0:0:0:
254,195,141097,1,0,0:0:0:0:
221,181,141251,1,8,0:0:0:0:
221,181,141405,1,0,0:0:0:0:
221,181,141559,1,8,0:0:0:0:
221,181,141636,1,8,0:0:0:0:
211,178,141712,1,0,0:0:0:0:
211,178,141866,1,8,0:0:0:0:
212,178,142020,1,8,0:0:0:0:
210,178,142174,1,0,0:0:0:0:
210,178,142328,1,0,0:0:0:0:
177,170,142405,1,0,0:0:0:0:
215,172,142482,1,8,0:0:0:0:
131,298,142636,1,8,0:0:0:0:
109,276,142712,1,8,0:0:0:0:
187,307,142789,1,0,0:0:0:0:
156,224,142943,1,0,0:0:0:0:
156,224,143097,1,8,0:0:0:0:
232,282,143251,1,0,0:0:0:0:
256,192,143405,12,0,144482,0:0:0:0:
112,214,144636,5,0,0:0:0:0:
183,206,154174,5,8,0:0:0:0:
208,206,154482,1,4,0:0:0:0:
211,251,154789,1,8,0:0:0:0:
211,251,154943,1,0,0:0:0:0:
181,305,155020,1,0,0:0:0:0:
140,294,155097,1,8,0:0:0:0:
146,308,155251,1,0,0:0:0:0:
146,308,155405,1,8,0:0:0:0:
146,308,155559,1,8,0:0:0:0:
137,263,155712,1,0,0:0:0:0:
137,249,156020,1,8,0:0:0:0:
224,274,156174,1,8,0:0:0:0:
224,274,156251,1,8,0:0:0:0:
113,260,156328,1,0,0:0:0:0:
196,260,156482,1,0,0:0:0:0:
196,260,156636,1,8,0:0:0:0:
248,188,156789,1,0,0:0:0:0:
248,188,156943,1,12,0:0:0:0:
180,200,157251,1,0,0:0:0:0:
249,234,157405,1,8,0:0:0:0:
208,217,157482,1,8,0:0:0:0:
174,200,157559,1,0,0:0:0:0:
169,197,157712,1,8,0:0:0:0:
169,197,157866,1,0,0:0:0:0:
142,190,158020,1,0,0:0:0:0:
41,167,158174,1,8,0:0:0:0:
239,274,158482,1,0,0:0:0:0:
192,279,158636,1,0,0:0:0:0:
202,309,158712,1,0,0:0:0:0:
139,274,158789,1,8,0:0:0:0:
139,274,158943,1,0,0:0:0:0:
139,274,159097,1,8,0:0:0:0:
222,249,159251,1,8,0:0:0:0:
199,229,159405,1,4,0:0:0:0:
207,232,159712,1,8,0:0:0:0:
265,253,159866,1,0,0:0:0:0:
302,277,159943,1,0,0:0:0:0:
268,264,160020,1,8,0:0:0:0:
273,242,160174,1,8,0:0:0:0:
187,221,160328,1,0,0:0:0:0:
273,242,160482,1,0,0:0:0:0:
250,223,160636,1,8,0:0:0:0:
109,204,160712,1,8,0:0:0:0:
231,220,160789,1,0,0:0:0:0:
91,197,160866,1,0,0:0:0:0:
219,214,160943,1,8,0:0:0:0:
138,270,161097,1,8,0:0:0:0:
219,258,161251,1,0,0:0:0:0:
219,258,161405,1,8,0:0:0:0:
209,251,161559,1,8,0:0:0:0:
166,242,161712,1,4,0:0:0:0:
261,273,162020,1,0,0:0:0:0:
190,235,162174,1,8,0:0:0:0:
171,224,162251,1,8,0:0:0:0:
133,222,162328,1,0,0:0:0:0:
134,215,162482,1,8,0:0:0:0:
117,205,162559,1,8,0:0:0:0:
95,199,162636,1,0,0:0:0:0:
163,248,162789,1,8,0:0:0:0:
159,239,162866,1,0,0:0:0:0:
149,231,162943,1,8,0:0:0:0:
133,222,163020,1,8,0:0:0:0:
107,211,163097,1,0,0:0:0:0:
267,249,163251,1,8,0:0:0:0:
198,228,163405,1,0,0:0:0:0:
198,236,163482,1,0,0:0:0:0:
198,228,163559,1,0,0:0:0:0:
213,229,163712,1,8,0:0:0:0:
215,228,163789,1,8,0:0:0:0:
216,226,163866,1,0,0:0:0:0:
198,268,163943,1,0,0:0:0:0:
186,282,164020,1,8,0:0:0:0:
210,288,164174,1,0,0:0:0:0:
198,280,164251,1,0,0:0:0:0:
210,288,164328,1,0,0:0:0:0:
172,269,164405,1,0,0:0:0:0:
119,253,164482,1,8,0:0:0:0:
202,182,164636,1,0,0:0:0:0:
190,229,164712,1,0,0:0:0:0:
116,167,164789,1,8,0:0:0:0:
257,236,164943,1,0,0:0:0:0:
250,229,165020,1,0,0:0:0:0:
177,202,165097,1,8,0:0:0:0:
332,211,165251,1,0,0:0:0:0:
356,280,165328,1,8,0:0:0:0:
258,241,165405,1,0,0:0:0:0:
222,225,165482,1,0,0:0:0:0:
279,274,165559,1,8,0:0:0:0:
352,290,165712,1,0,0:0:0:0:
352,290,165866,1,8,0:0:0:0:
222,278,165943,1,8,0:0:0:0:
190,253,166020,1,8,0:0:0:0:
222,278,166174,1,0,0:0:0:0:
173,156,166251,1,0,0:0:0:0:
173,156,166328,1,8,0:0:0:0:
173,156,166405,1,8,0:0:0:0:
173,156,166482,1,0,0:0:0:0:
222,211,166636,1,0,0:0:0:0:
299,209,166712,1,0,0:0:0:0:
197,230,166789,1,8,0:0:0:0:
168,226,166943,1,0,0:0:0:0:
132,273,167097,1,8,0:0:0:0:
216,267,167174,1,8,0:0:0:0:
186,252,167251,1,0,0:0:0:0:
182,249,167328,1,0,0:0:0:0:
189,255,167405,1,8,0:0:0:0:
170,242,167559,1,0,0:0:0:0:
170,238,167636,1,0,0:0:0:0:
156,230,167712,1,8,0:0:0:0:
135,215,167866,1,8,0:0:0:0:
151,225,167943,1,8,0:0:0:0:
107,206,168020,1,0,0:0:0:0:
107,206,168174,1,8,0:0:0:0:
107,206,168328,1,0,0:0:0:0:
195,214,168405,1,0,0:0:0:0:
248,205,168482,1,8,0:0:0:0:
224,199,168559,1,8,0:0:0:0:
147,176,168636,1,0,0:0:0:0:
266,232,168789,1,8,0:0:0:0:
211,206,168866,1,8,0:0:0:0:
193,195,168943,1,0,0:0:0:0:
193,195,169097,1,0,0:0:0:0:
184,190,169174,1,0,0:0:0:0:
178,188,169251,1,8,0:0:0:0:
184,190,169405,1,0,0:0:0:0:
233,133,169559,1,8,0:0:0:0:
233,133,169636,1,8,0:0:0:0:
233,133,169712,1,0,0:0:0:0:
233,133,169789,1,0,0:0:0:0:
233,133,169866,1,8,0:0:0:0:
268,213,170020,1,0,0:0:0:0:
268,213,170097,1,0,0:0:0:0:
268,213,170174,1,8,0:0:0:0:
268,213,170328,1,8,0:0:0:0:
268,213,170405,1,8,0:0:0:0:
268,213,170482,1,0,0:0:0:0:
197,236,170636,1,8,0:0:0:0:
253,191,170789,1,0,0:0:0:0:
217,233,170866,1,0,0:0:0:0:
230,268,170943,1,8,0:0:0:0:
190,222,171020,1,8,0:0:0:0:
106,189,171097,1,0,0:0:0:0:
277,211,171251,1,8,0:0:0:0:
236,197,171405,1,0,0:0:0:0:
341,209,171559,1,12,0:0:0:0:
244,227,171866,5,0,0:0:0:0:
278,300,172020,1,8,0:0:0:0:
361,281,172097,1,8,0:0:0:0:
342,274,172174,1,8,0:0:0:0:
342,274,172328,1,0,0:0:0:0:
350,271,172482,1,0,0:0:0:0:
301,259,172559,1,0,0:0:0:0:
154,219,172636,1,8,0:0:0:0:
346,318,172789,1,0,0:0:0:0:
317,309,172866,1,0,0:0:0:0:
306,180,172943,1,0,0:0:0:0:
204,289,173097,1,0,0:0:0:0:
204,289,173251,1,8,0:0:0:0:
180,270,173328,1,8,0:0:0:0:
147,248,173405,1,0,0:0:0:0:
153,234,173559,1,8,0:0:0:0:
153,234,173712,1,0,0:0:0:0:
136,228,173789,1,0,0:0:0:0:
124,222,173866,1,8,0:0:0:0:
166,252,173943,1,0,0:0:0:0:
166,252,174020,1,8,0:0:0:0:
166,240,174097,1,8,0:0:0:0:
162,237,174174,1,0,0:0:0:0:
204,270,174328,1,8,0:0:0:0:
204,270,174482,1,0,0:0:0:0:
189,255,174559,1,0,0:0:0:0:
181,249,174636,1,0,0:0:0:0:
320,209,174789,1,8,0:0:0:0:
286,224,174943,1,8,0:0:0:0:
279,220,175020,1,8,0:0:0:0:
227,219,175097,1,0,0:0:0:0:
179,202,175251,1,8,0:0:0:0:
179,202,175328,1,8,0:0:0:0:
190,203,175405,1,8,0:0:0:0:
290,282,175559,1,8,0:0:0:0:
352,247,175712,1,0,0:0:0:0:
339,233,175789,1,0,0:0:0:0:
290,225,175866,1,8,0:0:0:0:
303,228,176020,1,0,0:0:0:0:
303,228,176174,1,8,0:0:0:0:
303,228,176251,1,8,0:0:0:0:
301,225,176328,1,0,0:0:0:0:
303,221,176405,1,8,0:0:0:0:
303,221,176482,1,0,0:0:0:0:
303,221,176559,1,0,0:0:0:0:
301,221,176636,1,8,0:0:0:0:
340,296,176789,1,8,0:0:0:0:
299,322,176943,1,0,0:0:0:0:
207,288,177020,1,0,0:0:0:0:
299,322,177097,1,0,0:0:0:0:
182,278,177174,1,0,0:0:0:0:
187,276,177251,1,8,0:0:0:0:
187,276,177405,1,0,0:0:0:0:
174,254,177559,1,8,0:0:0:0:
174,254,177636,1,8,0:0:0:0:
174,254,177712,1,8,0:0:0:0:
174,254,177789,1,8,0:0:0:0:
173,248,177866,1,0,0:0:0:0:
192,234,178020,1,8,0:0:0:0:
192,234,178174,1,0,0:0:0:0:
191,234,178251,1,0,0:0:0:0:
192,234,178328,1,0,0:0:0:0:
191,234,178405,1,0,0:0:0:0:
191,234,178482,1,8,0:0:0:0:
191,234,178636,1,0,0:0:0:0:
191,234,178789,1,8,0:0:0:0:
187,231,178866,1,8,0:0:0:0:
184,230,178943,1,0,0:0:0:0:
184,230,179020,1,0,0:0:0:0:
183,225,179097,1,8,0:0:0:0:
160,221,179251,1,0,0:0:0:0:
183,225,179405,1,8,0:0:0:0:
370,235,179559,1,0,0:0:0:0:
341,218,179636,1,0,0:0:0:0:
304,198,179712,1,8,0:0:0:0:
304,198,179866,1,0,0:0:0:0:
299,186,180020,1,8,0:0:0:0:
299,186,180174,1,8,0:0:0:0:
299,186,180251,1,8,0:0:0:0:
313,181,180328,1,0,0:0:0:0:
309,197,180482,1,0,0:0:0:0:
222,282,180636,1,8,0:0:0:0:
306,190,180789,1,8,0:0:0:0:
222,282,180866,1,8,0:0:0:0:
174,265,180943,1,0,0:0:0:0:
158,144,181251,1,8,0:0:0:0:
313,186,181559,1,0,0:0:0:0:
282,228,181636,1,0,0:0:0:0:
313,186,181712,1,8,0:0:0:0:
282,228,181789,1,0,0:0:0:0:
282,228,181866,1,8,0:0:0:0:
282,228,181943,1,8,0:0:0:0:
282,228,182020,1,0,0:0:0:0:
282,228,182097,1,8,0:0:0:0:
282,228,182174,1,0,0:0:0:0:
282,228,182251,1,0,0:0:0:0:
282,228,182328,1,8,0:0:0:0:
282,228,182405,1,8,0:0:0:0:
351,238,182482,1,0,0:0:0:0:
351,238,182559,1,8,0:0:0:0:
351,238,182636,1,8,0:0:0:0:
351,238,182712,1,8,0:0:0:0:
351,238,182789,1,0,0:0:0:0:
184,301,182943,1,0,0:0:0:0:
158,268,183097,1,8,0:0:0:0:
158,268,183174,1,8,0:0:0:0:
107,249,183251,1,0,0:0:0:0:
107,249,183405,1,8,0:0:0:0:
107,249,183559,1,8,0:0:0:0:
107,249,183712,1,0,0:0:0:0:
60,234,183789,1,0,0:0:0:0:
195,254,183866,1,8,0:0:0:0:
212,245,184020,1,0,0:0:0:0:
212,245,184174,1,0,0:0:0:0:
241,273,184328,1,8,0:0:0:0:
208,259,184405,1,8,0:0:0:0:
163,239,184482,1,0,0:0:0:0:
163,239,184636,1,8,0:0:0:0:
163,239,184789,1,8,0:0:0:0:
154,236,184943,1,0,0:0:0:0:
153,234,185020,1,0,0:0:0:0:
150,231,185097,1,8,0:0:0:0:
150,231,185251,1,0,0:0:0:0:
150,156,185405,1,0,0:0:0:0:
301,292,185559,1,8,0:0:0:0:
271,272,185636,1,8,0:0:0:0:
321,218,185712,1,0,0:0:0:0:
299,218,185866,1,8,0:0:0:0:
321,218,186020,1,0,0:0:0:0:
169,152,186097,1,0,0:0:0:0:
169,152,186174,1,8,0:0:0:0:
170,152,186328,1,0,0:0:0:0:
234,284,186636,1,0,0:0:0:0:
234,284,186789,1,8,0:0:0:0:
261,255,186943,1,8,0:0:0:0:
240,245,187020,1,8,0:0:0:0:
196,234,187097,1,0,0:0:0:0:
196,234,187251,1,0,0:0:0:0:
196,234,187328,1,0,0:0:0:0:
189,231,187405,1,8,0:0:0:0:
184,230,187482,1,8,0:0:0:0:
142,225,187559,1,0,0:0:0:0:
142,225,187712,1,8,0:0:0:0:
142,225,187866,1,8,0:0:0:0:
126,207,188020,1,0,0:0:0:0:
126,207,188097,1,0,0:0:0:0:
113,195,188174,1,8,0:0:0:0:
114,191,188328,1,0,0:0:0:0:
114,191,188482,1,0,0:0:0:0:
188,212,188636,1,8,0:0:0:0:
107,183,188712,1,8,0:0:0:0:
99,170,188789,1,0,0:0:0:0:
240,184,188943,1,8,0:0:0:0:
240,184,189097,1,8,0:0:0:0:
265,204,189251,1,0,0:0:0:0:
247,192,189328,1,0,0:0:0:0:
217,179,189405,1,8,0:0:0:0:
217,179,189559,1,0,0:0:0:0:
217,179,189712,1,0,0:0:0:0:
226,175,189866,1,8,0:0:0:0:
232,159,189943,1,8,0:0:0:0:
200,146,190020,1,0,0:0:0:0:
226,160,190174,1,8,0:0:0:0:
226,160,190328,1,8,0:0:0:0:
287,197,190482,1,0,0:0:0:0:
261,198,190559,1,0,0:0:0:0:
234,180,190636,1,8,0:0:0:0:
317,179,190789,1,0,0:0:0:0:
284,172,190943,1,0,0:0:0:0:
278,169,191097,1,8,0:0:0:0:
239,196,191174,1,8,0:0:0:0:
271,242,191251,1,0,0:0:0:0:
302,228,191328,1,0,0:0:0:0:
302,221,191405,1,8,0:0:0:0:
302,221,191559,1,8,0:0:0:0:
338,221,191712,1,8,0:0:0:0:
372,239,191866,1,0,0:0:0:0:
102,148,192020,1,8,0:0:0:0:
111,150,192174,1,0,0:0:0:0:
221,235,192482,1,0,0:0:0:0:
257,230,192636,1,12,0:0:0:0:
