osu file format v14

[General]
AudioFilename: audio.mp3
AudioLeadIn: 0
PreviewTime: 161251
Countdown: 0
SampleSet: Normal
StackLeniency: 0.7
Mode: 1
LetterboxInBreaks: 0
WidescreenStoryboard: 1

[Editor]
DistanceSpacing: 1.1
BeatDivisor: 4
GridSize: 4
TimelineZoom: 2

[Metadata]
Title:Mikansei Koukyoukyoku
TitleUnicode:未完成交響曲
Artist:ONE OK ROCK
ArtistUnicode:ONE OK ROCK
Creator:Chromoxx
Version:Muzukashii
Source:
Tags:Nicheシンドローム niche syndrome unfinished symphony taka toru ryota tomoya j-rock jrock ワンオクロック
BeatmapID:1425229
BeatmapSetID:667682

[Difficulty]
HPDrainRate:6
CircleSize:5
OverallDifficulty:5
ApproachRate:5
SliderMultiplier:1.4
SliderTickRate:1

[Events]
//Background and Video events
0,0,"bg.jpg",0,0
//Break Periods
2,40220,44974
2,96836,101589
2,144836,152974
//Storyboard Layer 0 (Background)
//Storyboard Layer 1 (Fail)
//Storyboard Layer 2 (Pass)
//Storyboard Layer 3 (Foreground)
//Storyboard Sound Samples

[TimingPoints]
636,307.692307692308,4,1,0,60,1,0
5559,-100,4,1,0,70,0,0
10482,-100,4,1,0,80,0,0
40174,-100,4,1,0,50,0,0
46174,-100,4,1,0,80,0,0
47251,-100,4,1,0,90,0,1
67097,-100,4,1,0,90,0,0
67251,-100,4,1,0,80,0,0
96789,-100,4,1,0,50,0,0
102789,-100,4,1,0,80,0,0
103866,-100,4,1,0,90,0,1
123712,-100,4,1,0,90,0,0
123866,-100,4,1,0,80,0,0
143405,-100,4,1,0,50,0,0
154174,-100,4,1,0,70,0,0
154482,-100,4,1,0,90,0,1
160636,-100,4,1,0,90,0,0
161712,-100,4,1,0,90,0,1
181559,-100,4,1,0,80,0,0

[HitObjects]
212,244,636,5,4,0:0:0:0:
212,244,789,1,4,0:0:0:0:
276,304,1097,1,8,0:0:0:0:
312,288,1405,1,8,0:0:0:0:
312,288,1559,1,0,0:0:0:0:
204,276,1712,1,8,0:0:0:0:
204,276,2020,1,8,0:0:0:0:
204,276,2174,1,0,0:0:0:0:
204,276,2328,1,0,0:0:0:0:
204,268,2636,1,0,0:0:0:0:
204,268,2789,1,8,0:0:0:0:
216,272,3097,1,4,0:0:0:0:
216,272,3251,1,4,0:0:0:0:
264,280,3559,1,8,0:0:0:0:
264,280,3866,1,8,0:0:0:0:
264,280,4020,1,0,0:0:0:0:
264,280,4174,1,8,0:0:0:0:
260,288,4482,1,8,0:0:0:0:
260,288,4636,1,0,0:0:0:0:
260,288,4789,1,8,0:0:0:0:
264,292,4943,1,0,0:0:0:0:
236,316,5020,1,0,0:0:0:0:
264,292,5097,1,0,0:0:0:0:
236,316,5251,1,8,0:0:0:0:
236,316,5559,1,0,0:0:0:0:
236,316,5712,1,8,0:0:0:0:
236,316,5866,1,8,0:0:0:0:
236,316,6020,1,0,0:0:0:0:
236,316,6174,1,8,0:0:0:0:
236,316,6328,1,8,0:0:0:0:
236,316,6636,1,0,0:0:0:0:
236,316,6712,1,0,0:0:0:0:
236,316,6789,1,0,0:0:0:0:
288,208,6943,1,8,0:0:0:0:
288,208,7097,1,8,0:0:0:0:
224,280,7251,1,0,0:0:0:0:
224,280,7405,1,8,0:0:0:0:
224,280,7559,1,8,0:0:0:0:
156,296,7866,1,0,0:0:0:0:
156,296,7943,1,0,0:0:0:0:
156,296,8020,1,0,0:0:0:0:
208,312,8174,1,8,0:0:0:0:
208,312,8328,1,8,0:0:0:0:
336,336,8482,1,0,0:0:0:0:
336,336,8636,1,8,0:0:0:0:
336,336,8789,1,8,0:0:0:0:
176,308,9097,1,0,0:0:0:0:
212,300,9174,1,0,0:0:0:0:
176,308,9251,1,0,0:0:0:0:
4,200,9405,2,0,L|64:196,12,35
324,264,10482,1,4,0:0:0:0:
260,288,10789,1,8,0:0:0:0:
260,288,10943,1,0,0:0:0:0:
196,336,11251,1,0,0:0:0:0:
236,280,11405,1,8,0:0:0:0:
200,124,11559,1,8,0:0:0:0:
200,124,11712,1,0,0:0:0:0:
240,276,12020,1,8,0:0:0:0:
240,276,12174,1,0,0:0:0:0:
308,328,12482,1,0,0:0:0:0:
308,328,12636,1,8,0:0:0:0:
308,328,12943,1,0,0:0:0:0:
308,328,13097,1,0,0:0:0:0:
200,272,13251,1,8,0:0:0:0:
200,272,13405,1,0,0:0:0:0:
200,272,13712,1,0,0:0:0:0:
200,272,13866,1,8,0:0:0:0:
168,280,14020,1,0,0:0:0:0:
180,280,14328,1,0,0:0:0:0:
168,280,14636,1,8,0:0:0:0:
180,280,14789,1,8,0:0:0:0:
180,280,14943,1,0,0:0:0:0:
180,280,15097,1,0,0:0:0:0:
232,336,15405,1,8,0:0:0:0:
232,336,15559,1,8,0:0:0:0:
340,168,15712,1,0,0:0:0:0:
340,168,15866,1,8,0:0:0:0:
340,208,16174,1,8,0:0:0:0:
340,208,16328,1,0,0:0:0:0:
340,208,16482,1,0,0:0:0:0:
296,256,16636,1,8,0:0:0:0:
296,256,16943,1,0,0:0:0:0:
192,232,17097,1,8,0:0:0:0:
296,256,17405,1,8,0:0:0:0:
192,232,17559,1,0,0:0:0:0:
244,220,17866,1,8,0:0:0:0:
244,220,18174,1,0,0:0:0:0:
244,220,18328,1,0,0:0:0:0:
280,204,18482,1,8,0:0:0:0:
280,204,18636,1,8,0:0:0:0:
280,204,18789,1,0,0:0:0:0:
212,236,18943,1,8,0:0:0:0:
192,228,19020,1,8,0:0:0:0:
212,236,19097,1,8,0:0:0:0:
240,224,19405,1,0,0:0:0:0:
240,224,19559,1,0,0:0:0:0:
240,224,19712,1,8,0:0:0:0:
240,224,19866,1,0,0:0:0:0:
240,224,20174,1,0,0:0:0:0:
240,224,20328,1,8,0:0:0:0:
208,300,20482,1,0,0:0:0:0:
208,300,20789,1,0,0:0:0:0:
208,300,21097,1,0,0:0:0:0:
208,300,21251,1,8,0:0:0:0:
208,300,21405,1,0,0:0:0:0:
208,300,21712,1,0,0:0:0:0:
272,280,22174,1,8,0:0:0:0:
264,248,22328,1,0,0:0:0:0:
264,248,22482,1,8,0:0:0:0:
264,248,22559,1,8,0:0:0:0:
264,248,22636,1,8,0:0:0:0:
256,296,22789,1,0,0:0:0:0:
256,296,22943,1,0,0:0:0:0:
180,184,23251,1,0,0:0:0:0:
260,176,23559,1,0,0:0:0:0:
260,176,23712,1,8,0:0:0:0:
260,176,23866,1,0,0:0:0:0:
260,176,24174,1,0,0:0:0:0:
324,256,24636,1,8,0:0:0:0:
324,256,24789,1,0,0:0:0:0:
324,256,24943,1,8,0:0:0:0:
280,260,25020,1,8,0:0:0:0:
240,272,25097,1,8,0:0:0:0:
188,252,25251,1,0,0:0:0:0:
188,252,25405,1,0,0:0:0:0:
188,252,25712,1,0,0:0:0:0:
188,252,26020,1,0,0:0:0:0:
188,252,26174,1,8,0:0:0:0:
248,268,26328,1,8,0:0:0:0:
248,268,26482,1,0,0:0:0:0:
332,188,26789,1,8,0:0:0:0:
332,188,26943,1,8,0:0:0:0:
220,100,27097,1,0,0:0:0:0:
220,100,27251,1,0,0:0:0:0:
216,244,27405,1,8,0:0:0:0:
180,272,27482,1,8,0:0:0:0:
240,240,27559,1,8,0:0:0:0:
220,100,27712,1,0,0:0:0:0:
284,268,28174,1,0,0:0:0:0:
284,268,28328,1,8,0:0:0:0:
324,248,28636,1,8,0:0:0:0:
324,248,28789,1,8,0:0:0:0:
216,256,28943,1,0,0:0:0:0:
148,280,29251,1,0,0:0:0:0:
164,328,29405,1,0,0:0:0:0:
164,328,29559,1,8,0:0:0:0:
312,312,29866,1,8,0:0:0:0:
216,308,30174,1,0,0:0:0:0:
256,316,30482,1,8,0:0:0:0:
256,316,30636,1,0,0:0:0:0:
256,316,30943,1,0,0:0:0:0:
256,316,31097,1,8,0:0:0:0:
256,316,31405,1,8,0:0:0:0:
256,316,31559,1,8,0:0:0:0:
256,316,31866,1,8,0:0:0:0:
252,284,32020,1,0,0:0:0:0:
288,272,32636,1,0,0:0:0:0:
312,288,32943,1,8,0:0:0:0:
288,272,33097,1,8,0:0:0:0:
192,280,33251,1,0,0:0:0:0:
192,280,33559,1,8,0:0:0:0:
192,280,33712,1,0,0:0:0:0:
192,280,34020,1,0,0:0:0:0:
192,280,34174,1,8,0:0:0:0:
168,296,34482,1,0,0:0:0:0:
364,272,34789,1,8,0:0:0:0:
364,272,35097,1,0,0:0:0:0:
352,280,35251,1,0,0:0:0:0:
352,280,35559,1,8,0:0:0:0:
240,236,35866,1,0,0:0:0:0:
240,236,36020,1,8,0:0:0:0:
240,236,36174,1,8,0:0:0:0:
240,236,36328,1,0,0:0:0:0:
168,252,36636,1,8,0:0:0:0:
172,292,36789,1,0,0:0:0:0:
240,236,36943,1,8,0:0:0:0:
200,224,37251,1,0,0:0:0:0:
208,224,37559,1,8,0:0:0:0:
200,224,38174,1,0,0:0:0:0:
128,240,38482,1,8,0:0:0:0:
128,240,38636,1,0,0:0:0:0:
128,240,38943,1,0,0:0:0:0:
128,240,39097,1,8,0:0:0:0:
128,240,39405,1,0,0:0:0:0:
236,152,39712,1,8,0:0:0:0:
236,152,40020,1,0,0:0:0:0:
248,240,46174,5,8,0:0:0:0:
240,236,46251,1,8,0:0:0:0:
248,240,46328,1,8,0:0:0:0:
240,236,46482,1,0,0:0:0:0:
240,236,46636,1,8,0:0:0:0:
280,232,47251,1,4,0:0:0:0:
224,240,47559,1,0,0:0:0:0:
224,240,47712,1,8,0:0:0:0:
280,292,47866,1,0,0:0:0:0:
280,292,48020,1,8,0:0:0:0:
280,292,48328,1,8,0:0:0:0:
264,256,48482,1,0,0:0:0:0:
240,248,48559,1,0,0:0:0:0:
264,256,48636,1,0,0:0:0:0:
292,304,48789,1,0,0:0:0:0:
292,304,48943,1,8,0:0:0:0:
232,288,49251,1,8,0:0:0:0:
232,288,49405,1,8,0:0:0:0:
260,300,49559,1,0,0:0:0:0:
260,300,49712,1,8,0:0:0:0:
216,280,49789,1,8,0:0:0:0:
260,300,49866,1,8,0:0:0:0:
248,260,50020,1,0,0:0:0:0:
232,256,50174,1,8,0:0:0:0:
232,256,50328,1,0,0:0:0:0:
236,260,50482,1,8,0:0:0:0:
168,292,50789,1,8,0:0:0:0:
200,316,50943,1,0,0:0:0:0:
204,320,51020,1,0,0:0:0:0:
200,316,51097,1,0,0:0:0:0:
200,316,51251,1,0,0:0:0:0:
200,316,51405,1,8,0:0:0:0:
320,256,51559,1,0,0:0:0:0:
320,256,51712,1,8,0:0:0:0:
320,256,51866,1,8,0:0:0:0:
332,260,52020,1,0,0:0:0:0:
280,244,52174,1,8,0:0:0:0:
192,256,52251,1,8,0:0:0:0:
280,244,52328,1,8,0:0:0:0:
320,280,52636,1,0,0:0:0:0:
320,280,52789,1,0,0:0:0:0:
256,320,52943,1,8,0:0:0:0:
256,320,53097,1,0,0:0:0:0:
252,308,53251,1,8,0:0:0:0:
252,308,53405,1,8,0:0:0:0:
256,312,53559,1,0,0:0:0:0:
256,312,53866,1,8,0:0:0:0:
256,312,54020,1,8,0:0:0:0:
268,312,54174,1,0,0:0:0:0:
268,312,54328,1,0,0:0:0:0:
268,312,54482,1,8,0:0:0:0:
268,312,54636,1,0,0:0:0:0:
268,312,54789,1,8,0:0:0:0:
248,268,55097,1,0,0:0:0:0:
184,328,55251,1,0,0:0:0:0:
188,324,55405,1,8,0:0:0:0:
268,284,55559,1,0,0:0:0:0:
268,284,55712,1,8,0:0:0:0:
192,328,55866,1,8,0:0:0:0:
268,284,56020,1,0,0:0:0:0:
216,280,56328,1,8,0:0:0:0:
276,256,56482,1,0,0:0:0:0:
276,256,56559,1,0,0:0:0:0:
276,256,56636,1,0,0:0:0:0:
276,256,56789,1,0,0:0:0:0:
276,256,56943,1,8,0:0:0:0:
248,272,57097,1,4,0:0:0:0:
224,300,57405,1,0,0:0:0:0:
224,300,57559,1,8,0:0:0:0:
224,300,57866,1,0,0:0:0:0:
224,300,58020,1,0,0:0:0:0:
232,276,58174,1,8,0:0:0:0:
232,276,58482,1,0,0:0:0:0:
232,276,58636,1,0,0:0:0:0:
232,276,58789,1,8,0:0:0:0:
232,276,59097,1,0,0:0:0:0:
232,276,59251,1,8,0:0:0:0:
232,276,59405,1,8,0:0:0:0:
232,276,59559,1,0,0:0:0:0:
232,276,59712,1,8,0:0:0:0:
208,200,59866,1,0,0:0:0:0:
208,200,60020,1,8,0:0:0:0:
328,224,60328,1,8,0:0:0:0:
328,224,60482,1,0,0:0:0:0:
328,224,60636,1,8,0:0:0:0:
260,260,60943,1,8,0:0:0:0:
260,260,61097,1,0,0:0:0:0:
260,260,61251,1,8,0:0:0:0:
148,296,61405,1,8,0:0:0:0:
240,248,61559,1,0,0:0:0:0:
240,248,61712,1,0,0:0:0:0:
240,264,61866,1,8,0:0:0:0:
140,312,62020,1,0,0:0:0:0:
140,312,62174,1,8,0:0:0:0:
252,272,62482,1,0,0:0:0:0:
252,272,62636,1,0,0:0:0:0:
252,272,62789,1,8,0:0:0:0:
252,272,62943,1,0,0:0:0:0:
252,272,63097,1,8,0:0:0:0:
208,280,63251,1,8,0:0:0:0:
180,272,63405,1,0,0:0:0:0:
180,272,63712,1,8,0:0:0:0:
180,272,63866,1,8,0:0:0:0:
180,272,64020,1,0,0:0:0:0:
180,272,64174,1,0,0:0:0:0:
180,272,64328,1,8,0:0:0:0:
180,272,64482,1,0,0:0:0:0:
180,272,64636,1,8,0:0:0:0:
256,228,64943,1,0,0:0:0:0:
256,228,65097,1,0,0:0:0:0:
256,228,65251,1,8,0:0:0:0:
256,228,65405,1,0,0:0:0:0:
192,228,65559,1,8,0:0:0:0:
192,228,65712,1,8,0:0:0:0:
200,232,65866,1,0,0:0:0:0:
184,204,66174,1,8,0:0:0:0:
300,200,66328,1,0,0:0:0:0:
300,200,66482,1,8,0:0:0:0:
300,200,66559,1,8,0:0:0:0:
300,200,66636,1,8,0:0:0:0:
300,200,66789,1,8,0:0:0:0:
300,200,66866,1,8,0:0:0:0:
296,204,66943,1,8,0:0:0:0:
288,204,67097,1,4,0:0:0:0:
200,196,67405,1,8,0:0:0:0:
200,200,67559,1,0,0:0:0:0:
204,256,67866,1,0,0:0:0:0:
232,292,68020,1,8,0:0:0:0:
236,280,68174,1,8,0:0:0:0:
236,280,68328,1,0,0:0:0:0:
256,296,68636,1,8,0:0:0:0:
240,280,68789,1,0,0:0:0:0:
284,216,69097,1,0,0:0:0:0:
284,216,69251,1,8,0:0:0:0:
156,288,69559,1,0,0:0:0:0:
232,300,69712,1,0,0:0:0:0:
156,288,69866,1,8,0:0:0:0:
156,216,70020,1,0,0:0:0:0:
264,288,70328,1,0,0:0:0:0:
264,288,70482,1,8,0:0:0:0:
232,292,70636,1,0,0:0:0:0:
232,292,70943,1,0,0:0:0:0:
240,312,71251,1,8,0:0:0:0:
204,296,71405,1,8,0:0:0:0:
240,312,71559,1,0,0:0:0:0:
120,288,71712,1,0,0:0:0:0:
120,288,72020,1,8,0:0:0:0:
176,288,72174,1,8,0:0:0:0:
176,288,72328,1,0,0:0:0:0:
176,288,72482,1,8,0:0:0:0:
192,276,72789,1,8,0:0:0:0:
192,276,72943,1,0,0:0:0:0:
192,276,73097,1,0,0:0:0:0:
192,276,73251,1,8,0:0:0:0:
192,276,73559,1,0,0:0:0:0:
148,132,73712,1,8,0:0:0:0:
148,132,74020,1,8,0:0:0:0:
148,132,74174,1,0,0:0:0:0:
348,256,74482,1,8,0:0:0:0:
348,256,74789,1,0,0:0:0:0:
260,248,74943,1,0,0:0:0:0:
272,252,75097,1,8,0:0:0:0:
272,252,75251,1,8,0:0:0:0:
272,252,75405,1,0,0:0:0:0:
224,300,75559,1,0,0:0:0:0:
264,256,75712,1,8,0:0:0:0:
268,256,76020,1,8,0:0:0:0:
268,256,76174,1,8,0:0:0:0:
268,256,76251,1,8,0:0:0:0:
268,256,76328,1,8,0:0:0:0:
272,248,76482,1,0,0:0:0:0:
272,248,76636,1,8,0:0:0:0:
272,248,76789,1,8,0:0:0:0:
272,248,76943,1,0,0:0:0:0:
324,292,77097,1,0,0:0:0:0:
324,292,77405,1,0,0:0:0:0:
324,292,77712,1,0,0:0:0:0:
324,292,77866,1,8,0:0:0:0:
324,292,78020,1,0,0:0:0:0:
240,216,78328,1,0,0:0:0:0:
240,216,78482,1,8,0:0:0:0:
160,252,78636,1,0,0:0:0:0:
160,252,78789,1,8,0:0:0:0:
248,256,79097,1,8,0:0:0:0:
236,256,79174,1,8,0:0:0:0:
248,256,79251,1,8,0:0:0:0:
236,256,79405,1,0,0:0:0:0:
144,308,79559,1,0,0:0:0:0:
144,308,79866,1,0,0:0:0:0:
144,308,80174,1,0,0:0:0:0:
144,308,80328,1,8,0:0:0:0:
208,280,80482,1,0,0:0:0:0:
208,280,80789,1,0,0:0:0:0:
208,280,80943,1,8,0:0:0:0:
216,276,81251,1,8,0:0:0:0:
216,276,81405,1,0,0:0:0:0:
216,276,81559,1,8,0:0:0:0:
212,272,81636,1,8,0:0:0:0:
212,272,81712,1,8,0:0:0:0:
212,272,81866,1,0,0:0:0:0:
304,264,82020,1,0,0:0:0:0:
304,264,82328,1,0,0:0:0:0:
304,264,82636,1,0,0:0:0:0:
304,264,82789,1,8,0:0:0:0:
240,248,82943,1,0,0:0:0:0:
280,248,83251,1,0,0:0:0:0:
280,248,83712,1,8,0:0:0:0:
280,248,83866,1,0,0:0:0:0:
272,248,84020,1,8,0:0:0:0:
216,260,84097,1,8,0:0:0:0:
216,260,84174,1,8,0:0:0:0:
216,260,84328,1,0,0:0:0:0:
236,272,84482,1,0,0:0:0:0:
340,172,84789,1,0,0:0:0:0:
340,172,85097,1,0,0:0:0:0:
340,172,85251,1,8,0:0:0:0:
340,172,85405,1,0,0:0:0:0:
228,204,85712,1,0,0:0:0:0:
296,192,86174,1,8,0:0:0:0:
296,192,86482,1,8,0:0:0:0:
172,280,86789,1,0,0:0:0:0:
272,280,87097,1,8,0:0:0:0:
272,280,87251,1,8,0:0:0:0:
272,280,87405,1,0,0:0:0:0:
272,280,87712,1,8,0:0:0:0:
272,280,87866,1,0,0:0:0:0:
232,160,88174,1,0,0:0:0:0:
232,160,88328,1,8,0:0:0:0:
224,260,88636,1,0,0:0:0:0:
224,252,89251,1,8,0:0:0:0:
224,252,89559,1,0,0:0:0:0:
224,252,89712,1,0,0:0:0:0:
324,256,89866,1,8,0:0:0:0:
320,260,90174,1,0,0:0:0:0:
228,256,90328,1,8,0:0:0:0:
228,256,90636,1,8,0:0:0:0:
228,256,90789,1,0,0:0:0:0:
228,256,91097,1,8,0:0:0:0:
288,252,91712,1,0,0:0:0:0:
288,252,92020,1,8,0:0:0:0:
288,252,92174,1,8,0:0:0:0:
288,252,92328,1,0,0:0:0:0:
248,228,92636,1,8,0:0:0:0:
248,228,92789,1,0,0:0:0:0:
248,228,92943,1,8,0:0:0:0:
216,224,93251,1,0,0:0:0:0:
216,224,93405,1,0,0:0:0:0:
216,224,93559,1,8,0:0:0:0:
240,232,93866,1,0,0:0:0:0:
240,232,94174,1,8,0:0:0:0:
264,216,94789,1,0,0:0:0:0:
264,216,95097,1,8,0:0:0:0:
264,216,95251,1,0,0:0:0:0:
252,132,95559,1,0,0:0:0:0:
252,132,95712,1,8,0:0:0:0:
272,236,96020,1,0,0:0:0:0:
284,232,96328,1,8,0:0:0:0:
284,232,96636,1,0,0:0:0:0:
260,228,102789,5,8,0:0:0:0:
260,228,102866,1,8,0:0:0:0:
260,228,102943,1,8,0:0:0:0:
260,228,103097,1,0,0:0:0:0:
260,228,103251,1,8,0:0:0:0:
232,236,103866,1,4,0:0:0:0:
224,240,104174,1,8,0:0:0:0:
224,240,104328,1,0,0:0:0:0:
280,292,104482,1,8,0:0:0:0:
280,292,104636,1,0,0:0:0:0:
280,292,104943,1,0,0:0:0:0:
264,256,105097,1,8,0:0:0:0:
240,248,105174,1,8,0:0:0:0:
264,256,105251,1,8,0:0:0:0:
292,304,105405,1,8,0:0:0:0:
292,304,105559,1,0,0:0:0:0:
232,288,105866,1,0,0:0:0:0:
232,288,106020,1,0,0:0:0:0:
260,300,106174,1,8,0:0:0:0:
260,300,106328,1,0,0:0:0:0:
216,280,106405,1,0,0:0:0:0:
260,300,106482,1,0,0:0:0:0:
248,260,106636,1,8,0:0:0:0:
232,256,106789,1,0,0:0:0:0:
232,256,106943,1,8,0:0:0:0:
236,260,107097,1,0,0:0:0:0:
168,292,107405,1,0,0:0:0:0:
200,316,107559,1,8,0:0:0:0:
204,320,107636,1,8,0:0:0:0:
200,316,107712,1,8,0:0:0:0:
200,316,107866,1,8,0:0:0:0:
200,316,108020,1,0,0:0:0:0:
320,256,108174,1,8,0:0:0:0:
320,256,108328,1,0,0:0:0:0:
320,256,108482,1,0,0:0:0:0:
332,260,108636,1,8,0:0:0:0:
280,244,108789,1,0,0:0:0:0:
192,256,108866,1,0,0:0:0:0:
280,244,108943,1,0,0:0:0:0:
320,280,109251,1,8,0:0:0:0:
320,280,109405,1,8,0:0:0:0:
256,320,109559,1,0,0:0:0:0:
256,320,109712,1,8,0:0:0:0:
252,308,109866,1,0,0:0:0:0:
252,308,110020,1,0,0:0:0:0:
256,312,110174,1,8,0:0:0:0:
256,312,110482,1,0,0:0:0:0:
256,312,110636,1,0,0:0:0:0:
268,312,110789,1,8,0:0:0:0:
268,312,110943,1,8,0:0:0:0:
268,312,111097,1,0,0:0:0:0:
268,312,111251,1,8,0:0:0:0:
268,312,111405,1,0,0:0:0:0:
248,268,111712,1,8,0:0:0:0:
184,328,111866,1,8,0:0:0:0:
188,324,112020,1,0,0:0:0:0:
268,284,112174,1,8,0:0:0:0:
268,284,112328,1,0,0:0:0:0:
192,328,112482,1,0,0:0:0:0:
268,284,112636,1,8,0:0:0:0:
216,280,112943,1,0,0:0:0:0:
276,256,113097,1,8,0:0:0:0:
276,256,113174,1,8,0:0:0:0:
276,256,113251,1,8,0:0:0:0:
276,256,113405,1,8,0:0:0:0:
276,256,113559,1,0,0:0:0:0:
248,272,113712,1,12,0:0:0:0:
224,300,114020,1,8,0:0:0:0:
224,300,114174,1,0,0:0:0:0:
224,300,114482,1,8,0:0:0:0:
224,300,114636,1,8,0:0:0:0:
232,276,114789,1,0,0:0:0:0:
232,276,115097,1,8,0:0:0:0:
232,276,115251,1,8,0:0:0:0:
232,276,115405,1,0,0:0:0:0:
232,276,115712,1,8,0:0:0:0:
232,276,115866,1,0,0:0:0:0:
232,276,116020,1,0,0:0:0:0:
232,276,116174,1,8,0:0:0:0:
232,276,116328,1,0,0:0:0:0:
208,200,116482,1,8,0:0:0:0:
208,200,116636,1,0,0:0:0:0:
328,224,116943,1,0,0:0:0:0:
328,224,117097,1,8,0:0:0:0:
328,224,117251,1,0,0:0:0:0:
260,260,117559,1,0,0:0:0:0:
260,260,117712,1,8,0:0:0:0:
260,260,117866,1,0,0:0:0:0:
148,296,118020,1,0,0:0:0:0:
240,248,118174,1,8,0:0:0:0:
240,248,118328,1,8,0:0:0:0:
240,264,118482,1,0,0:0:0:0:
140,312,118636,1,8,0:0:0:0:
140,312,118789,1,0,0:0:0:0:
252,272,119097,1,8,0:0:0:0:
252,272,119251,1,8,0:0:0:0:
252,272,119405,1,0,0:0:0:0:
252,272,119559,1,8,0:0:0:0:
252,272,119712,1,0,0:0:0:0:
208,280,119866,1,0,0:0:0:0:
180,272,120020,1,8,0:0:0:0:
180,272,120328,1,0,0:0:0:0:
180,272,120482,1,0,0:0:0:0:
180,272,120636,1,8,0:0:0:0:
180,272,120789,1,8,0:0:0:0:
180,272,120943,1,0,0:0:0:0:
180,272,121097,1,8,0:0:0:0:
180,272,121251,1,0,0:0:0:0:
256,228,121559,1,8,0:0:0:0:
256,228,121712,1,8,0:0:0:0:
256,228,121866,1,0,0:0:0:0:
256,228,122020,1,8,0:0:0:0:
192,228,122174,1,0,0:0:0:0:
200,232,122482,1,8,0:0:0:0:
364,256,122636,1,8,0:0:0:0:
364,256,122789,1,8,0:0:0:0:
280,248,122943,1,0,0:0:0:0:
280,248,123097,1,8,0:0:0:0:
192,228,123251,1,8,0:0:0:0:
272,272,123405,1,0,0:0:0:0:
296,124,123559,1,0,0:0:0:0:
296,124,123712,1,12,0:0:0:0:
212,272,124174,1,0,0:0:0:0:
212,272,124636,1,8,0:0:0:0:
232,244,124789,1,0,0:0:0:0:
368,252,125097,1,0,0:0:0:0:
256,320,125405,1,0,0:0:0:0:
256,320,125559,1,8,0:0:0:0:
276,296,125712,1,0,0:0:0:0:
276,296,125866,1,8,0:0:0:0:
256,284,125943,1,8,0:0:0:0:
244,276,126020,1,8,0:0:0:0:
244,276,126174,1,0,0:0:0:0:
280,264,126482,1,8,0:0:0:0:
280,264,126789,1,0,0:0:0:0:
280,264,126943,1,0,0:0:0:0:
224,240,127097,1,8,0:0:0:0:
224,240,127405,1,0,0:0:0:0:
224,240,127712,1,8,0:0:0:0:
256,248,128020,1,0,0:0:0:0:
240,244,128174,1,0,0:0:0:0:
240,244,128328,1,8,0:0:0:0:
248,240,128636,1,12,0:0:0:0:
160,192,129097,1,0,0:0:0:0:
360,204,129559,1,8,0:0:0:0:
360,204,129712,1,0,0:0:0:0:
248,264,130020,1,0,0:0:0:0:
248,288,130328,1,0,0:0:0:0:
248,288,130482,1,8,0:0:0:0:
248,288,130636,1,0,0:0:0:0:
208,256,130789,1,8,0:0:0:0:
144,292,130866,1,8,0:0:0:0:
224,264,130943,1,8,0:0:0:0:
208,256,131097,1,0,0:0:0:0:
228,272,131405,1,8,0:0:0:0:
228,272,131712,1,0,0:0:0:0:
228,272,131866,1,0,0:0:0:0:
228,272,132020,1,8,0:0:0:0:
228,272,132328,1,0,0:0:0:0:
228,272,132636,1,8,0:0:0:0:
200,264,132943,1,0,0:0:0:0:
228,272,133097,1,8,0:0:0:0:
228,272,133251,1,8,0:0:0:0:
172,156,133405,1,4,0:0:0:0:
248,264,133866,1,8,0:0:0:0:
288,264,134174,1,0,0:0:0:0:
328,268,134328,1,0,0:0:0:0:
328,268,134482,1,8,0:0:0:0:
328,268,134636,1,8,0:0:0:0:
284,244,134789,1,0,0:0:0:0:
328,268,135097,1,8,0:0:0:0:
296,276,135251,1,8,0:0:0:0:
284,120,135405,1,0,0:0:0:0:
284,120,135559,1,8,0:0:0:0:
284,120,135712,1,0,0:0:0:0:
252,292,136020,1,8,0:0:0:0:
252,292,136328,1,0,0:0:0:0:
252,292,136482,1,0,0:0:0:0:
292,280,136636,1,8,0:0:0:0:
292,280,136943,1,8,0:0:0:0:
292,280,137097,1,8,0:0:0:0:
188,252,137251,1,0,0:0:0:0:
188,252,137559,1,8,0:0:0:0:
188,252,137712,1,0,0:0:0:0:
224,280,137866,1,8,0:0:0:0:
236,292,138482,1,8,0:0:0:0:
236,292,138789,1,0,0:0:0:0:
236,292,139097,1,8,0:0:0:0:
236,292,139251,1,8,0:0:0:0:
148,156,139405,1,0,0:0:0:0:
148,156,139559,1,8,0:0:0:0:
248,280,139866,1,0,0:0:0:0:
248,280,140020,1,8,0:0:0:0:
248,280,140174,1,0,0:0:0:0:
216,320,140482,1,0,0:0:0:0:
216,320,140636,1,8,0:0:0:0:
340,236,140943,1,0,0:0:0:0:
340,236,141251,1,8,0:0:0:0:
340,236,141405,1,8,0:0:0:0:
340,236,141559,1,0,0:0:0:0:
264,248,141866,1,0,0:0:0:0:
264,248,142020,1,0,0:0:0:0:
264,248,142174,1,8,0:0:0:0:
240,256,142482,1,8,0:0:0:0:
184,228,142636,1,8,0:0:0:0:
260,152,142789,1,0,0:0:0:0:
260,152,142943,1,0,0:0:0:0:
224,180,143097,1,8,0:0:0:0:
256,192,143405,12,8,144328,0:0:0:0:
288,240,144636,5,0,0:0:0:0:
280,244,154174,5,8,0:0:0:0:
296,232,154482,1,4,0:0:0:0:
320,240,154789,1,8,0:0:0:0:
320,240,154943,1,0,0:0:0:0:
320,240,155251,1,0,0:0:0:0:
320,240,155405,1,8,0:0:0:0:
316,248,155712,1,0,0:0:0:0:
316,248,156020,1,8,0:0:0:0:
316,248,156174,1,8,0:0:0:0:
224,312,156328,1,0,0:0:0:0:
200,300,156482,1,8,0:0:0:0:
200,300,156636,1,0,0:0:0:0:
240,296,156943,1,8,0:0:0:0:
188,312,157251,1,0,0:0:0:0:
188,312,157405,1,8,0:0:0:0:
188,312,157712,1,8,0:0:0:0:
188,312,157866,1,0,0:0:0:0:
188,312,158174,1,8,0:0:0:0:
188,312,158482,1,0,0:0:0:0:
188,312,158636,1,0,0:0:0:0:
200,316,158789,1,8,0:0:0:0:
232,144,158943,1,0,0:0:0:0:
232,144,159097,1,8,0:0:0:0:
232,144,159251,1,8,0:0:0:0:
232,144,159405,1,0,0:0:0:0:
256,248,159712,1,8,0:0:0:0:
256,248,159866,1,8,0:0:0:0:
348,292,160020,1,0,0:0:0:0:
348,292,160174,1,0,0:0:0:0:
348,292,160328,1,8,0:0:0:0:
328,120,160636,1,0,0:0:0:0:
328,120,160712,1,0,0:0:0:0:
328,120,160789,1,0,0:0:0:0:
328,120,160943,1,8,0:0:0:0:
328,120,161097,1,0,0:0:0:0:
328,120,161251,1,8,0:0:0:0:
328,120,161712,1,4,0:0:0:0:
224,240,162020,1,0,0:0:0:0:
224,240,162174,1,8,0:0:0:0:
280,292,162328,1,0,0:0:0:0:
280,292,162482,1,8,0:0:0:0:
280,292,162789,1,8,0:0:0:0:
264,256,162943,1,0,0:0:0:0:
240,248,163020,1,0,0:0:0:0:
264,256,163097,1,0,0:0:0:0:
292,304,163251,1,0,0:0:0:0:
292,304,163405,1,8,0:0:0:0:
232,288,163712,1,8,0:0:0:0:
232,288,163866,1,8,0:0:0:0:
260,300,164020,1,0,0:0:0:0:
260,300,164174,1,8,0:0:0:0:
216,280,164251,1,8,0:0:0:0:
260,300,164328,1,8,0:0:0:0:
248,260,164482,1,0,0:0:0:0:
232,256,164636,1,8,0:0:0:0:
232,256,164789,1,0,0:0:0:0:
236,260,164943,1,8,0:0:0:0:
168,292,165251,1,8,0:0:0:0:
200,316,165405,1,0,0:0:0:0:
204,320,165482,1,0,0:0:0:0:
200,316,165559,1,0,0:0:0:0:
200,316,165712,1,0,0:0:0:0:
200,316,165866,1,8,0:0:0:0:
320,256,166020,1,0,0:0:0:0:
320,256,166174,1,8,0:0:0:0:
320,256,166328,1,8,0:0:0:0:
332,260,166482,1,0,0:0:0:0:
280,244,166636,1,8,0:0:0:0:
192,256,166712,1,8,0:0:0:0:
280,244,166789,1,8,0:0:0:0:
320,280,167097,1,0,0:0:0:0:
172,144,167251,1,0,0:0:0:0:
256,320,167405,1,8,0:0:0:0:
256,320,167559,1,0,0:0:0:0:
252,308,167712,1,8,0:0:0:0:
252,308,167866,1,8,0:0:0:0:
256,312,168020,1,0,0:0:0:0:
256,312,168328,1,8,0:0:0:0:
256,312,168482,1,8,0:0:0:0:
268,312,168636,1,0,0:0:0:0:
268,312,168789,1,0,0:0:0:0:
268,312,168943,1,8,0:0:0:0:
268,312,169097,1,0,0:0:0:0:
268,312,169251,1,8,0:0:0:0:
248,268,169559,1,0,0:0:0:0:
184,328,169712,1,0,0:0:0:0:
188,324,169866,1,8,0:0:0:0:
268,284,170020,1,0,0:0:0:0:
268,284,170174,1,8,0:0:0:0:
192,328,170328,1,8,0:0:0:0:
268,284,170482,1,0,0:0:0:0:
216,280,170789,1,8,0:0:0:0:
276,256,170943,1,0,0:0:0:0:
276,256,171020,1,0,0:0:0:0:
276,256,171097,1,0,0:0:0:0:
276,256,171251,1,0,0:0:0:0:
276,256,171405,1,8,0:0:0:0:
248,272,171559,1,4,0:0:0:0:
224,300,171866,1,0,0:0:0:0:
224,300,172020,1,8,0:0:0:0:
224,300,172328,1,0,0:0:0:0:
224,300,172482,1,0,0:0:0:0:
232,276,172636,1,8,0:0:0:0:
232,276,172943,1,0,0:0:0:0:
232,276,173097,1,0,0:0:0:0:
232,276,173251,1,8,0:0:0:0:
232,276,173559,1,0,0:0:0:0:
232,276,173712,1,8,0:0:0:0:
232,276,173866,1,8,0:0:0:0:
232,276,174020,1,0,0:0:0:0:
232,276,174174,1,8,0:0:0:0:
208,200,174328,1,0,0:0:0:0:
208,200,174482,1,8,0:0:0:0:
328,224,174789,1,8,0:0:0:0:
328,224,174943,1,0,0:0:0:0:
328,224,175097,1,8,0:0:0:0:
260,260,175405,1,8,0:0:0:0:
260,260,175559,1,0,0:0:0:0:
260,260,175712,1,8,0:0:0:0:
148,296,175866,1,8,0:0:0:0:
240,248,176020,1,0,0:0:0:0:
240,248,176174,1,0,0:0:0:0:
240,264,176328,1,8,0:0:0:0:
140,312,176482,1,0,0:0:0:0:
140,312,176636,1,8,0:0:0:0:
252,272,176943,1,0,0:0:0:0:
252,272,177097,1,0,0:0:0:0:
252,272,177251,1,8,0:0:0:0:
252,272,177405,1,0,0:0:0:0:
252,272,177559,1,8,0:0:0:0:
208,280,177712,1,8,0:0:0:0:
180,272,177866,1,0,0:0:0:0:
180,272,178174,1,8,0:0:0:0:
180,272,178328,1,8,0:0:0:0:
180,272,178482,1,0,0:0:0:0:
180,272,178636,1,0,0:0:0:0:
180,272,178789,1,8,0:0:0:0:
180,272,178943,1,0,0:0:0:0:
180,272,179097,1,8,0:0:0:0:
352,216,179251,1,0,0:0:0:0:
256,228,179559,1,0,0:0:0:0:
256,228,179712,1,8,0:0:0:0:
256,228,179866,1,0,0:0:0:0:
192,228,180174,1,0,0:0:0:0:
200,232,180328,1,8,0:0:0:0:
240,264,180482,1,0,0:0:0:0:
276,256,180636,1,8,0:0:0:0:
276,256,180789,1,8,0:0:0:0:
28,180,181559,2,0,L|76:184,14,35
324,264,182789,1,4,0:0:0:0:
260,288,183097,1,8,0:0:0:0:
260,288,183251,1,0,0:0:0:0:
196,336,183559,1,0,0:0:0:0:
236,280,183712,1,8,0:0:0:0:
200,124,183866,1,8,0:0:0:0:
200,124,184020,1,0,0:0:0:0:
240,276,184328,1,8,0:0:0:0:
240,276,184482,1,0,0:0:0:0:
308,328,184789,1,0,0:0:0:0:
308,328,184943,1,8,0:0:0:0:
308,328,185251,1,0,0:0:0:0:
308,328,185405,1,0,0:0:0:0:
200,272,185559,1,8,0:0:0:0:
200,272,185712,1,0,0:0:0:0:
200,272,186020,1,0,0:0:0:0:
200,272,186174,1,8,0:0:0:0:
168,280,186328,1,0,0:0:0:0:
168,280,186636,1,0,0:0:0:0:
180,280,186943,1,8,0:0:0:0:
180,280,187097,1,8,0:0:0:0:
180,280,187251,1,0,0:0:0:0:
180,280,187405,1,0,0:0:0:0:
232,336,187712,1,8,0:0:0:0:
232,336,187866,1,8,0:0:0:0:
340,168,188020,1,0,0:0:0:0:
340,168,188174,1,8,0:0:0:0:
340,208,188482,1,8,0:0:0:0:
340,208,188636,1,0,0:0:0:0:
340,208,188789,1,0,0:0:0:0:
296,256,188943,1,8,0:0:0:0:
296,256,189251,1,0,0:0:0:0:
192,232,189405,1,8,0:0:0:0:
296,256,189712,1,8,0:0:0:0:
192,232,189866,1,0,0:0:0:0:
244,220,190174,1,8,0:0:0:0:
244,220,190482,1,0,0:0:0:0:
244,220,190636,1,0,0:0:0:0:
280,204,190789,1,8,0:0:0:0:
280,204,190943,1,8,0:0:0:0:
280,204,191097,1,0,0:0:0:0:
212,236,191251,1,8,0:0:0:0:
192,228,191328,1,8,0:0:0:0:
212,236,191405,1,8,0:0:0:0:
240,224,191712,1,0,0:0:0:0:
240,224,191866,1,0,0:0:0:0:
240,224,192020,1,8,0:0:0:0:
240,224,192174,1,0,0:0:0:0:
240,224,192636,1,12,0:0:0:0:
