osu file format v14

[General]
AudioFilename: audio.mp3
AudioLeadIn: 0
PreviewTime: 161251
Countdown: 0
SampleSet: Normal
StackLeniency: 0.7
Mode: 1
LetterboxInBreaks: 0
WidescreenStoryboard: 1

[Editor]
DistanceSpacing: 1.2
BeatDivisor: 2
GridSize: 4
TimelineZoom: 2

[Metadata]
Title:Mikansei Koukyoukyoku
TitleUnicode:未完成交響曲
Artist:ONE OK ROCK
ArtistUnicode:ONE OK ROCK
Creator:Chromoxx
Version:Kantan
Source:
Tags:Nicheシンドローム niche syndrome unfinished symphony taka toru ryota tomoya j-rock jrock ワンオクロック
BeatmapID:1425259
BeatmapSetID:667682

[Difficulty]
HPDrainRate:8
CircleSize:5
OverallDifficulty:4
ApproachRate:5
SliderMultiplier:1.4
SliderTickRate:1

[Events]
//Background and Video events
0,0,"bg.jpg",0,0
//Break Periods
2,40220,44974
2,96836,101589
2,144836,153282
//Storyboard Layer 0 (Background)
//Storyboard Layer 1 (Fail)
//Storyboard Layer 2 (Pass)
//Storyboard Layer 3 (Foreground)
//Storyboard Sound Samples

[TimingPoints]
636,307.692307692308,4,1,0,60,1,0
5559,-100,4,1,0,70,0,0
10482,-100,4,1,0,80,0,0
40174,-100,4,1,0,50,0,0
46174,-100,4,1,0,80,0,0
47251,-100,4,1,0,90,0,1
67097,-100,4,1,0,90,0,0
67251,-100,4,1,0,80,0,0
96789,-100,4,1,0,50,0,0
102789,-100,4,1,0,80,0,0
103866,-100,4,1,0,90,0,1
123712,-100,4,1,0,90,0,0
123866,-100,4,1,0,80,0,0
143405,-100,4,1,0,50,0,0
154174,-100,4,1,0,70,0,0
154482,-100,4,1,0,90,0,1
160636,-100,4,1,0,90,0,0
161712,-100,4,1,0,90,0,1
181559,-100,4,1,0,80,0,0

[HitObjects]
224,216,636,5,12,0:0:0:0:
220,216,3097,1,12,0:0:0:0:
232,320,5559,1,4,0:0:0:0:
232,320,6789,1,8,0:0:0:0:
232,320,8020,1,0,0:0:0:0:
232,320,8636,1,0,0:0:0:0:
20,212,9251,2,0,L|96:212,6,70
160,176,10482,1,4,0:0:0:0:
308,276,11097,1,8,0:0:0:0:
308,276,11712,1,0,0:0:0:0:
308,276,12020,1,0,0:0:0:0:
308,276,12328,1,8,0:0:0:0:
308,276,12943,1,0,0:0:0:0:
308,276,13559,1,8,0:0:0:0:
308,276,14020,1,0,0:0:0:0:
216,240,15405,1,8,0:0:0:0:
216,240,16020,1,0,0:0:0:0:
216,240,16636,1,8,0:0:0:0:
216,240,16943,1,8,0:0:0:0:
216,240,17251,1,0,0:0:0:0:
216,240,17866,1,8,0:0:0:0:
216,240,18482,1,8,0:0:0:0:
216,240,19097,1,0,0:0:0:0:
224,232,19405,1,0,0:0:0:0:
224,232,19712,1,8,0:0:0:0:
224,232,20328,1,4,0:0:0:0:
200,304,21405,1,0,0:0:0:0:
200,304,21712,1,0,0:0:0:0:
200,304,22789,1,8,0:0:0:0:
200,304,23866,1,8,0:0:0:0:
200,304,24174,1,8,0:0:0:0:
332,208,25251,1,0,0:0:0:0:
332,208,26174,1,8,0:0:0:0:
332,208,26482,1,0,0:0:0:0:
332,208,27097,1,8,0:0:0:0:
332,208,27712,1,0,0:0:0:0:
220,336,28636,1,0,0:0:0:0:
220,336,28943,1,8,0:0:0:0:
220,336,29559,1,8,0:0:0:0:
220,336,30174,1,0,0:0:0:0:
204,280,30789,1,8,0:0:0:0:
204,280,31405,1,0,0:0:0:0:
204,280,32636,1,8,0:0:0:0:
224,284,33251,1,0,0:0:0:0:
224,284,33866,1,8,0:0:0:0:
224,284,34482,1,8,0:0:0:0:
224,284,35097,1,0,0:0:0:0:
224,284,36020,1,8,0:0:0:0:
224,284,36328,1,0,0:0:0:0:
224,284,36943,1,8,0:0:0:0:
224,284,37559,1,0,0:0:0:0:
236,288,39097,1,8,0:0:0:0:
236,288,39405,1,8,0:0:0:0:
236,288,40020,1,0,0:0:0:0:
268,332,46174,5,8,0:0:0:0:
268,332,46636,1,8,0:0:0:0:
256,304,47251,1,4,0:0:0:0:
256,304,47712,1,8,0:0:0:0:
256,304,48020,1,0,0:0:0:0:
228,232,48636,1,8,0:0:0:0:
256,304,48943,1,8,0:0:0:0:
332,272,49251,1,0,0:0:0:0:
332,272,49866,1,8,0:0:0:0:
364,248,50174,1,0,0:0:0:0:
364,248,50482,1,8,0:0:0:0:
344,264,51097,1,0,0:0:0:0:
196,292,51712,1,0,0:0:0:0:
224,288,52020,1,0,0:0:0:0:
196,292,52328,1,8,0:0:0:0:
200,292,53559,1,8,0:0:0:0:
200,292,54174,1,0,0:0:0:0:
200,292,54789,1,8,0:0:0:0:
268,276,55097,1,8,0:0:0:0:
304,284,55405,1,0,0:0:0:0:
304,284,55712,1,0,0:0:0:0:
304,284,56020,1,8,0:0:0:0:
296,288,56636,1,8,0:0:0:0:
296,288,57097,1,4,0:0:0:0:
328,276,57866,1,8,0:0:0:0:
328,276,58482,1,0,0:0:0:0:
328,276,58789,1,0,0:0:0:0:
328,276,59097,1,8,0:0:0:0:
328,276,59712,1,0,0:0:0:0:
328,276,60328,1,8,0:0:0:0:
328,276,60943,1,0,0:0:0:0:
328,276,61251,1,8,0:0:0:0:
328,276,61559,1,0,0:0:0:0:
328,276,62174,1,8,0:0:0:0:
324,276,63405,1,8,0:0:0:0:
324,276,64020,1,0,0:0:0:0:
324,284,64328,1,0,0:0:0:0:
324,276,64636,1,8,0:0:0:0:
324,276,64943,1,8,0:0:0:0:
324,276,65251,1,0,0:0:0:0:
324,276,65866,1,8,0:0:0:0:
324,276,66482,1,8,0:0:0:0:
160,184,66789,1,8,0:0:0:0:
264,200,67097,1,4,0:0:0:0:
368,216,67712,1,8,0:0:0:0:
328,256,68328,1,0,0:0:0:0:
328,256,68636,1,0,0:0:0:0:
328,256,68943,1,8,0:0:0:0:
328,256,69559,1,0,0:0:0:0:
328,256,70174,1,8,0:0:0:0:
328,256,70636,1,0,0:0:0:0:
256,248,72020,1,8,0:0:0:0:
256,248,72636,1,0,0:0:0:0:
256,248,73251,1,8,0:0:0:0:
256,248,73559,1,8,0:0:0:0:
256,248,73866,1,0,0:0:0:0:
256,248,74482,1,8,0:0:0:0:
256,248,75097,1,0,0:0:0:0:
424,272,75712,1,8,0:0:0:0:
320,264,76328,1,0,0:0:0:0:
320,264,76636,1,0,0:0:0:0:
320,264,76943,1,8,0:0:0:0:
248,220,78020,1,8,0:0:0:0:
248,220,78482,1,8,0:0:0:0:
248,220,79405,1,0,0:0:0:0:
248,220,80482,1,0,0:0:0:0:
248,220,80943,1,0,0:0:0:0:
192,216,81866,1,8,0:0:0:0:
220,200,82789,1,8,0:0:0:0:
220,200,83097,1,0,0:0:0:0:
220,200,83712,1,8,0:0:0:0:
220,200,84328,1,0,0:0:0:0:
300,256,85405,1,0,0:0:0:0:
300,256,85712,1,0,0:0:0:0:
328,272,86174,1,8,0:0:0:0:
280,268,86789,1,0,0:0:0:0:
384,264,87405,1,8,0:0:0:0:
384,264,88020,1,0,0:0:0:0:
224,228,89251,1,8,0:0:0:0:
224,228,89866,1,0,0:0:0:0:
232,224,90482,1,8,0:0:0:0:
232,224,91712,1,0,0:0:0:0:
168,312,92328,1,0,0:0:0:0:
168,312,92943,1,8,0:0:0:0:
192,304,93559,1,0,0:0:0:0:
192,304,94174,1,8,0:0:0:0:
292,300,95712,1,8,0:0:0:0:
288,288,96020,1,8,0:0:0:0:
288,288,96636,1,0,0:0:0:0:
216,252,102789,5,8,0:0:0:0:
216,252,103251,1,8,0:0:0:0:
216,252,103866,1,4,0:0:0:0:
256,304,104328,1,8,0:0:0:0:
256,304,104636,1,0,0:0:0:0:
228,232,105251,1,8,0:0:0:0:
256,304,105559,1,8,0:0:0:0:
332,272,105866,1,0,0:0:0:0:
332,272,106482,1,8,0:0:0:0:
364,248,106789,1,0,0:0:0:0:
364,248,107097,1,8,0:0:0:0:
344,264,107712,1,0,0:0:0:0:
196,292,108328,1,0,0:0:0:0:
224,288,108636,1,0,0:0:0:0:
196,292,108943,1,8,0:0:0:0:
200,292,110174,1,8,0:0:0:0:
200,292,110789,1,0,0:0:0:0:
200,292,111405,1,8,0:0:0:0:
268,276,111712,1,8,0:0:0:0:
304,284,112020,1,0,0:0:0:0:
304,284,112328,1,0,0:0:0:0:
304,284,112636,1,8,0:0:0:0:
296,288,113251,1,8,0:0:0:0:
296,288,113712,1,4,0:0:0:0:
328,276,114482,1,8,0:0:0:0:
328,276,115097,1,0,0:0:0:0:
328,276,115405,1,0,0:0:0:0:
328,276,115712,1,8,0:0:0:0:
328,276,116328,1,0,0:0:0:0:
328,276,116943,1,8,0:0:0:0:
328,276,117559,1,0,0:0:0:0:
328,276,117866,1,8,0:0:0:0:
328,276,118174,1,0,0:0:0:0:
328,276,118789,1,8,0:0:0:0:
324,276,120020,1,8,0:0:0:0:
324,276,120636,1,0,0:0:0:0:
324,284,120943,1,0,0:0:0:0:
324,276,121251,1,8,0:0:0:0:
324,276,121559,1,8,0:0:0:0:
324,276,121866,1,0,0:0:0:0:
324,276,122482,1,8,0:0:0:0:
232,300,122789,1,0,0:0:0:0:
324,276,123097,1,8,0:0:0:0:
264,200,123712,1,4,0:0:0:0:
256,248,124636,1,12,0:0:0:0:
312,288,126174,1,0,0:0:0:0:
312,288,126789,1,8,0:0:0:0:
312,264,127405,1,0,0:0:0:0:
188,264,127712,1,0,0:0:0:0:
200,264,128020,1,8,0:0:0:0:
280,280,128636,1,4,0:0:0:0:
280,280,129559,1,12,0:0:0:0:
280,320,131097,1,0,0:0:0:0:
280,320,131712,1,8,0:0:0:0:
280,320,132328,1,0,0:0:0:0:
280,320,132636,1,8,0:0:0:0:
280,320,132943,1,8,0:0:0:0:
276,268,133405,1,0,0:0:0:0:
348,268,134174,1,8,0:0:0:0:
236,292,134789,1,0,0:0:0:0:
236,292,135097,1,0,0:0:0:0:
236,292,135405,1,8,0:0:0:0:
236,292,136020,1,0,0:0:0:0:
236,292,136636,1,8,0:0:0:0:
236,292,137251,1,8,0:0:0:0:
236,292,138482,1,0,0:0:0:0:
336,200,139097,1,8,0:0:0:0:
336,200,139712,1,0,0:0:0:0:
216,276,140020,1,8,0:0:0:0:
216,276,140328,1,0,0:0:0:0:
216,276,140943,1,8,0:0:0:0:
216,276,141559,1,8,0:0:0:0:
216,276,142174,1,0,0:0:0:0:
216,276,142789,1,0,0:0:0:0:
216,276,143405,1,8,0:0:0:0:
220,276,144636,1,0,0:0:0:0:
236,300,154482,5,4,0:0:0:0:
236,300,155097,1,8,0:0:0:0:
236,300,155405,1,8,0:0:0:0:
236,300,155712,1,0,0:0:0:0:
236,300,156328,1,8,0:0:0:0:
236,300,156943,1,0,0:0:0:0:
236,300,157559,1,0,0:0:0:0:
236,300,157866,1,0,0:0:0:0:
236,300,158174,1,8,0:0:0:0:
236,300,158789,1,0,0:0:0:0:
236,300,159405,1,8,0:0:0:0:
236,300,160636,1,8,0:0:0:0:
236,300,160943,1,0,0:0:0:0:
236,300,161251,1,8,0:0:0:0:
260,308,161712,1,4,0:0:0:0:
256,304,162174,1,8,0:0:0:0:
256,304,162482,1,0,0:0:0:0:
228,232,163097,1,8,0:0:0:0:
256,304,163405,1,8,0:0:0:0:
332,272,163712,1,0,0:0:0:0:
332,272,164328,1,8,0:0:0:0:
364,248,164636,1,0,0:0:0:0:
364,248,164943,1,8,0:0:0:0:
344,264,165559,1,0,0:0:0:0:
196,292,166174,1,0,0:0:0:0:
224,288,166482,1,0,0:0:0:0:
196,292,166789,1,8,0:0:0:0:
200,292,168020,1,8,0:0:0:0:
200,292,168636,1,0,0:0:0:0:
200,292,169251,1,8,0:0:0:0:
268,276,169559,1,8,0:0:0:0:
304,284,169866,1,0,0:0:0:0:
304,284,170174,1,0,0:0:0:0:
304,284,170482,1,8,0:0:0:0:
296,288,171097,1,8,0:0:0:0:
296,288,171559,1,4,0:0:0:0:
328,276,172328,1,8,0:0:0:0:
328,276,172943,1,0,0:0:0:0:
328,276,173251,1,0,0:0:0:0:
328,276,173559,1,8,0:0:0:0:
328,276,174174,1,0,0:0:0:0:
328,276,174789,1,8,0:0:0:0:
328,276,175405,1,0,0:0:0:0:
328,276,175712,1,8,0:0:0:0:
328,276,176020,1,0,0:0:0:0:
328,276,176636,1,8,0:0:0:0:
324,276,177866,1,8,0:0:0:0:
324,276,178482,1,0,0:0:0:0:
324,284,178789,1,0,0:0:0:0:
324,276,179097,1,8,0:0:0:0:
324,276,179712,1,0,0:0:0:0:
324,276,180328,1,8,0:0:0:0:
160,184,180636,1,0,0:0:0:0:
324,276,180943,1,8,0:0:0:0:
24,204,181559,2,0,L|112:212,6,70
160,176,182789,1,4,0:0:0:0:
308,276,183405,1,8,0:0:0:0:
308,276,184020,1,0,0:0:0:0:
308,276,184328,1,0,0:0:0:0:
308,276,184636,1,8,0:0:0:0:
308,276,185251,1,0,0:0:0:0:
308,276,185866,1,8,0:0:0:0:
308,276,186328,1,0,0:0:0:0:
216,240,187712,1,8,0:0:0:0:
216,240,188328,1,0,0:0:0:0:
216,240,188943,1,8,0:0:0:0:
216,240,189251,1,8,0:0:0:0:
216,240,189559,1,0,0:0:0:0:
216,240,190174,1,8,0:0:0:0:
216,240,190789,1,8,0:0:0:0:
216,240,191405,1,0,0:0:0:0:
224,232,191712,1,0,0:0:0:0:
224,232,192020,1,8,0:0:0:0:
224,232,192636,1,4,0:0:0:0:
