osu file format v14

[General]
AudioFilename: audio.mp3
AudioLeadIn: 0
PreviewTime: 161251
Countdown: 0
SampleSet: Normal
StackLeniency: 0.7
Mode: 1
LetterboxInBreaks: 0
WidescreenStoryboard: 1

[Editor]
DistanceSpacing: 1.1
BeatDivisor: 2
GridSize: 4
TimelineZoom: 2

[Metadata]
Title:Mikansei Koukyoukyoku
TitleUnicode:未完成交響曲
Artist:ONE OK ROCK
ArtistUnicode:ONE OK ROCK
Creator:Chromoxx
Version:Futsuu
Source:
Tags:Nicheシンドローム niche syndrome unfinished symphony taka toru ryota tomoya j-rock jrock ワンオクロック
BeatmapID:1425247
BeatmapSetID:667682

[Difficulty]
HPDrainRate:7
CircleSize:5
OverallDifficulty:4.5
ApproachRate:5
SliderMultiplier:1.4
SliderTickRate:1

[Events]
//Background and Video events
0,0,"bg.jpg",0,0
//Break Periods
2,40220,44974
2,96836,101589
2,144836,152974
//Storyboard Layer 0 (Background)
//Storyboard Layer 1 (Fail)
//Storyboard Layer 2 (Pass)
//Storyboard Layer 3 (Foreground)
//Storyboard Sound Samples

[TimingPoints]
636,307.692307692308,4,1,0,60,1,0
5559,-100,4,1,0,70,0,0
10482,-100,4,1,0,80,0,0
40174,-100,4,1,0,50,0,0
46174,-100,4,1,0,80,0,0
47251,-100,4,1,0,90,0,1
67097,-100,4,1,0,90,0,0
67251,-100,4,1,0,80,0,0
96789,-100,4,1,0,50,0,0
102789,-100,4,1,0,80,0,0
103866,-100,4,1,0,90,0,1
123712,-100,4,1,0,90,0,0
123866,-100,4,1,0,80,0,0
143405,-100,4,1,0,50,0,0
154174,-100,4,1,0,70,0,0
154482,-100,4,1,0,90,0,1
160636,-100,4,1,0,90,0,0
161712,-100,4,1,0,90,0,1
181559,-100,4,1,0,80,0,0

[HitObjects]
272,240,636,5,12,0:0:0:0:
280,228,1097,1,0,0:0:0:0:
344,232,1405,1,8,0:0:0:0:
344,232,1712,1,0,0:0:0:0:
344,232,2020,1,8,0:0:0:0:
344,232,2328,1,0,0:0:0:0:
312,216,3097,1,12,0:0:0:0:
304,220,3559,1,0,0:0:0:0:
304,220,3866,1,8,0:0:0:0:
304,220,4174,1,0,0:0:0:0:
304,220,4482,1,0,0:0:0:0:
304,220,4789,1,8,0:0:0:0:
252,208,4943,1,0,0:0:0:0:
252,208,5097,1,0,0:0:0:0:
184,236,5251,1,8,0:0:0:0:
192,240,5559,1,4,0:0:0:0:
192,240,6174,1,8,0:0:0:0:
248,316,6482,1,0,0:0:0:0:
248,316,6789,1,0,0:0:0:0:
260,320,7097,1,8,0:0:0:0:
272,320,7405,1,8,0:0:0:0:
284,320,8020,1,0,0:0:0:0:
284,320,8328,1,8,0:0:0:0:
284,320,8636,1,8,0:0:0:0:
284,320,8943,1,0,0:0:0:0:
32,204,9251,2,0,L|120:216,6,70
332,260,10482,1,4,0:0:0:0:
152,332,10943,1,0,0:0:0:0:
268,236,11405,1,0,0:0:0:0:
268,236,11712,1,8,0:0:0:0:
168,324,12174,1,8,0:0:0:0:
244,284,12636,1,8,0:0:0:0:
244,284,12943,1,0,0:0:0:0:
212,312,13405,1,0,0:0:0:0:
240,296,13866,1,0,0:0:0:0:
240,296,14174,1,8,0:0:0:0:
228,220,14789,1,8,0:0:0:0:
228,220,15405,1,0,0:0:0:0:
200,208,15866,1,0,0:0:0:0:
200,208,16328,1,0,0:0:0:0:
200,208,16636,1,8,0:0:0:0:
200,208,17097,1,8,0:0:0:0:
200,208,17559,1,8,0:0:0:0:
200,208,17866,1,0,0:0:0:0:
200,208,18482,1,8,0:0:0:0:
312,252,18789,1,8,0:0:0:0:
200,208,19097,1,0,0:0:0:0:
200,208,19251,1,0,0:0:0:0:
200,208,19405,1,0,0:0:0:0:
208,200,19712,1,8,0:0:0:0:
248,312,20328,1,4,0:0:0:0:
248,300,20943,1,8,0:0:0:0:
248,300,21251,1,8,0:0:0:0:
248,300,21559,1,0,0:0:0:0:
288,216,22789,1,8,0:0:0:0:
276,248,23405,1,0,0:0:0:0:
344,264,23712,1,0,0:0:0:0:
344,264,24020,1,8,0:0:0:0:
344,264,25251,1,0,0:0:0:0:
344,264,26174,1,8,0:0:0:0:
344,264,26482,1,0,0:0:0:0:
344,264,26789,1,0,0:0:0:0:
344,264,27097,1,8,0:0:0:0:
344,264,27405,1,0,0:0:0:0:
344,264,27712,1,8,0:0:0:0:
172,252,28328,1,0,0:0:0:0:
172,252,28943,1,8,0:0:0:0:
172,252,29251,1,8,0:0:0:0:
172,252,29559,1,0,0:0:0:0:
184,240,29866,1,8,0:0:0:0:
184,240,30174,1,0,0:0:0:0:
184,240,30789,1,8,0:0:0:0:
208,312,31097,1,8,0:0:0:0:
184,240,31405,1,0,0:0:0:0:
184,240,31712,1,0,0:0:0:0:
184,240,32020,1,8,0:0:0:0:
180,240,32636,1,0,0:0:0:0:
328,304,33251,1,8,0:0:0:0:
328,304,33559,1,0,0:0:0:0:
180,240,33866,1,8,0:0:0:0:
240,296,34174,1,8,0:0:0:0:
240,296,34482,1,0,0:0:0:0:
240,296,35097,1,8,0:0:0:0:
240,296,35712,1,0,0:0:0:0:
240,296,36020,1,0,0:0:0:0:
232,296,36328,1,8,0:0:0:0:
232,296,36636,1,8,0:0:0:0:
232,296,36943,1,0,0:0:0:0:
232,296,37559,1,8,0:0:0:0:
232,296,38174,1,0,0:0:0:0:
232,296,38482,1,0,0:0:0:0:
232,296,38789,1,8,0:0:0:0:
180,240,39097,1,0,0:0:0:0:
180,240,39405,1,8,0:0:0:0:
276,272,39559,1,0,0:0:0:0:
276,272,39712,1,8,0:0:0:0:
180,240,40020,1,0,0:0:0:0:
348,296,46174,5,8,0:0:0:0:
348,296,46328,1,0,0:0:0:0:
348,296,46482,1,0,0:0:0:0:
264,264,46636,1,8,0:0:0:0:
272,260,47251,1,4,0:0:0:0:
272,260,47712,1,8,0:0:0:0:
272,260,48020,1,0,0:0:0:0:
272,260,48328,1,8,0:0:0:0:
260,276,48482,1,8,0:0:0:0:
224,272,48789,1,8,0:0:0:0:
224,272,49097,1,0,0:0:0:0:
224,272,49251,1,8,0:0:0:0:
224,272,49405,1,8,0:0:0:0:
316,288,49712,1,0,0:0:0:0:
316,288,49866,1,0,0:0:0:0:
320,292,50174,1,0,0:0:0:0:
208,272,50482,1,8,0:0:0:0:
208,272,50789,1,8,0:0:0:0:
208,272,50943,1,0,0:0:0:0:
208,272,51251,1,8,0:0:0:0:
300,244,51712,1,8,0:0:0:0:
300,244,51866,1,8,0:0:0:0:
216,276,52174,1,0,0:0:0:0:
296,240,52328,1,0,0:0:0:0:
296,240,52943,1,8,0:0:0:0:
296,240,53251,1,8,0:0:0:0:
296,240,53559,1,0,0:0:0:0:
296,244,53866,1,0,0:0:0:0:
296,244,54174,1,8,0:0:0:0:
296,244,54482,1,0,0:0:0:0:
296,244,54789,1,8,0:0:0:0:
296,244,55097,1,8,0:0:0:0:
296,244,55405,1,0,0:0:0:0:
296,244,55712,1,0,0:0:0:0:
296,244,56020,1,8,0:0:0:0:
296,244,56328,1,0,0:0:0:0:
136,276,56636,1,8,0:0:0:0:
296,244,56789,1,8,0:0:0:0:
272,268,57097,1,4,0:0:0:0:
332,308,57559,1,8,0:0:0:0:
432,272,57866,1,0,0:0:0:0:
432,272,58174,1,8,0:0:0:0:
340,264,58328,1,8,0:0:0:0:
340,264,58636,1,8,0:0:0:0:
280,240,59097,1,0,0:0:0:0:
280,240,59251,1,0,0:0:0:0:
280,240,59559,1,8,0:0:0:0:
312,148,59712,1,0,0:0:0:0:
272,168,60020,1,0,0:0:0:0:
272,168,60328,1,8,0:0:0:0:
272,168,60636,1,0,0:0:0:0:
272,168,60789,1,0,0:0:0:0:
272,168,61097,1,8,0:0:0:0:
264,180,61559,1,0,0:0:0:0:
264,180,61712,1,0,0:0:0:0:
264,180,62020,1,8,0:0:0:0:
264,180,62174,1,0,0:0:0:0:
288,176,62789,1,8,0:0:0:0:
288,176,63097,1,8,0:0:0:0:
288,176,63405,1,0,0:0:0:0:
288,176,63712,1,0,0:0:0:0:
288,176,64020,1,8,0:0:0:0:
288,176,64328,1,0,0:0:0:0:
288,176,64636,1,8,0:0:0:0:
288,176,64943,1,8,0:0:0:0:
288,176,65251,1,0,0:0:0:0:
288,176,65559,1,0,0:0:0:0:
288,176,65866,1,8,0:0:0:0:
296,168,66174,1,8,0:0:0:0:
296,168,66482,1,0,0:0:0:0:
296,168,66636,1,0,0:0:0:0:
296,168,66789,1,8,0:0:0:0:
332,260,67097,1,4,0:0:0:0:
152,332,67559,1,0,0:0:0:0:
268,236,68020,1,0,0:0:0:0:
268,236,68328,1,8,0:0:0:0:
168,324,68789,1,8,0:0:0:0:
244,284,69251,1,8,0:0:0:0:
244,284,69559,1,0,0:0:0:0:
212,312,70020,1,0,0:0:0:0:
240,296,70482,1,0,0:0:0:0:
240,296,70789,1,8,0:0:0:0:
228,220,71405,1,8,0:0:0:0:
228,220,72020,1,0,0:0:0:0:
200,208,72482,1,0,0:0:0:0:
200,208,72943,1,0,0:0:0:0:
200,208,73251,1,8,0:0:0:0:
200,208,73712,1,8,0:0:0:0:
200,208,74174,1,8,0:0:0:0:
200,208,74482,1,0,0:0:0:0:
200,208,75097,1,8,0:0:0:0:
312,252,75405,1,8,0:0:0:0:
200,208,75712,1,0,0:0:0:0:
200,208,76020,1,0,0:0:0:0:
200,208,76174,1,0,0:0:0:0:
208,200,76328,1,8,0:0:0:0:
232,240,76943,1,0,0:0:0:0:
232,240,77559,1,8,0:0:0:0:
288,284,77866,1,8,0:0:0:0:
288,284,78174,1,0,0:0:0:0:
288,284,78482,1,0,0:0:0:0:
248,328,79097,1,0,0:0:0:0:
288,284,79405,1,8,0:0:0:0:
352,260,80020,1,0,0:0:0:0:
352,260,80328,1,0,0:0:0:0:
352,260,80636,1,8,0:0:0:0:
352,260,80943,1,8,0:0:0:0:
244,316,81559,1,8,0:0:0:0:
272,300,81866,1,0,0:0:0:0:
268,308,82789,1,8,0:0:0:0:
268,308,83097,1,0,0:0:0:0:
268,308,83405,1,0,0:0:0:0:
268,308,83712,1,8,0:0:0:0:
268,308,84020,1,0,0:0:0:0:
268,308,84328,1,8,0:0:0:0:
268,308,84943,1,8,0:0:0:0:
268,308,85405,1,0,0:0:0:0:
268,308,85712,1,0,0:0:0:0:
268,312,86174,1,8,0:0:0:0:
316,184,86789,1,0,0:0:0:0:
316,184,87405,1,8,0:0:0:0:
316,184,87712,1,8,0:0:0:0:
316,184,88020,1,0,0:0:0:0:
316,184,88328,1,0,0:0:0:0:
316,184,88636,1,8,0:0:0:0:
316,184,89251,1,0,0:0:0:0:
316,184,89866,1,8,0:0:0:0:
316,184,90174,1,0,0:0:0:0:
316,184,90482,1,8,0:0:0:0:
316,184,90789,1,8,0:0:0:0:
316,184,91097,1,0,0:0:0:0:
316,184,91712,1,8,0:0:0:0:
316,184,92328,1,0,0:0:0:0:
316,184,92636,1,0,0:0:0:0:
316,184,92943,1,8,0:0:0:0:
316,184,93251,1,8,0:0:0:0:
316,184,93559,1,0,0:0:0:0:
316,184,94174,1,8,0:0:0:0:
180,304,94789,1,0,0:0:0:0:
180,304,95097,1,0,0:0:0:0:
180,304,95405,1,8,0:0:0:0:
256,312,95712,1,0,0:0:0:0:
256,312,96020,1,8,0:0:0:0:
252,320,96174,1,0,0:0:0:0:
220,280,96328,1,8,0:0:0:0:
256,312,96636,1,0,0:0:0:0:
304,272,102789,5,8,0:0:0:0:
304,272,102943,1,0,0:0:0:0:
304,272,103097,1,0,0:0:0:0:
304,272,103251,1,8,0:0:0:0:
304,272,103866,1,4,0:0:0:0:
272,260,104328,1,8,0:0:0:0:
272,260,104636,1,0,0:0:0:0:
272,260,104943,1,8,0:0:0:0:
260,276,105097,1,8,0:0:0:0:
224,272,105405,1,8,0:0:0:0:
224,272,105712,1,0,0:0:0:0:
224,272,105866,1,8,0:0:0:0:
224,272,106020,1,8,0:0:0:0:
316,288,106328,1,0,0:0:0:0:
316,288,106482,1,0,0:0:0:0:
320,292,106789,1,0,0:0:0:0:
208,272,107097,1,8,0:0:0:0:
208,272,107405,1,8,0:0:0:0:
208,272,107559,1,0,0:0:0:0:
208,272,107866,1,8,0:0:0:0:
300,244,108328,1,8,0:0:0:0:
300,244,108482,1,8,0:0:0:0:
216,276,108789,1,0,0:0:0:0:
296,240,108943,1,0,0:0:0:0:
296,240,109559,1,8,0:0:0:0:
296,240,109866,1,8,0:0:0:0:
296,240,110174,1,0,0:0:0:0:
296,244,110482,1,0,0:0:0:0:
296,244,110789,1,8,0:0:0:0:
296,244,111097,1,0,0:0:0:0:
296,244,111405,1,8,0:0:0:0:
296,244,111712,1,8,0:0:0:0:
296,244,112020,1,0,0:0:0:0:
296,244,112328,1,0,0:0:0:0:
296,244,112636,1,8,0:0:0:0:
296,244,112943,1,0,0:0:0:0:
136,276,113251,1,8,0:0:0:0:
296,244,113405,1,8,0:0:0:0:
272,268,113712,1,4,0:0:0:0:
332,308,114174,1,8,0:0:0:0:
432,272,114482,1,0,0:0:0:0:
432,272,114789,1,8,0:0:0:0:
340,264,114943,1,8,0:0:0:0:
340,264,115251,1,8,0:0:0:0:
280,240,115712,1,0,0:0:0:0:
280,240,115866,1,0,0:0:0:0:
280,240,116174,1,8,0:0:0:0:
312,148,116328,1,0,0:0:0:0:
272,168,116636,1,0,0:0:0:0:
272,168,116943,1,8,0:0:0:0:
272,168,117251,1,0,0:0:0:0:
272,168,117405,1,0,0:0:0:0:
272,168,117712,1,8,0:0:0:0:
264,180,118174,1,0,0:0:0:0:
264,180,118328,1,0,0:0:0:0:
264,180,118636,1,8,0:0:0:0:
264,180,118789,1,0,0:0:0:0:
288,176,119405,1,8,0:0:0:0:
288,176,119712,1,8,0:0:0:0:
288,176,120020,1,0,0:0:0:0:
288,176,120328,1,0,0:0:0:0:
288,176,120636,1,8,0:0:0:0:
288,176,120943,1,0,0:0:0:0:
288,176,121251,1,8,0:0:0:0:
288,176,121559,1,8,0:0:0:0:
288,176,121866,1,0,0:0:0:0:
288,176,122174,1,0,0:0:0:0:
288,176,122482,1,8,0:0:0:0:
296,168,122789,1,8,0:0:0:0:
296,168,123097,1,0,0:0:0:0:
296,168,123251,1,0,0:0:0:0:
296,168,123405,1,8,0:0:0:0:
332,260,123712,1,4,0:0:0:0:
280,228,124636,1,12,0:0:0:0:
220,280,125559,1,8,0:0:0:0:
220,284,126174,1,0,0:0:0:0:
324,276,126482,1,0,0:0:0:0:
324,276,126789,1,8,0:0:0:0:
324,276,127405,1,0,0:0:0:0:
300,264,127712,1,8,0:0:0:0:
300,264,128020,1,0,0:0:0:0:
300,264,128328,1,8,0:0:0:0:
300,264,128636,1,4,0:0:0:0:
300,264,129559,1,12,0:0:0:0:
300,264,130482,1,8,0:0:0:0:
304,256,131097,1,0,0:0:0:0:
304,256,131405,1,0,0:0:0:0:
304,256,131712,1,8,0:0:0:0:
304,256,132328,1,0,0:0:0:0:
304,256,132636,1,8,0:0:0:0:
304,256,132943,1,0,0:0:0:0:
304,256,133251,1,8,0:0:0:0:
304,256,133405,1,0,0:0:0:0:
280,272,133866,1,8,0:0:0:0:
280,272,134174,1,0,0:0:0:0:
280,272,134328,1,0,0:0:0:0:
280,272,134482,1,8,0:0:0:0:
280,272,134789,1,0,0:0:0:0:
204,300,135097,1,8,0:0:0:0:
204,300,135405,1,0,0:0:0:0:
204,312,136020,1,8,0:0:0:0:
248,280,136636,1,8,0:0:0:0:
248,280,137251,1,0,0:0:0:0:
248,280,137866,1,0,0:0:0:0:
152,256,138482,1,8,0:0:0:0:
152,256,138789,1,0,0:0:0:0:
120,252,139097,1,8,0:0:0:0:
132,248,139251,1,0,0:0:0:0:
132,248,139405,1,8,0:0:0:0:
228,176,139712,1,0,0:0:0:0:
228,176,140020,1,0,0:0:0:0:
228,176,140328,1,8,0:0:0:0:
264,276,140943,1,0,0:0:0:0:
264,276,141559,1,0,0:0:0:0:
272,260,142174,1,8,0:0:0:0:
272,260,142789,1,8,0:0:0:0:
256,192,143405,12,0,144328,0:0:0:0:
120,184,144636,5,0,0:0:0:0:
296,208,154174,5,8,0:0:0:0:
304,212,154482,1,4,0:0:0:0:
208,288,154943,1,0,0:0:0:0:
208,288,155405,1,0,0:0:0:0:
208,288,155712,1,8,0:0:0:0:
208,288,156174,1,8,0:0:0:0:
304,228,156943,1,8,0:0:0:0:
304,228,157405,1,8,0:0:0:0:
304,228,157866,1,8,0:0:0:0:
304,228,158174,1,0,0:0:0:0:
304,228,158636,1,0,0:0:0:0:
236,272,159405,1,8,0:0:0:0:
328,240,159866,1,8,0:0:0:0:
328,240,160328,1,8,0:0:0:0:
328,240,160636,1,0,0:0:0:0:
328,240,160943,1,0,0:0:0:0:
200,284,161251,1,8,0:0:0:0:
200,284,161405,1,8,0:0:0:0:
228,236,161712,1,4,0:0:0:0:
272,260,162174,1,8,0:0:0:0:
272,260,162482,1,0,0:0:0:0:
272,260,162789,1,8,0:0:0:0:
260,276,162943,1,8,0:0:0:0:
224,272,163251,1,8,0:0:0:0:
224,272,163559,1,0,0:0:0:0:
224,272,163712,1,8,0:0:0:0:
224,272,163866,1,8,0:0:0:0:
316,288,164174,1,0,0:0:0:0:
316,288,164328,1,0,0:0:0:0:
320,292,164636,1,0,0:0:0:0:
208,272,164943,1,8,0:0:0:0:
208,272,165251,1,8,0:0:0:0:
208,272,165405,1,0,0:0:0:0:
208,272,165712,1,8,0:0:0:0:
300,244,166174,1,8,0:0:0:0:
300,244,166328,1,8,0:0:0:0:
216,276,166636,1,0,0:0:0:0:
296,240,166789,1,0,0:0:0:0:
296,240,167405,1,8,0:0:0:0:
296,240,167712,1,8,0:0:0:0:
296,240,168020,1,0,0:0:0:0:
296,244,168328,1,0,0:0:0:0:
296,244,168636,1,8,0:0:0:0:
296,244,168943,1,0,0:0:0:0:
296,244,169251,1,8,0:0:0:0:
296,244,169559,1,8,0:0:0:0:
296,244,169866,1,0,0:0:0:0:
296,244,170174,1,0,0:0:0:0:
296,244,170482,1,8,0:0:0:0:
296,244,170789,1,0,0:0:0:0:
136,276,171097,1,8,0:0:0:0:
296,244,171251,1,8,0:0:0:0:
272,268,171559,1,4,0:0:0:0:
332,308,172020,1,8,0:0:0:0:
432,272,172328,1,0,0:0:0:0:
432,272,172636,1,8,0:0:0:0:
340,264,172789,1,8,0:0:0:0:
340,264,173097,1,8,0:0:0:0:
280,240,173559,1,0,0:0:0:0:
280,240,173712,1,0,0:0:0:0:
280,240,174020,1,8,0:0:0:0:
312,148,174174,1,0,0:0:0:0:
272,168,174482,1,0,0:0:0:0:
272,168,174789,1,8,0:0:0:0:
272,168,175097,1,0,0:0:0:0:
272,168,175251,1,0,0:0:0:0:
272,168,175559,1,8,0:0:0:0:
264,180,176020,1,0,0:0:0:0:
264,180,176174,1,0,0:0:0:0:
264,180,176482,1,8,0:0:0:0:
264,180,176636,1,0,0:0:0:0:
288,176,177251,1,8,0:0:0:0:
288,176,177559,1,8,0:0:0:0:
288,176,177866,1,0,0:0:0:0:
288,176,178174,1,0,0:0:0:0:
288,176,178482,1,8,0:0:0:0:
288,176,178789,1,0,0:0:0:0:
288,176,179097,1,8,0:0:0:0:
288,176,179405,1,8,0:0:0:0:
288,176,179712,1,0,0:0:0:0:
288,176,180020,1,0,0:0:0:0:
288,176,180328,1,8,0:0:0:0:
296,168,180636,1,8,0:0:0:0:
296,168,180943,1,0,0:0:0:0:
296,168,181097,1,0,0:0:0:0:
296,168,181251,1,8,0:0:0:0:
28,204,181559,2,0,L|144:200,6,70
332,260,182789,1,4,0:0:0:0:
152,332,183251,1,0,0:0:0:0:
268,236,183712,1,0,0:0:0:0:
268,236,184020,1,8,0:0:0:0:
168,324,184482,1,8,0:0:0:0:
244,284,184943,1,8,0:0:0:0:
244,284,185251,1,0,0:0:0:0:
212,312,185712,1,0,0:0:0:0:
240,296,186174,1,0,0:0:0:0:
240,296,186482,1,8,0:0:0:0:
228,220,187097,1,8,0:0:0:0:
228,220,187712,1,0,0:0:0:0:
200,208,188174,1,0,0:0:0:0:
200,208,188636,1,0,0:0:0:0:
200,208,188943,1,8,0:0:0:0:
200,208,189405,1,8,0:0:0:0:
200,208,189866,1,8,0:0:0:0:
200,208,190174,1,0,0:0:0:0:
200,208,190789,1,8,0:0:0:0:
312,252,191097,1,8,0:0:0:0:
200,208,191405,1,0,0:0:0:0:
200,208,191559,1,0,0:0:0:0:
200,208,191712,1,0,0:0:0:0:
208,200,192020,1,8,0:0:0:0:
248,312,192636,1,4,0:0:0:0:
