osu file format v14

[General]
AudioFilename: audio.mp3
AudioLeadIn: 0
PreviewTime: 55153
Countdown: 0
SampleSet: Normal
StackLeniency: 0.7
Mode: 1
LetterboxInBreaks: 0
WidescreenStoryboard: 0

[Editor]
DistanceSpacing: 0.7
BeatDivisor: 4
GridSize: 8
TimelineZoom: 1.9

[Metadata]
Title:Mighty Long Fall
TitleUnicode:Mighty Long Fall
Artist:ONE OK ROCK
ArtistUnicode:ONE OK ROCK
Creator:Chromoxx
Version:Futsuu
Source:るろうに剣心 京都大火編
Tags:j-rock jrock cliff rurouni kenshin kyoto inferno taika-hen
BeatmapID:1225107
BeatmapSetID:578492

[Difficulty]
HPDrainRate:7
CircleSize:5
OverallDifficulty:4.5
ApproachRate:5
SliderMultiplier:1.4
SliderTickRate:1

[Events]
//Background and Video events
0,0,"mighty long fall.jpg",0,0
//Break Periods
2,131302,135978
//Storyboard Layer 0 (Background)
//Storyboard Layer 1 (Fail)
//Storyboard Layer 2 (Pass)
//Storyboard Layer 3 (Foreground)
//Storyboard Sound Samples

[TimingPoints]
470,379.746835443038,4,1,0,70,1,0
52020,-100,4,1,0,80,0,0
53539,-100,4,1,0,90,0,0
55153,-100,4,1,0,100,0,1
79457,-100,4,1,0,100,0,0
79647,-100,4,1,0,70,0,0
94457,-100,4,1,0,75,0,0
105375,-100,4,1,0,80,0,0
105944,-100,4,1,0,90,0,0
106799,-100,4,1,0,100,0,1
131102,-100,4,1,0,100,0,0
131292,-100,4,1,0,70,0,0
179663,-100,4,1,0,80,0,0
191007,-100,4,1,0,90,0,0
191862,-100,4,1,0,100,0,1
228318,-100,4,1,0,100,0,0

[HitObjects]
298,88,470,5,4,0:0:0:0:
304,136,849,1,8,0:0:0:0:
330,179,1609,1,8,0:0:0:0:
309,167,2178,1,0,0:0:0:0:
309,167,2748,1,0,0:0:0:0:
293,163,3128,1,8,0:0:0:0:
293,163,3507,1,0,0:0:0:0:
208,196,5216,1,8,0:0:0:0:
326,141,5406,1,8,0:0:0:0:
310,169,5786,1,0,0:0:0:0:
275,143,6545,1,4,0:0:0:0:
144,173,6925,1,8,0:0:0:0:
298,117,7305,1,0,0:0:0:0:
322,155,8444,1,8,0:0:0:0:
295,131,9014,1,8,0:0:0:0:
295,131,9204,1,8,0:0:0:0:
295,131,9583,1,0,0:0:0:0:
295,131,9963,1,8,0:0:0:0:
295,131,10343,1,0,0:0:0:0:
347,174,11482,1,8,0:0:0:0:
347,174,11862,1,0,0:0:0:0:
347,174,12621,1,0,0:0:0:0:
306,157,13001,1,8,0:0:0:0:
306,157,13381,1,0,0:0:0:0:
306,157,14520,1,8,0:0:0:0:
272,140,15090,1,8,0:0:0:0:
272,140,15280,1,8,0:0:0:0:
233,125,15659,1,0,0:0:0:0:
228,122,16039,1,8,0:0:0:0:
233,125,16419,1,0,0:0:0:0:
228,122,16988,1,8,0:0:0:0:
342,127,18697,1,4,0:0:0:0:
320,128,19077,1,8,0:0:0:0:
257,157,19457,1,0,0:0:0:0:
299,123,20026,1,0,0:0:0:0:
299,123,20596,1,8,0:0:0:0:
348,126,21166,1,8,0:0:0:0:
348,126,21356,1,8,0:0:0:0:
348,126,21735,1,0,0:0:0:0:
348,126,22115,1,8,0:0:0:0:
348,126,22495,1,0,0:0:0:0:
348,126,23064,1,0,0:0:0:0:
320,114,23634,1,8,0:0:0:0:
329,104,24773,1,0,0:0:0:0:
329,104,25153,1,8,0:0:0:0:
329,104,25533,1,0,0:0:0:0:
329,104,26102,1,0,0:0:0:0:
329,104,26672,1,8,0:0:0:0:
325,115,27242,1,8,0:0:0:0:
325,115,27432,1,8,0:0:0:0:
325,115,27811,1,0,0:0:0:0:
325,115,28191,1,8,0:0:0:0:
284,188,28571,1,0,0:0:0:0:
284,188,29140,1,0,0:0:0:0:
359,196,29710,1,8,0:0:0:0:
359,196,30090,1,0,0:0:0:0:
247,69,30849,1,4,0:0:0:0:
380,190,31229,1,8,0:0:0:0:
380,190,31609,1,0,0:0:0:0:
341,149,31799,1,8,0:0:0:0:
341,149,32178,1,0,0:0:0:0:
358,178,32748,1,8,0:0:0:0:
358,178,33318,1,8,0:0:0:0:
200,125,33507,1,8,0:0:0:0:
205,131,33887,1,0,0:0:0:0:
273,154,34267,1,8,0:0:0:0:
241,223,34647,1,0,0:0:0:0:
241,223,34837,1,8,0:0:0:0:
241,223,35216,1,0,0:0:0:0:
188,80,35786,1,8,0:0:0:0:
247,128,36925,1,0,0:0:0:0:
247,128,37305,1,8,0:0:0:0:
247,128,37685,1,0,0:0:0:0:
247,128,37875,1,8,0:0:0:0:
247,128,38254,1,0,0:0:0:0:
247,128,38824,1,8,0:0:0:0:
236,133,39394,1,8,0:0:0:0:
236,133,39583,1,8,0:0:0:0:
236,133,39963,1,0,0:0:0:0:
314,200,40343,1,8,0:0:0:0:
314,200,40723,1,0,0:0:0:0:
272,167,41292,1,8,0:0:0:0:
274,144,41862,1,0,0:0:0:0:
340,200,43001,1,4,0:0:0:0:
293,133,43381,1,8,0:0:0:0:
293,133,43761,1,0,0:0:0:0:
293,133,43951,1,8,0:0:0:0:
293,133,44330,1,0,0:0:0:0:
293,133,44900,1,8,0:0:0:0:
293,133,45470,1,8,0:0:0:0:
222,150,45659,1,8,0:0:0:0:
233,157,46039,1,0,0:0:0:0:
298,185,46419,1,8,0:0:0:0:
298,185,46799,1,0,0:0:0:0:
342,188,46988,1,8,0:0:0:0:
312,151,47368,1,0,0:0:0:0:
342,188,47938,1,8,0:0:0:0:
307,184,49077,1,0,0:0:0:0:
307,184,49457,1,8,0:0:0:0:
307,184,49837,1,0,0:0:0:0:
278,134,50026,1,8,0:0:0:0:
278,134,50406,1,0,0:0:0:0:
278,134,50976,1,8,0:0:0:0:
290,163,51735,1,8,0:0:0:0:
154,141,52115,1,4,0:0:0:0:
370,221,52495,1,0,0:0:0:0:
370,221,52875,1,0,0:0:0:0:
370,221,53254,1,0,0:0:0:0:
398,257,53634,1,12,0:0:0:0:
351,199,54014,1,8,0:0:0:0:
351,199,54394,1,8,0:0:0:0:
351,199,54583,1,8,0:0:0:0:
351,199,54773,1,8,0:0:0:0:
380,145,55153,1,4,0:0:0:0:
290,152,55913,1,8,0:0:0:0:
290,152,56292,1,0,0:0:0:0:
288,256,56482,1,0,0:0:0:0:
316,166,56672,1,8,0:0:0:0:
316,166,57052,1,8,0:0:0:0:
316,166,57432,1,0,0:0:0:0:
218,140,57811,1,0,0:0:0:0:
316,166,58001,1,8,0:0:0:0:
264,149,58191,1,0,0:0:0:0:
302,145,58951,1,8,0:0:0:0:
280,207,59140,1,0,0:0:0:0:
312,163,59330,1,8,0:0:0:0:
311,163,59710,1,0,0:0:0:0:
320,146,60090,1,8,0:0:0:0:
342,175,60470,1,0,0:0:0:0:
371,174,60659,1,8,0:0:0:0:
371,174,60849,1,8,0:0:0:0:
371,174,61229,1,4,0:0:0:0:
302,156,61988,1,8,0:0:0:0:
228,188,62178,1,8,0:0:0:0:
228,188,62368,1,0,0:0:0:0:
302,156,62748,1,8,0:0:0:0:
292,155,63128,1,8,0:0:0:0:
275,119,63507,1,0,0:0:0:0:
302,75,63697,1,8,0:0:0:0:
271,109,63887,1,0,0:0:0:0:
270,107,64267,1,0,0:0:0:0:
336,164,65026,1,8,0:0:0:0:
274,188,65216,1,0,0:0:0:0:
336,164,65406,1,8,0:0:0:0:
284,205,65786,1,0,0:0:0:0:
284,205,66166,1,8,0:0:0:0:
217,145,66545,1,0,0:0:0:0:
299,174,66735,1,0,0:0:0:0:
216,151,66925,1,8,0:0:0:0:
299,174,67305,1,4,0:0:0:0:
336,195,68064,1,8,0:0:0:0:
227,191,68444,1,0,0:0:0:0:
227,191,68634,1,0,0:0:0:0:
203,162,68824,1,8,0:0:0:0:
336,195,69204,1,8,0:0:0:0:
336,195,69583,1,0,0:0:0:0:
237,165,69963,1,0,0:0:0:0:
237,165,70153,1,8,0:0:0:0:
245,171,70343,1,0,0:0:0:0:
310,138,71102,1,8,0:0:0:0:
320,178,71292,1,0,0:0:0:0:
320,178,71482,1,8,0:0:0:0:
237,112,71862,1,0,0:0:0:0:
298,173,72242,1,8,0:0:0:0:
268,168,72621,1,0,0:0:0:0:
268,168,72811,1,8,0:0:0:0:
268,168,73001,1,8,0:0:0:0:
302,163,73381,1,4,0:0:0:0:
302,163,74140,1,8,0:0:0:0:
281,189,74330,1,8,0:0:0:0:
281,189,74520,1,0,0:0:0:0:
281,189,74900,1,8,0:0:0:0:
281,189,75280,1,8,0:0:0:0:
281,189,75659,1,0,0:0:0:0:
213,116,75849,1,8,0:0:0:0:
213,116,76039,1,0,0:0:0:0:
304,197,76419,1,0,0:0:0:0:
292,150,77178,1,8,0:0:0:0:
264,166,77368,1,0,0:0:0:0:
264,166,77558,1,8,0:0:0:0:
288,176,77938,1,0,0:0:0:0:
352,277,78318,1,8,0:0:0:0:
312,208,78697,1,0,0:0:0:0:
336,184,78887,1,8,0:0:0:0:
344,184,79077,1,8,0:0:0:0:
256,136,79267,1,8,0:0:0:0:
352,176,79457,1,0,0:0:0:0:
224,208,80406,1,0,0:0:0:0:
224,208,80786,1,8,0:0:0:0:
368,200,81356,1,8,0:0:0:0:
352,208,82495,1,0,0:0:0:0:
352,208,82875,1,8,0:0:0:0:
304,144,83254,1,0,0:0:0:0:
304,144,83444,1,8,0:0:0:0:
304,144,83824,1,0,0:0:0:0:
304,144,84394,1,8,0:0:0:0:
304,128,84963,1,8,0:0:0:0:
304,128,85153,1,8,0:0:0:0:
304,128,85533,1,0,0:0:0:0:
304,128,85913,1,8,0:0:0:0:
304,128,86292,1,0,0:0:0:0:
296,160,86862,1,0,0:0:0:0:
320,144,87432,1,8,0:0:0:0:
336,160,88571,1,0,0:0:0:0:
336,160,88951,1,8,0:0:0:0:
336,160,89330,1,0,0:0:0:0:
304,144,89520,1,8,0:0:0:0:
304,144,89900,1,0,0:0:0:0:
320,128,90470,1,8,0:0:0:0:
320,128,91039,1,8,0:0:0:0:
320,128,91229,1,8,0:0:0:0:
320,128,91609,1,0,0:0:0:0:
320,128,91988,1,8,0:0:0:0:
320,128,92368,1,0,0:0:0:0:
320,128,92558,1,8,0:0:0:0:
320,128,92938,1,0,0:0:0:0:
320,120,93507,1,8,0:0:0:0:
360,112,93887,1,0,0:0:0:0:
360,112,94647,1,0,0:0:0:0:
344,120,95026,1,8,0:0:0:0:
344,120,95406,1,0,0:0:0:0:
344,120,95596,1,8,0:0:0:0:
160,152,95976,1,0,0:0:0:0:
280,128,96545,1,8,0:0:0:0:
240,96,97115,1,8,0:0:0:0:
240,96,97305,1,8,0:0:0:0:
240,96,97685,1,0,0:0:0:0:
240,96,98064,1,8,0:0:0:0:
240,96,98444,1,0,0:0:0:0:
240,96,98634,1,8,0:0:0:0:
328,144,99014,1,0,0:0:0:0:
328,144,99583,1,8,0:0:0:0:
328,144,99963,1,0,0:0:0:0:
288,176,100723,1,0,0:0:0:0:
335,155,101102,1,8,0:0:0:0:
335,155,101482,1,0,0:0:0:0:
335,155,101672,1,8,0:0:0:0:
287,142,102052,1,0,0:0:0:0:
292,120,102621,1,8,0:0:0:0:
292,120,103191,1,8,0:0:0:0:
167,104,103381,1,8,0:0:0:0:
288,158,103761,1,0,0:0:0:0:
302,152,104140,1,8,0:0:0:0:
302,152,104520,1,0,0:0:0:0:
302,152,104710,1,0,0:0:0:0:
294,152,105090,1,12,0:0:0:0:
371,127,106039,1,8,0:0:0:0:
371,127,106229,1,8,0:0:0:0:
368,133,106419,1,8,0:0:0:0:
332,125,106799,1,4,0:0:0:0:
290,152,107558,1,8,0:0:0:0:
290,152,107937,1,0,0:0:0:0:
288,256,108127,1,0,0:0:0:0:
316,166,108317,1,8,0:0:0:0:
316,166,108697,1,8,0:0:0:0:
316,166,109077,1,0,0:0:0:0:
218,140,109456,1,0,0:0:0:0:
316,166,109646,1,8,0:0:0:0:
264,149,109836,1,0,0:0:0:0:
302,145,110596,1,8,0:0:0:0:
280,207,110785,1,0,0:0:0:0:
312,163,110975,1,8,0:0:0:0:
311,163,111355,1,0,0:0:0:0:
320,146,111735,1,8,0:0:0:0:
342,175,112115,1,0,0:0:0:0:
371,174,112304,1,8,0:0:0:0:
371,174,112494,1,8,0:0:0:0:
371,174,112874,1,4,0:0:0:0:
302,156,113633,1,8,0:0:0:0:
228,188,113823,1,8,0:0:0:0:
228,188,114013,1,0,0:0:0:0:
302,156,114393,1,8,0:0:0:0:
292,155,114773,1,8,0:0:0:0:
275,119,115152,1,0,0:0:0:0:
302,75,115342,1,8,0:0:0:0:
271,109,115532,1,0,0:0:0:0:
270,107,115912,1,0,0:0:0:0:
336,164,116671,1,8,0:0:0:0:
274,188,116861,1,0,0:0:0:0:
336,164,117051,1,8,0:0:0:0:
284,205,117431,1,0,0:0:0:0:
284,205,117811,1,8,0:0:0:0:
217,145,118190,1,0,0:0:0:0:
299,174,118381,1,0,0:0:0:0:
216,151,118570,1,8,0:0:0:0:
299,174,118950,1,4,0:0:0:0:
336,195,119709,1,8,0:0:0:0:
227,191,119900,1,0,0:0:0:0:
227,191,120089,1,8,0:0:0:0:
203,162,120469,1,8,0:0:0:0:
238,134,120659,1,0,0:0:0:0:
242,122,120849,1,0,0:0:0:0:
336,195,121228,1,8,0:0:0:0:
237,165,121608,1,0,0:0:0:0:
237,165,121798,1,8,0:0:0:0:
245,171,121988,1,0,0:0:0:0:
310,138,122747,1,8,0:0:0:0:
320,178,122937,1,0,0:0:0:0:
320,178,123127,1,8,0:0:0:0:
237,112,123507,1,0,0:0:0:0:
298,173,123887,1,8,0:0:0:0:
268,168,124266,1,0,0:0:0:0:
268,168,124456,1,8,0:0:0:0:
268,168,124646,1,8,0:0:0:0:
302,163,125026,1,4,0:0:0:0:
302,163,125785,1,8,0:0:0:0:
281,189,125975,1,8,0:0:0:0:
281,189,126165,1,0,0:0:0:0:
281,189,126545,1,8,0:0:0:0:
281,189,126925,1,8,0:0:0:0:
281,189,127304,1,0,0:0:0:0:
213,116,127494,1,8,0:0:0:0:
213,116,127684,1,0,0:0:0:0:
304,197,128064,1,0,0:0:0:0:
292,150,128823,1,8,0:0:0:0:
264,166,129013,1,0,0:0:0:0:
264,166,129203,1,8,0:0:0:0:
288,176,129583,1,0,0:0:0:0:
352,277,129963,1,8,0:0:0:0:
312,208,130342,1,0,0:0:0:0:
336,184,130532,1,8,0:0:0:0:
344,184,130722,1,8,0:0:0:0:
352,176,131102,1,0,0:0:0:0:
389,201,137178,5,4,0:0:0:0:
344,203,137938,1,0,0:0:0:0:
331,212,138697,1,8,0:0:0:0:
345,198,140216,1,0,0:0:0:0:
308,177,140976,1,0,0:0:0:0:
308,177,141735,1,8,0:0:0:0:
307,176,143254,1,4,0:0:0:0:
319,178,144014,1,12,0:0:0:0:
319,178,145533,1,12,0:0:0:0:
337,198,146292,1,0,0:0:0:0:
337,198,147052,1,12,0:0:0:0:
357,207,147811,1,0,0:0:0:0:
357,207,149330,1,4,0:0:0:0:
357,207,150090,1,12,0:0:0:0:
316,132,151609,1,12,0:0:0:0:
317,137,152368,1,0,0:0:0:0:
291,144,153128,1,12,0:0:0:0:
291,144,153887,1,0,0:0:0:0:
291,144,154647,1,12,0:0:0:0:
323,164,155026,1,0,0:0:0:0:
323,164,155406,1,4,0:0:0:0:
159,170,156166,1,12,0:0:0:0:
159,162,156925,1,0,0:0:0:0:
159,162,157305,1,0,0:0:0:0:
293,115,157685,1,8,0:0:0:0:
315,126,158444,1,4,0:0:0:0:
315,126,159204,1,12,0:0:0:0:
315,126,159963,1,4,0:0:0:0:
327,146,161482,1,4,0:0:0:0:
327,146,162242,1,12,0:0:0:0:
327,146,163001,1,0,0:0:0:0:
327,146,163381,1,0,0:0:0:0:
327,146,163761,1,8,0:0:0:0:
320,146,164520,1,4,0:0:0:0:
320,146,165280,1,12,0:0:0:0:
320,146,166039,1,4,0:0:0:0:
246,120,167558,1,4,0:0:0:0:
246,120,167938,1,0,0:0:0:0:
246,120,168318,1,12,0:0:0:0:
304,99,169077,1,8,0:0:0:0:
246,120,169457,1,0,0:0:0:0:
292,93,169837,1,12,0:0:0:0:
292,93,170596,1,4,0:0:0:0:
292,93,171356,1,12,0:0:0:0:
292,93,172115,1,4,0:0:0:0:
293,150,173634,1,4,0:0:0:0:
293,150,174014,1,0,0:0:0:0:
295,139,174394,1,12,0:0:0:0:
291,132,175153,1,8,0:0:0:0:
291,132,175533,1,0,0:0:0:0:
291,132,175913,1,12,0:0:0:0:
334,164,176672,1,4,0:0:0:0:
334,164,177432,1,12,0:0:0:0:
334,164,178191,1,4,0:0:0:0:
334,164,178571,1,0,0:0:0:0:
74,183,178951,2,0,L|128:181,5,35
312,199,179710,1,4,0:0:0:0:
301,175,180470,1,8,0:0:0:0:
301,175,181229,1,0,0:0:0:0:
301,175,181609,1,8,0:0:0:0:
301,175,181988,1,0,0:0:0:0:
301,175,182368,1,0,0:0:0:0:
301,175,182558,1,8,0:0:0:0:
320,180,182748,1,0,0:0:0:0:
320,180,183507,1,8,0:0:0:0:
320,180,184267,1,0,0:0:0:0:
297,188,184647,1,8,0:0:0:0:
297,188,185026,1,0,0:0:0:0:
297,188,185216,1,8,0:0:0:0:
297,188,185406,1,8,0:0:0:0:
287,146,185786,1,4,0:0:0:0:
293,152,186545,1,0,0:0:0:0:
313,219,186735,1,8,0:0:0:0:
150,104,186925,1,0,0:0:0:0:
150,104,187305,1,8,0:0:0:0:
313,219,187685,1,8,0:0:0:0:
290,166,188064,1,0,0:0:0:0:
348,163,188444,1,0,0:0:0:0:
348,163,188634,1,8,0:0:0:0:
348,163,188824,1,0,0:0:0:0:
352,178,189583,1,0,0:0:0:0:
352,178,189773,1,8,0:0:0:0:
352,178,189963,1,0,0:0:0:0:
352,178,190343,1,8,0:0:0:0:
349,189,190723,1,8,0:0:0:0:
348,192,191102,1,0,0:0:0:0:
348,192,191292,1,8,0:0:0:0:
349,189,191482,1,8,0:0:0:0:
332,125,191862,1,4,0:0:0:0:
290,152,192621,1,8,0:0:0:0:
290,152,193000,1,0,0:0:0:0:
288,256,193190,1,0,0:0:0:0:
316,166,193380,1,8,0:0:0:0:
316,166,193760,1,8,0:0:0:0:
316,166,194140,1,0,0:0:0:0:
218,140,194519,1,0,0:0:0:0:
316,166,194709,1,8,0:0:0:0:
264,149,194899,1,0,0:0:0:0:
302,145,195659,1,8,0:0:0:0:
280,207,195848,1,0,0:0:0:0:
312,163,196038,1,8,0:0:0:0:
311,163,196418,1,0,0:0:0:0:
320,146,196798,1,8,0:0:0:0:
342,175,197178,1,0,0:0:0:0:
371,174,197367,1,8,0:0:0:0:
371,174,197557,1,8,0:0:0:0:
371,174,197937,1,4,0:0:0:0:
302,156,198696,1,8,0:0:0:0:
228,188,198886,1,8,0:0:0:0:
228,188,199076,1,0,0:0:0:0:
302,156,199456,1,8,0:0:0:0:
292,155,199836,1,8,0:0:0:0:
275,119,200215,1,0,0:0:0:0:
302,75,200405,1,8,0:0:0:0:
271,109,200595,1,0,0:0:0:0:
270,107,200975,1,0,0:0:0:0:
336,164,201734,1,8,0:0:0:0:
274,188,201924,1,0,0:0:0:0:
336,164,202114,1,8,0:0:0:0:
284,205,202494,1,0,0:0:0:0:
284,205,202874,1,8,0:0:0:0:
217,145,203253,1,0,0:0:0:0:
299,174,203444,1,0,0:0:0:0:
216,151,203633,1,8,0:0:0:0:
299,174,204013,1,4,0:0:0:0:
336,195,204772,1,8,0:0:0:0:
227,191,204963,1,0,0:0:0:0:
227,191,205152,1,8,0:0:0:0:
203,162,205532,1,8,0:0:0:0:
238,134,205722,1,0,0:0:0:0:
242,122,205912,1,0,0:0:0:0:
336,195,206291,1,8,0:0:0:0:
237,165,206671,1,0,0:0:0:0:
237,165,206861,1,8,0:0:0:0:
245,171,207051,1,0,0:0:0:0:
310,138,207810,1,8,0:0:0:0:
320,178,208000,1,0,0:0:0:0:
320,178,208190,1,8,0:0:0:0:
237,112,208570,1,0,0:0:0:0:
298,173,208950,1,8,0:0:0:0:
268,168,209329,1,0,0:0:0:0:
268,168,209519,1,8,0:0:0:0:
268,168,209709,1,8,0:0:0:0:
302,163,210089,1,4,0:0:0:0:
302,163,210848,1,8,0:0:0:0:
281,189,211038,1,8,0:0:0:0:
281,189,211228,1,0,0:0:0:0:
281,189,211608,1,8,0:0:0:0:
281,189,211988,1,8,0:0:0:0:
281,189,212367,1,0,0:0:0:0:
213,116,212557,1,8,0:0:0:0:
213,116,212747,1,0,0:0:0:0:
304,197,213127,1,0,0:0:0:0:
292,150,213886,1,8,0:0:0:0:
264,166,214076,1,0,0:0:0:0:
264,166,214266,1,8,0:0:0:0:
288,176,214646,1,0,0:0:0:0:
352,277,215026,1,8,0:0:0:0:
312,208,215405,1,0,0:0:0:0:
336,184,215595,1,8,0:0:0:0:
344,184,215785,1,8,0:0:0:0:
268,190,215976,1,8,0:0:0:0:
352,176,216165,1,0,0:0:0:0:
297,216,216925,1,12,0:0:0:0:
297,216,217685,1,4,0:0:0:0:
311,143,218444,1,8,0:0:0:0:
311,143,218824,1,8,0:0:0:0:
308,129,219204,1,4,0:0:0:0:
308,129,219963,1,12,0:0:0:0:
308,129,220723,1,4,0:0:0:0:
293,130,222242,1,4,0:0:0:0:
293,130,223001,1,12,0:0:0:0:
293,130,223761,1,4,0:0:0:0:
307,133,224520,1,8,0:0:0:0:
224,185,224900,1,0,0:0:0:0:
302,130,225280,1,4,0:0:0:0:
360,175,226039,1,12,0:0:0:0:
360,175,226799,1,4,0:0:0:0:
298,131,227558,1,8,0:0:0:0:
188,153,227748,1,0,0:0:0:0:
298,131,227938,1,8,0:0:0:0:
298,131,228318,1,4,0:0:0:0:
