osu file format v14

[General]
AudioFilename: audio.mp3
AudioLeadIn: 0
PreviewTime: 55153
Countdown: 0
SampleSet: Normal
StackLeniency: 0.7
Mode: 1
LetterboxInBreaks: 0
WidescreenStoryboard: 0

[Editor]
DistanceSpacing: 0.7
BeatDivisor: 4
GridSize: 8
TimelineZoom: 1.9

[Metadata]
Title:Mighty Long Fall
TitleUnicode:Mighty Long Fall
Artist:ONE OK ROCK
ArtistUnicode:ONE OK ROCK
Creator:Chromoxx
Version:Oni
Source:るろうに剣心 京都大火編
Tags:j-rock jrock cliff rurouni kenshin kyoto inferno taika-hen
BeatmapID:1224841
BeatmapSetID:578492

[Difficulty]
HPDrainRate:6
CircleSize:5
OverallDifficulty:6
ApproachRate:5
SliderMultiplier:1.4
SliderTickRate:1

[Events]
//Background and Video events
0,0,"mighty long fall.jpg",0,0
//Break Periods
//Storyboard Layer 0 (Background)
//Storyboard Layer 1 (Fail)
//Storyboard Layer 2 (Pass)
//Storyboard Layer 3 (Foreground)
//Storyboard Sound Samples

[TimingPoints]
470,379.746835443038,4,1,0,70,1,0
52020,-100,4,1,0,80,0,0
53539,-98.0392156862745,4,1,0,90,0,0
54488,-96.1538461538461,4,1,0,90,0,0
54678,-95.2380952380952,4,1,0,90,0,0
54773,-94.3396226415094,4,1,0,90,0,0
54868,-93.4579439252336,4,1,0,90,0,0
54963,-92.5925925925926,4,1,0,90,0,0
55058,-91.743119266055,4,1,0,90,0,0
55153,-90.9090909090909,4,1,0,100,0,1
79457,-90.9090909090909,4,1,0,100,0,0
79647,-100,4,1,0,70,0,0
94457,-100,4,1,0,75,0,0
105375,-99.009900990099,4,1,0,80,0,0
105564,-98.0392156862745,4,1,0,80,0,0
105754,-97.0873786407767,4,1,0,80,0,0
105944,-95.2380952380952,4,1,0,90,0,0
106134,-93.4579439252336,4,1,0,90,0,0
106324,-91.743119266055,4,1,0,90,0,0
106514,-90.0900900900901,4,1,0,90,0,0
106799,-86.9565217391304,4,1,0,100,0,1
131102,-86.9565217391304,4,1,0,100,0,0
131292,-86.9565217391304,4,1,0,70,0,0
132621,-90.9090909090909,4,1,0,70,0,0
134140,-100,4,1,0,70,0,0
135659,-111.111111111111,4,1,0,70,0,0
155976,-105.263157894737,4,1,0,70,0,0
156545,-111.111111111111,4,1,0,70,0,0
157115,-105.263157894737,4,1,0,70,0,0
157685,-111.111111111111,4,1,0,70,0,0
162052,-105.263157894737,4,1,0,70,0,0
162621,-111.111111111111,4,1,0,70,0,0
163191,-105.263157894737,4,1,0,70,0,0
163761,-111.111111111111,4,1,0,70,0,0
178903,-108.695652173913,4,1,0,80,0,0
178998,-107.52688172043,4,1,0,80,0,0
179093,-106.382978723404,4,1,0,80,0,0
179188,-105.263157894737,4,1,0,80,0,0
179283,-104.166666666667,4,1,0,80,0,0
179378,-103.092783505155,4,1,0,80,0,0
179473,-102.040816326531,4,1,0,80,0,0
179568,-101.010101010101,4,1,0,80,0,0
179663,-100,4,1,0,80,0,0
191007,-98.0392156862745,4,1,0,90,0,0
191197,-96.1538461538461,4,1,0,90,0,0
191292,-94.3396226415094,4,1,0,90,0,0
191387,-92.5925925925926,4,1,0,90,0,0
191482,-90.9090909090909,4,1,0,90,0,0
191577,-89.2857142857143,4,1,0,90,0,0
191672,-87.719298245614,4,1,0,90,0,0
191767,-86.2068965517241,4,1,0,90,0,0
191862,-83.3333333333333,4,1,0,100,0,1
228318,-83.3333333333333,4,1,0,100,0,0

[HitObjects]
320,216,470,5,0,0:0:0:0:
320,208,849,1,8,0:0:0:0:
312,184,1419,1,0,0:0:0:0:
312,184,1609,1,8,0:0:0:0:
312,168,2178,1,0,0:0:0:0:
336,168,2463,1,0,0:0:0:0:
336,168,2558,1,8,0:0:0:0:
344,168,2748,1,0,0:0:0:0:
368,160,3033,1,0,0:0:0:0:
344,144,3128,1,8,0:0:0:0:
232,160,3318,1,0,0:0:0:0:
176,96,3413,1,8,0:0:0:0:
336,144,3507,1,0,0:0:0:0:
328,160,3887,1,8,0:0:0:0:
368,176,4172,1,0,0:0:0:0:
368,176,4457,1,0,0:0:0:0:
368,176,4647,1,8,0:0:0:0:
440,256,5216,1,8,0:0:0:0:
432,256,5311,1,8,0:0:0:0:
432,256,5406,1,8,0:0:0:0:
432,256,5501,1,8,0:0:0:0:
328,176,5596,1,8,0:0:0:0:
328,176,5691,1,8,0:0:0:0:
312,168,5786,1,0,0:0:0:0:
312,168,5976,1,8,0:0:0:0:
288,152,6166,1,0,0:0:0:0:
288,152,6261,1,0,0:0:0:0:
280,144,6356,1,8,0:0:0:0:
280,144,6545,1,0,0:0:0:0:
344,216,6830,1,0,0:0:0:0:
344,216,6925,1,8,0:0:0:0:
344,208,7115,1,0,0:0:0:0:
344,208,7210,1,0,0:0:0:0:
320,224,7305,1,0,0:0:0:0:
208,168,7495,1,8,0:0:0:0:
336,152,7875,1,0,0:0:0:0:
336,152,8254,1,0,0:0:0:0:
336,152,8444,1,8,0:0:0:0:
336,160,8824,1,0,0:0:0:0:
328,160,9014,1,8,0:0:0:0:
328,160,9109,1,8,0:0:0:0:
248,200,9204,1,8,0:0:0:0:
328,160,9299,1,8,0:0:0:0:
248,200,9394,1,8,0:0:0:0:
328,160,9488,1,8,0:0:0:0:
256,184,9583,1,0,0:0:0:0:
288,176,9868,1,0,0:0:0:0:
288,176,9963,1,8,0:0:0:0:
312,168,10153,1,0,0:0:0:0:
312,168,10248,1,0,0:0:0:0:
344,232,10343,1,0,0:0:0:0:
312,168,10533,1,8,0:0:0:0:
264,216,10913,1,0,0:0:0:0:
408,192,11292,1,0,0:0:0:0:
288,176,11482,1,8,0:0:0:0:
304,176,11862,1,8,0:0:0:0:
304,176,12052,1,0,0:0:0:0:
304,176,12242,1,8,0:0:0:0:
304,176,12621,1,0,0:0:0:0:
304,176,12906,1,0,0:0:0:0:
304,176,13001,1,8,0:0:0:0:
256,144,13191,1,0,0:0:0:0:
256,144,13286,1,8,0:0:0:0:
264,144,13381,1,0,0:0:0:0:
288,208,13571,1,8,0:0:0:0:
288,184,13951,1,0,0:0:0:0:
280,192,14330,1,0,0:0:0:0:
280,192,14520,1,8,0:0:0:0:
336,192,14900,1,0,0:0:0:0:
336,192,15090,1,8,0:0:0:0:
336,192,15185,1,8,0:0:0:0:
296,272,15280,1,8,0:0:0:0:
336,192,15375,1,8,0:0:0:0:
296,272,15470,1,8,0:0:0:0:
288,264,15564,1,8,0:0:0:0:
296,184,15659,1,0,0:0:0:0:
304,176,15944,1,0,0:0:0:0:
304,168,16039,1,8,0:0:0:0:
304,168,16229,1,0,0:0:0:0:
200,264,16324,1,0,0:0:0:0:
176,216,16419,1,0,0:0:0:0:
168,200,16514,1,8,0:0:0:0:
176,200,16609,1,0,0:0:0:0:
248,208,16799,1,8,0:0:0:0:
328,168,16988,1,0,0:0:0:0:
376,160,17368,1,0,0:0:0:0:
376,160,17558,1,8,0:0:0:0:
240,168,17748,1,0,0:0:0:0:
248,176,17843,1,8,0:0:0:0:
256,216,17938,1,0,0:0:0:0:
272,176,18033,1,8,0:0:0:0:
232,136,18128,1,0,0:0:0:0:
264,144,18318,1,8,0:0:0:0:
272,128,18507,1,8,0:0:0:0:
280,136,18602,1,8,0:0:0:0:
224,208,18697,1,0,0:0:0:0:
304,192,18887,1,0,0:0:0:0:
304,192,18982,1,0,0:0:0:0:
264,208,19077,1,8,0:0:0:0:
264,208,19267,1,0,0:0:0:0:
232,144,19362,1,0,0:0:0:0:
264,208,19457,1,0,0:0:0:0:
232,144,19647,1,8,0:0:0:0:
312,128,20026,1,0,0:0:0:0:
312,128,20406,1,0,0:0:0:0:
312,128,20596,1,8,0:0:0:0:
328,128,20786,1,0,0:0:0:0:
328,128,20881,1,0,0:0:0:0:
200,128,20976,1,0,0:0:0:0:
200,128,21166,1,8,0:0:0:0:
200,128,21261,1,8,0:0:0:0:
208,128,21356,1,8,0:0:0:0:
208,128,21451,1,8,0:0:0:0:
208,128,21545,1,8,0:0:0:0:
208,128,21640,1,8,0:0:0:0:
208,136,21735,1,0,0:0:0:0:
256,296,21925,1,0,0:0:0:0:
312,272,22020,1,0,0:0:0:0:
264,200,22115,1,8,0:0:0:0:
264,200,22305,1,0,0:0:0:0:
256,200,22400,1,0,0:0:0:0:
264,200,22495,1,0,0:0:0:0:
256,200,22685,1,8,0:0:0:0:
320,144,23064,1,0,0:0:0:0:
312,144,23444,1,0,0:0:0:0:
168,168,23634,1,8,0:0:0:0:
280,152,24014,1,0,0:0:0:0:
280,152,24204,1,0,0:0:0:0:
280,160,24394,1,8,0:0:0:0:
360,160,24583,1,0,0:0:0:0:
344,160,24773,1,0,0:0:0:0:
240,88,24963,1,0,0:0:0:0:
240,88,25058,1,0,0:0:0:0:
240,88,25153,1,8,0:0:0:0:
240,88,25343,1,0,0:0:0:0:
248,88,25438,1,0,0:0:0:0:
248,88,25533,1,0,0:0:0:0:
248,88,25723,1,8,0:0:0:0:
328,216,26102,1,0,0:0:0:0:
328,216,26482,1,0,0:0:0:0:
328,216,26672,1,8,0:0:0:0:
256,216,26862,1,0,0:0:0:0:
256,216,26957,1,0,0:0:0:0:
312,216,27052,1,0,0:0:0:0:
264,216,27242,1,8,0:0:0:0:
264,216,27337,1,8,0:0:0:0:
256,208,27432,1,8,0:0:0:0:
264,216,27526,1,8,0:0:0:0:
256,208,27621,1,8,0:0:0:0:
256,208,27716,1,8,0:0:0:0:
256,208,27811,1,0,0:0:0:0:
328,208,28001,1,0,0:0:0:0:
328,208,28096,1,0,0:0:0:0:
328,208,28191,1,8,0:0:0:0:
328,208,28381,1,0,0:0:0:0:
328,208,28476,1,8,0:0:0:0:
328,208,28571,1,0,0:0:0:0:
328,208,28761,1,0,0:0:0:0:
352,216,29140,1,0,0:0:0:0:
352,216,29520,1,0,0:0:0:0:
336,216,29710,1,8,0:0:0:0:
344,208,29900,1,0,0:0:0:0:
344,208,29995,1,8,0:0:0:0:
304,152,30090,1,0,0:0:0:0:
296,144,30185,1,8,0:0:0:0:
296,144,30280,1,0,0:0:0:0:
312,256,30470,1,8,0:0:0:0:
312,232,30659,1,0,0:0:0:0:
344,224,30849,1,4,0:0:0:0:
256,128,31039,1,0,0:0:0:0:
264,128,31134,1,0,0:0:0:0:
256,128,31229,1,8,0:0:0:0:
256,128,31419,1,0,0:0:0:0:
256,128,31514,1,0,0:0:0:0:
256,128,31609,1,0,0:0:0:0:
264,128,31799,1,8,0:0:0:0:
280,176,32178,1,0,0:0:0:0:
280,176,32558,1,0,0:0:0:0:
280,176,32748,1,8,0:0:0:0:
280,176,32938,1,0,0:0:0:0:
280,176,33033,1,0,0:0:0:0:
288,184,33128,1,0,0:0:0:0:
280,160,33318,1,8,0:0:0:0:
272,160,33413,1,8,0:0:0:0:
280,160,33507,1,8,0:0:0:0:
272,168,33602,1,8,0:0:0:0:
224,144,33697,1,8,0:0:0:0:
224,144,33792,1,8,0:0:0:0:
224,160,33887,1,0,0:0:0:0:
224,144,34077,1,0,0:0:0:0:
208,136,34172,1,0,0:0:0:0:
208,136,34267,1,8,0:0:0:0:
208,136,34457,1,0,0:0:0:0:
208,120,34552,1,0,0:0:0:0:
208,120,34647,1,0,0:0:0:0:
216,120,34837,1,8,0:0:0:0:
312,144,35216,1,0,0:0:0:0:
312,144,35596,1,0,0:0:0:0:
312,144,35786,1,8,0:0:0:0:
288,112,36166,1,0,0:0:0:0:
288,112,36356,1,0,0:0:0:0:
288,112,36545,1,8,0:0:0:0:
288,112,36735,1,0,0:0:0:0:
280,120,36925,1,0,0:0:0:0:
280,112,37115,1,0,0:0:0:0:
280,112,37210,1,0,0:0:0:0:
280,104,37305,1,8,0:0:0:0:
280,104,37495,1,0,0:0:0:0:
216,200,37590,1,0,0:0:0:0:
280,112,37685,1,0,0:0:0:0:
216,200,37875,1,8,0:0:0:0:
304,144,38254,1,0,0:0:0:0:
304,144,38634,1,0,0:0:0:0:
304,144,38824,1,8,0:0:0:0:
240,112,39014,1,0,0:0:0:0:
240,104,39109,1,0,0:0:0:0:
232,104,39204,1,0,0:0:0:0:
240,104,39394,1,8,0:0:0:0:
240,104,39488,1,8,0:0:0:0:
240,104,39583,1,8,0:0:0:0:
240,104,39678,1,8,0:0:0:0:
240,104,39773,1,8,0:0:0:0:
240,104,39868,1,8,0:0:0:0:
240,104,39963,1,0,0:0:0:0:
368,184,40153,1,0,0:0:0:0:
368,184,40248,1,0,0:0:0:0:
368,184,40343,1,8,0:0:0:0:
288,136,40533,1,0,0:0:0:0:
304,168,40628,1,8,0:0:0:0:
304,168,40723,1,0,0:0:0:0:
304,168,40818,1,8,0:0:0:0:
304,168,40913,1,0,0:0:0:0:
288,224,41102,1,8,0:0:0:0:
360,176,41292,1,0,0:0:0:0:
336,144,41672,1,0,0:0:0:0:
336,144,41862,1,8,0:0:0:0:
272,192,42052,1,0,0:0:0:0:
296,184,42147,1,8,0:0:0:0:
272,200,42242,1,0,0:0:0:0:
232,176,42337,1,8,0:0:0:0:
224,120,42432,1,0,0:0:0:0:
240,128,42811,1,8,0:0:0:0:
240,128,43001,1,4,0:0:0:0:
296,160,43191,1,0,0:0:0:0:
296,160,43286,1,0,0:0:0:0:
256,112,43381,1,8,0:0:0:0:
256,120,43571,1,0,0:0:0:0:
248,120,43666,1,0,0:0:0:0:
328,144,43761,1,0,0:0:0:0:
328,144,43951,1,8,0:0:0:0:
304,152,44140,1,0,0:0:0:0:
304,152,44330,1,0,0:0:0:0:
320,128,44710,1,0,0:0:0:0:
320,136,44900,1,8,0:0:0:0:
320,128,45090,1,0,0:0:0:0:
320,128,45185,1,0,0:0:0:0:
320,128,45280,1,0,0:0:0:0:
312,152,45470,1,8,0:0:0:0:
312,152,45564,1,8,0:0:0:0:
296,144,45659,1,8,0:0:0:0:
296,144,45754,1,8,0:0:0:0:
296,144,45849,1,8,0:0:0:0:
184,152,45944,1,8,0:0:0:0:
184,152,46039,1,0,0:0:0:0:
240,160,46229,1,0,0:0:0:0:
232,152,46324,1,0,0:0:0:0:
232,152,46419,1,8,0:0:0:0:
232,152,46609,1,0,0:0:0:0:
280,136,46704,1,0,0:0:0:0:
280,136,46799,1,0,0:0:0:0:
288,136,46988,1,8,0:0:0:0:
280,136,47178,1,0,0:0:0:0:
288,136,47368,1,0,0:0:0:0:
304,192,47748,1,0,0:0:0:0:
344,200,47938,1,8,0:0:0:0:
344,200,48128,1,0,0:0:0:0:
272,272,48223,1,0,0:0:0:0:
344,200,48318,1,0,0:0:0:0:
344,200,48507,1,0,0:0:0:0:
344,200,48697,1,8,0:0:0:0:
312,152,49077,1,0,0:0:0:0:
224,136,49267,1,0,0:0:0:0:
224,136,49362,1,0,0:0:0:0:
304,152,49457,1,8,0:0:0:0:
304,152,49647,1,0,0:0:0:0:
280,208,49742,1,0,0:0:0:0:
304,152,49837,1,0,0:0:0:0:
280,208,50026,1,8,0:0:0:0:
280,208,50216,1,0,0:0:0:0:
280,208,50406,1,0,0:0:0:0:
256,160,50786,1,0,0:0:0:0:
256,160,50976,1,8,0:0:0:0:
304,160,51166,1,0,0:0:0:0:
304,160,51261,1,0,0:0:0:0:
304,152,51356,1,0,0:0:0:0:
200,160,51545,1,8,0:0:0:0:
328,144,51735,1,12,0:0:0:0:
320,152,52115,1,4,0:0:0:0:
320,152,52305,1,4,0:0:0:0:
320,152,52495,1,4,0:0:0:0:
320,152,52685,1,4,0:0:0:0:
312,152,52875,1,4,0:0:0:0:
312,152,53064,1,4,0:0:0:0:
312,152,53254,1,4,0:0:0:0:
352,152,53444,1,4,0:0:0:0:
352,152,53634,1,12,0:0:0:0:
352,152,53824,1,12,0:0:0:0:
352,152,54014,1,12,0:0:0:0:
352,152,54204,1,12,0:0:0:0:
352,152,54394,1,12,0:0:0:0:
160,120,54583,1,8,0:0:0:0:
216,104,54678,1,8,0:0:0:0:
216,104,54773,1,8,0:0:0:0:
216,104,54868,1,8,0:0:0:0:
216,104,54963,1,8,0:0:0:0:
216,104,55058,1,8,0:0:0:0:
216,104,55153,1,4,0:0:0:0:
168,176,55533,1,8,0:0:0:0:
304,192,55723,1,0,0:0:0:0:
336,184,55818,1,0,0:0:0:0:
272,192,55913,1,0,0:0:0:0:
272,192,56102,1,8,0:0:0:0:
272,192,56292,1,0,0:0:0:0:
288,208,56482,1,0,0:0:0:0:
216,160,56577,1,0,0:0:0:0:
320,176,56672,1,8,0:0:0:0:
232,184,56862,1,0,0:0:0:0:
272,128,57052,1,8,0:0:0:0:
304,144,57147,1,8,0:0:0:0:
272,128,57242,1,0,0:0:0:0:
296,160,57432,1,8,0:0:0:0:
328,192,57621,1,8,0:0:0:0:
328,192,57811,1,0,0:0:0:0:
208,176,57906,1,0,0:0:0:0:
328,192,58001,1,8,0:0:0:0:
184,160,58096,1,8,0:0:0:0:
320,192,58191,1,0,0:0:0:0:
280,208,58571,1,8,0:0:0:0:
280,208,58761,1,0,0:0:0:0:
280,208,58856,1,0,0:0:0:0:
336,248,58951,1,0,0:0:0:0:
280,208,59140,1,8,0:0:0:0:
200,112,59330,1,0,0:0:0:0:
192,200,59425,1,0,0:0:0:0:
200,112,59520,1,8,0:0:0:0:
200,112,59615,1,8,0:0:0:0:
200,112,59710,1,0,0:0:0:0:
240,152,59900,1,0,0:0:0:0:
240,152,60090,1,8,0:0:0:0:
168,200,60280,1,0,0:0:0:0:
168,200,60375,1,0,0:0:0:0:
280,176,60470,1,0,0:0:0:0:
352,160,60659,1,8,0:0:0:0:
352,160,60849,1,8,0:0:0:0:
344,168,61039,1,8,0:0:0:0:
344,168,61134,1,8,0:0:0:0:
344,168,61229,1,0,0:0:0:0:
360,160,61419,1,0,0:0:0:0:
360,160,61609,1,8,0:0:0:0:
304,144,61988,1,0,0:0:0:0:
288,216,62083,1,0,0:0:0:0:
304,144,62178,1,8,0:0:0:0:
304,144,62368,1,0,0:0:0:0:
208,184,62558,1,8,0:0:0:0:
208,184,62653,1,8,0:0:0:0:
248,184,62748,1,8,0:0:0:0:
352,184,62938,1,0,0:0:0:0:
352,184,63128,1,8,0:0:0:0:
344,192,63318,1,0,0:0:0:0:
288,168,63413,1,0,0:0:0:0:
288,168,63507,1,0,0:0:0:0:
248,184,63697,1,8,0:0:0:0:
224,208,63887,1,0,0:0:0:0:
192,160,63982,1,0,0:0:0:0:
296,176,64077,1,8,0:0:0:0:
192,96,64172,1,8,0:0:0:0:
296,176,64267,1,0,0:0:0:0:
224,136,64647,1,8,0:0:0:0:
224,136,64837,1,0,0:0:0:0:
264,216,64932,1,0,0:0:0:0:
288,160,65026,1,0,0:0:0:0:
296,160,65216,1,8,0:0:0:0:
264,216,65406,1,0,0:0:0:0:
296,184,65596,1,8,0:0:0:0:
144,96,65691,1,8,0:0:0:0:
184,128,65786,1,8,0:0:0:0:
296,200,65976,1,0,0:0:0:0:
280,208,66071,1,0,0:0:0:0:
296,224,66166,1,8,0:0:0:0:
208,144,66356,1,8,0:0:0:0:
208,144,66545,1,0,0:0:0:0:
304,192,66735,1,8,0:0:0:0:
304,192,66830,1,8,0:0:0:0:
304,192,66925,1,8,0:0:0:0:
304,192,67020,1,8,0:0:0:0:
304,192,67115,1,8,0:0:0:0:
304,192,67210,1,8,0:0:0:0:
304,192,67305,1,0,0:0:0:0:
224,160,67685,1,8,0:0:0:0:
224,160,67875,1,0,0:0:0:0:
224,160,67970,1,0,0:0:0:0:
336,192,68064,1,0,0:0:0:0:
336,192,68254,1,8,0:0:0:0:
240,240,68349,1,8,0:0:0:0:
192,96,68444,1,8,0:0:0:0:
208,232,68634,1,8,0:0:0:0:
264,184,68824,1,0,0:0:0:0:
256,160,69014,1,0,0:0:0:0:
112,184,69109,1,0,0:0:0:0:
336,192,69204,1,8,0:0:0:0:
256,176,69394,1,0,0:0:0:0:
168,96,69488,1,0,0:0:0:0:
256,120,69583,1,0,0:0:0:0:
288,176,69773,1,8,0:0:0:0:
288,152,69963,1,0,0:0:0:0:
288,176,70058,1,0,0:0:0:0:
272,200,70153,1,8,0:0:0:0:
192,216,70248,1,8,0:0:0:0:
248,176,70343,1,0,0:0:0:0:
256,184,70533,1,0,0:0:0:0:
256,184,70723,1,8,0:0:0:0:
264,208,71102,1,0,0:0:0:0:
256,208,71197,1,0,0:0:0:0:
272,200,71292,1,8,0:0:0:0:
288,136,71482,1,0,0:0:0:0:
240,120,71672,1,8,0:0:0:0:
208,96,71767,1,8,0:0:0:0:
216,192,71862,1,8,0:0:0:0:
216,192,72052,1,0,0:0:0:0:
216,192,72242,1,8,0:0:0:0:
264,160,72432,1,0,0:0:0:0:
264,160,72526,1,0,0:0:0:0:
272,152,72621,1,0,0:0:0:0:
272,152,72811,1,8,0:0:0:0:
272,152,73001,1,8,0:0:0:0:
272,152,73191,1,8,0:0:0:0:
232,128,73286,1,8,0:0:0:0:
208,112,73381,1,0,0:0:0:0:
336,208,73761,1,8,0:0:0:0:
336,200,73951,1,0,0:0:0:0:
320,256,74045,1,0,0:0:0:0:
336,208,74140,1,0,0:0:0:0:
328,256,74330,1,8,0:0:0:0:
224,128,74520,1,0,0:0:0:0:
224,184,74710,1,0,0:0:0:0:
216,168,74805,1,0,0:0:0:0:
280,160,74900,1,8,0:0:0:0:
232,160,75090,1,0,0:0:0:0:
232,160,75280,1,8,0:0:0:0:
240,176,75375,1,8,0:0:0:0:
240,176,75470,1,0,0:0:0:0:
288,184,75659,1,8,0:0:0:0:
288,184,75849,1,8,0:0:0:0:
232,136,76039,1,0,0:0:0:0:
216,112,76134,1,0,0:0:0:0:
232,136,76229,1,8,0:0:0:0:
208,96,76324,1,8,0:0:0:0:
232,136,76419,1,0,0:0:0:0:
280,136,76799,1,8,0:0:0:0:
232,160,76988,1,0,0:0:0:0:
232,160,77083,1,0,0:0:0:0:
256,152,77178,1,0,0:0:0:0:
264,144,77368,1,8,0:0:0:0:
264,144,77558,1,0,0:0:0:0:
128,184,77748,1,8,0:0:0:0:
320,168,77843,1,8,0:0:0:0:
264,144,77938,1,8,0:0:0:0:
272,144,78128,1,0,0:0:0:0:
208,176,78223,1,0,0:0:0:0:
272,144,78318,1,8,0:0:0:0:
296,160,78507,1,0,0:0:0:0:
256,232,78602,1,0,0:0:0:0:
288,160,78697,1,0,0:0:0:0:
248,112,78887,1,8,0:0:0:0:
248,112,78982,1,8,0:0:0:0:
256,120,79077,1,8,0:0:0:0:
248,112,79172,1,8,0:0:0:0:
256,120,79267,1,8,0:0:0:0:
256,120,79362,1,8,0:0:0:0:
240,136,79457,1,0,0:0:0:0:
48,176,79742,1,0,0:0:0:0:
104,160,79837,1,8,0:0:0:0:
336,208,80406,1,0,0:0:0:0:
336,208,80596,1,0,0:0:0:0:
336,208,80786,1,8,0:0:0:0:
304,200,81166,1,0,0:0:0:0:
304,200,81356,1,8,0:0:0:0:
312,208,81640,1,8,0:0:0:0:
320,208,81735,1,0,0:0:0:0:
320,208,81830,1,8,0:0:0:0:
320,200,81925,1,0,0:0:0:0:
312,200,82305,1,8,0:0:0:0:
312,200,82495,1,4,0:0:0:0:
136,160,82685,1,0,0:0:0:0:
168,160,82780,1,0,0:0:0:0:
127,216,82875,1,8,0:0:0:0:
280,229,83064,1,0,0:0:0:0:
280,229,83159,1,8,0:0:0:0:
275,207,83254,1,0,0:0:0:0:
275,207,83444,1,8,0:0:0:0:
272,205,83824,1,0,0:0:0:0:
272,205,84204,1,0,0:0:0:0:
278,181,84394,1,8,0:0:0:0:
264,92,84583,1,0,0:0:0:0:
264,92,84678,1,8,0:0:0:0:
264,92,84773,1,0,0:0:0:0:
264,92,84963,1,8,0:0:0:0:
264,92,85058,1,8,0:0:0:0:
264,92,85153,1,8,0:0:0:0:
264,92,85248,1,8,0:0:0:0:
264,92,85343,1,8,0:0:0:0:
264,92,85438,1,8,0:0:0:0:
264,92,85533,1,0,0:0:0:0:
358,171,85723,1,0,0:0:0:0:
358,171,85818,1,0,0:0:0:0:
313,211,85913,1,8,0:0:0:0:
267,136,86102,1,0,0:0:0:0:
267,136,86197,1,8,0:0:0:0:
267,136,86292,1,0,0:0:0:0:
267,136,86387,1,8,0:0:0:0:
267,136,86482,1,0,0:0:0:0:
347,186,86862,1,0,0:0:0:0:
306,176,87242,1,0,0:0:0:0:
350,143,87432,1,8,0:0:0:0:
334,125,87811,1,0,0:0:0:0:
334,125,88001,1,0,0:0:0:0:
334,125,88191,1,8,0:0:0:0:
378,127,88571,1,0,0:0:0:0:
378,127,88761,1,0,0:0:0:0:
349,163,88856,1,0,0:0:0:0:
254,173,88951,1,8,0:0:0:0:
318,209,89140,1,0,0:0:0:0:
318,209,89235,1,8,0:0:0:0:
261,188,89330,1,0,0:0:0:0:
305,168,89520,1,8,0:0:0:0:
305,168,89900,1,0,0:0:0:0:
303,161,90280,1,0,0:0:0:0:
293,145,90470,1,8,0:0:0:0:
293,145,90659,1,0,0:0:0:0:
293,145,90754,1,0,0:0:0:0:
282,139,90849,1,0,0:0:0:0:
282,139,91039,1,8,0:0:0:0:
282,139,91134,1,8,0:0:0:0:
271,134,91229,1,8,0:0:0:0:
282,139,91324,1,8,0:0:0:0:
280,134,91419,1,8,0:0:0:0:
271,134,91514,1,8,0:0:0:0:
247,145,91609,1,0,0:0:0:0:
327,176,91799,1,0,0:0:0:0:
327,176,91894,1,0,0:0:0:0:
327,176,91988,1,8,0:0:0:0:
327,176,92178,1,0,0:0:0:0:
327,176,92273,1,8,0:0:0:0:
327,176,92368,1,0,0:0:0:0:
327,176,92558,1,8,0:0:0:0:
327,151,92938,1,0,0:0:0:0:
207,154,93318,1,0,0:0:0:0:
348,117,93507,1,8,0:0:0:0:
261,146,93697,1,0,0:0:0:0:
379,131,93792,1,0,0:0:0:0:
261,146,93887,1,8,0:0:0:0:
261,146,94077,1,0,0:0:0:0:
184,120,94267,1,8,0:0:0:0:
404,113,94647,1,4,0:0:0:0:
341,103,94837,1,0,0:0:0:0:
322,111,94932,1,0,0:0:0:0:
354,224,95026,1,8,0:0:0:0:
271,160,95216,1,0,0:0:0:0:
255,125,95311,1,0,0:0:0:0:
255,125,95406,1,0,0:0:0:0:
312,99,95596,1,8,0:0:0:0:
224,178,95976,1,0,0:0:0:0:
306,99,96166,1,0,0:0:0:0:
312,99,96356,1,0,0:0:0:0:
263,148,96545,1,8,0:0:0:0:
262,184,96735,1,0,0:0:0:0:
262,184,96830,1,0,0:0:0:0:
272,77,96925,1,0,0:0:0:0:
306,126,97115,1,8,0:0:0:0:
306,126,97210,1,8,0:0:0:0:
306,126,97305,1,8,0:0:0:0:
343,120,97400,1,8,0:0:0:0:
343,120,97495,1,8,0:0:0:0:
343,120,97590,1,8,0:0:0:0:
343,120,97685,1,0,0:0:0:0:
330,232,97875,1,0,0:0:0:0:
338,230,97970,1,0,0:0:0:0:
338,230,98064,1,8,0:0:0:0:
330,189,98254,1,0,0:0:0:0:
330,189,98349,1,0,0:0:0:0:
303,174,98444,1,0,0:0:0:0:
303,174,98634,1,8,0:0:0:0:
303,174,99014,1,0,0:0:0:0:
303,174,99394,1,0,0:0:0:0:
303,174,99583,1,8,0:0:0:0:
261,143,99773,1,0,0:0:0:0:
261,143,99868,1,0,0:0:0:0:
268,147,99963,1,8,0:0:0:0:
268,147,100153,1,0,0:0:0:0:
268,147,100343,1,8,0:0:0:0:
348,155,100723,1,0,0:0:0:0:
348,155,100913,1,0,0:0:0:0:
348,155,101007,1,0,0:0:0:0:
348,155,101102,1,8,0:0:0:0:
304,158,101292,1,0,0:0:0:0:
304,158,101387,1,0,0:0:0:0:
296,154,101482,1,0,0:0:0:0:
296,154,101672,1,8,0:0:0:0:
310,155,102052,1,0,0:0:0:0:
323,144,102242,1,0,0:0:0:0:
323,143,102432,1,0,0:0:0:0:
323,143,102621,1,8,0:0:0:0:
328,137,102811,1,0,0:0:0:0:
328,137,102906,1,0,0:0:0:0:
328,137,103001,1,0,0:0:0:0:
304,138,103191,1,8,0:0:0:0:
304,138,103286,1,8,0:0:0:0:
304,138,103381,1,8,0:0:0:0:
304,138,103476,1,8,0:0:0:0:
304,138,103571,1,8,0:0:0:0:
304,138,103666,1,8,0:0:0:0:
304,138,103761,1,0,0:0:0:0:
293,211,103951,1,0,0:0:0:0:
272,252,104045,1,0,0:0:0:0:
272,252,104140,1,8,0:0:0:0:
269,235,104330,1,0,0:0:0:0:
217,241,104425,1,0,0:0:0:0:
269,235,104520,1,0,0:0:0:0:
217,241,104710,1,8,0:0:0:0:
344,182,104900,1,0,0:0:0:0:
323,186,105090,1,12,0:0:0:0:
344,162,105470,1,0,0:0:0:0:
344,162,105659,1,0,0:0:0:0:
344,163,105849,1,0,0:0:0:0:
344,162,106039,1,8,0:0:0:0:
344,162,106229,1,8,0:0:0:0:
344,162,106419,1,8,0:0:0:0:
344,162,106609,1,8,0:0:0:0:
392,153,106799,1,4,0:0:0:0:
168,176,107178,1,8,0:0:0:0:
304,192,107368,1,0,0:0:0:0:
336,184,107463,1,0,0:0:0:0:
272,192,107558,1,0,0:0:0:0:
272,192,107747,1,8,0:0:0:0:
272,192,107937,1,0,0:0:0:0:
288,208,108127,1,0,0:0:0:0:
216,160,108222,1,0,0:0:0:0:
320,176,108317,1,8,0:0:0:0:
232,184,108507,1,0,0:0:0:0:
272,128,108697,1,8,0:0:0:0:
304,144,108792,1,8,0:0:0:0:
272,128,108887,1,0,0:0:0:0:
296,160,109077,1,8,0:0:0:0:
328,192,109266,1,8,0:0:0:0:
328,192,109456,1,0,0:0:0:0:
208,176,109551,1,0,0:0:0:0:
328,192,109646,1,8,0:0:0:0:
184,160,109741,1,8,0:0:0:0:
320,192,109836,1,0,0:0:0:0:
280,208,110216,1,8,0:0:0:0:
280,208,110406,1,0,0:0:0:0:
280,208,110501,1,0,0:0:0:0:
336,248,110596,1,0,0:0:0:0:
280,208,110785,1,8,0:0:0:0:
200,112,110975,1,0,0:0:0:0:
192,200,111070,1,0,0:0:0:0:
200,112,111165,1,8,0:0:0:0:
200,112,111260,1,8,0:0:0:0:
200,112,111355,1,0,0:0:0:0:
240,152,111545,1,0,0:0:0:0:
240,152,111735,1,8,0:0:0:0:
168,200,111925,1,0,0:0:0:0:
168,200,112020,1,0,0:0:0:0:
280,176,112115,1,0,0:0:0:0:
352,160,112304,1,8,0:0:0:0:
352,160,112494,1,8,0:0:0:0:
344,168,112684,1,8,0:0:0:0:
344,168,112779,1,8,0:0:0:0:
344,168,112874,1,0,0:0:0:0:
360,160,113064,1,0,0:0:0:0:
360,160,113254,1,8,0:0:0:0:
304,144,113633,1,0,0:0:0:0:
288,216,113728,1,0,0:0:0:0:
304,144,113823,1,8,0:0:0:0:
304,144,114013,1,0,0:0:0:0:
208,184,114203,1,8,0:0:0:0:
208,184,114298,1,8,0:0:0:0:
248,184,114393,1,8,0:0:0:0:
352,184,114583,1,0,0:0:0:0:
352,184,114773,1,8,0:0:0:0:
344,192,114963,1,0,0:0:0:0:
288,168,115058,1,0,0:0:0:0:
288,168,115152,1,0,0:0:0:0:
248,184,115342,1,8,0:0:0:0:
224,208,115532,1,0,0:0:0:0:
192,160,115627,1,0,0:0:0:0:
296,176,115722,1,8,0:0:0:0:
192,96,115817,1,8,0:0:0:0:
296,176,115912,1,0,0:0:0:0:
224,136,116292,1,8,0:0:0:0:
224,136,116482,1,0,0:0:0:0:
264,216,116577,1,0,0:0:0:0:
288,160,116671,1,0,0:0:0:0:
296,160,116861,1,8,0:0:0:0:
264,216,117051,1,0,0:0:0:0:
296,184,117241,1,8,0:0:0:0:
144,96,117336,1,8,0:0:0:0:
184,128,117431,1,8,0:0:0:0:
296,200,117621,1,0,0:0:0:0:
280,208,117716,1,0,0:0:0:0:
296,224,117811,1,8,0:0:0:0:
208,144,118001,1,8,0:0:0:0:
208,144,118190,1,0,0:0:0:0:
304,192,118380,1,8,0:0:0:0:
304,192,118475,1,8,0:0:0:0:
304,192,118570,1,8,0:0:0:0:
304,192,118665,1,8,0:0:0:0:
304,192,118760,1,8,0:0:0:0:
304,192,118855,1,8,0:0:0:0:
304,192,118950,1,0,0:0:0:0:
224,160,119330,1,8,0:0:0:0:
224,160,119520,1,0,0:0:0:0:
224,160,119615,1,0,0:0:0:0:
336,192,119709,1,0,0:0:0:0:
336,192,119899,1,8,0:0:0:0:
240,240,119994,1,8,0:0:0:0:
192,96,120090,1,0,0:0:0:0:
144,136,120185,1,0,0:0:0:0:
192,88,120280,1,8,0:0:0:0:
264,184,120469,1,0,0:0:0:0:
256,160,120659,1,0,0:0:0:0:
112,184,120754,1,0,0:0:0:0:
336,192,120849,1,8,0:0:0:0:
256,176,120944,1,8,0:0:0:0:
168,96,121039,1,0,0:0:0:0:
256,120,121228,1,8,0:0:0:0:
288,176,121418,1,8,0:0:0:0:
288,152,121608,1,0,0:0:0:0:
288,176,121703,1,0,0:0:0:0:
272,200,121798,1,8,0:0:0:0:
192,216,121893,1,0,0:0:0:0:
248,176,121988,1,8,0:0:0:0:
256,184,122368,1,8,0:0:0:0:
256,184,122558,1,8,0:0:0:0:
264,208,122747,1,0,0:0:0:0:
256,208,122842,1,0,0:0:0:0:
272,200,122937,1,8,0:0:0:0:
288,136,123127,1,0,0:0:0:0:
240,120,123317,1,8,0:0:0:0:
208,96,123412,1,8,0:0:0:0:
216,192,123507,1,8,0:0:0:0:
216,192,123697,1,0,0:0:0:0:
216,192,123887,1,8,0:0:0:0:
264,160,124077,1,0,0:0:0:0:
264,160,124171,1,0,0:0:0:0:
272,152,124266,1,0,0:0:0:0:
272,152,124456,1,8,0:0:0:0:
272,152,124646,1,8,0:0:0:0:
272,152,124836,1,8,0:0:0:0:
232,128,124931,1,8,0:0:0:0:
208,112,125026,1,0,0:0:0:0:
336,208,125406,1,8,0:0:0:0:
336,200,125596,1,0,0:0:0:0:
320,256,125690,1,0,0:0:0:0:
336,208,125785,1,0,0:0:0:0:
152,112,125881,1,0,0:0:0:0:
328,256,125975,1,8,0:0:0:0:
224,128,126165,1,0,0:0:0:0:
224,184,126355,1,8,0:0:0:0:
216,168,126450,1,8,0:0:0:0:
280,160,126545,1,0,0:0:0:0:
232,160,126735,1,8,0:0:0:0:
232,160,126925,1,0,0:0:0:0:
240,176,127115,1,8,0:0:0:0:
240,176,127209,1,0,0:0:0:0:
288,184,127304,1,8,0:0:0:0:
288,184,127494,1,8,0:0:0:0:
232,136,127684,1,0,0:0:0:0:
216,112,127779,1,0,0:0:0:0:
232,136,127874,1,8,0:0:0:0:
208,96,127969,1,8,0:0:0:0:
232,136,128064,1,0,0:0:0:0:
280,136,128444,1,8,0:0:0:0:
232,160,128633,1,0,0:0:0:0:
232,160,128728,1,0,0:0:0:0:
256,152,128823,1,0,0:0:0:0:
264,144,129013,1,8,0:0:0:0:
320,168,129109,1,8,0:0:0:0:
264,144,129203,1,0,0:0:0:0:
192,112,129299,1,0,0:0:0:0:
128,184,129393,1,8,0:0:0:0:
264,144,129583,1,0,0:0:0:0:
272,144,129773,1,0,0:0:0:0:
272,144,129963,1,8,0:0:0:0:
296,160,130152,1,0,0:0:0:0:
256,232,130247,1,0,0:0:0:0:
288,160,130343,1,8,0:0:0:0:
248,112,130532,1,8,0:0:0:0:
248,112,130627,1,8,0:0:0:0:
256,120,130722,1,0,0:0:0:0:
248,112,130817,1,8,0:0:0:0:
256,120,130912,1,8,0:0:0:0:
256,120,131007,1,8,0:0:0:0:
240,136,131102,1,0,0:0:0:0:
256,192,131292,12,0,136419,0:0:0:0:
336,168,136609,5,0,0:0:0:0:
336,168,136704,1,0,0:0:0:0:
336,168,136799,1,0,0:0:0:0:
336,168,136894,1,0,0:0:0:0:
336,168,136988,1,0,0:0:0:0:
336,168,137178,1,4,0:0:0:0:
344,232,137368,1,0,0:0:0:0:
344,232,137558,1,0,0:0:0:0:
328,224,137938,1,8,0:0:0:0:
280,192,138697,1,0,0:0:0:0:
280,192,138887,1,0,0:0:0:0:
280,192,139077,1,0,0:0:0:0:
280,184,140216,1,0,0:0:0:0:
280,184,140406,1,0,0:0:0:0:
280,184,140596,1,0,0:0:0:0:
280,184,140976,1,8,0:0:0:0:
264,176,141735,1,0,0:0:0:0:
264,176,141925,1,0,0:0:0:0:
264,176,142115,1,0,0:0:0:0:
264,144,143254,1,4,0:0:0:0:
264,144,143634,1,4,0:0:0:0:
264,136,144014,1,12,0:0:0:0:
256,160,144583,1,4,0:0:0:0:
256,160,144963,1,4,0:0:0:0:
256,160,145153,1,4,0:0:0:0:
272,160,145533,1,12,0:0:0:0:
344,216,146292,1,4,0:0:0:0:
344,216,147052,1,12,0:0:0:0:
344,216,147811,1,4,0:0:0:0:
344,216,148571,1,12,0:0:0:0:
336,144,149330,1,4,0:0:0:0:
336,144,149710,1,4,0:0:0:0:
336,144,150090,1,12,0:0:0:0:
336,144,150659,1,4,0:0:0:0:
336,144,151039,1,4,0:0:0:0:
336,144,151229,1,4,0:0:0:0:
216,88,151609,1,12,0:0:0:0:
312,104,152368,1,4,0:0:0:0:
312,104,153128,1,12,0:0:0:0:
312,104,153887,1,4,0:0:0:0:
312,104,154647,1,12,0:0:0:0:
304,112,154837,1,0,0:0:0:0:
312,104,154932,1,0,0:0:0:0:
304,112,155026,1,8,0:0:0:0:
296,104,155216,1,8,0:0:0:0:
296,104,155406,1,4,0:0:0:0:
296,104,155596,1,4,0:0:0:0:
296,104,155976,1,12,0:0:0:0:
296,104,156166,1,12,0:0:0:0:
296,104,156545,1,4,0:0:0:0:
296,104,156735,1,4,0:0:0:0:
296,104,157115,1,12,0:0:0:0:
296,104,157305,1,12,0:0:0:0:
288,88,157685,1,4,0:0:0:0:
208,80,158064,1,8,0:0:0:0:
152,128,158254,1,8,0:0:0:0:
216,80,158444,1,4,0:0:0:0:
216,80,158824,1,0,0:0:0:0:
216,80,159204,1,12,0:0:0:0:
328,96,159583,1,0,0:0:0:0:
328,96,159963,1,4,0:0:0:0:
328,96,160343,1,0,0:0:0:0:
328,96,160723,1,12,0:0:0:0:
272,168,161482,1,4,0:0:0:0:
272,168,161672,1,4,0:0:0:0:
272,168,162052,1,12,0:0:0:0:
272,168,162242,1,12,0:0:0:0:
272,168,162621,1,4,0:0:0:0:
272,168,162811,1,4,0:0:0:0:
264,168,163191,1,12,0:0:0:0:
264,168,163381,1,12,0:0:0:0:
112,144,163761,1,4,0:0:0:0:
184,128,164140,1,8,0:0:0:0:
184,128,164330,1,8,0:0:0:0:
184,128,164520,1,4,0:0:0:0:
312,208,164900,1,0,0:0:0:0:
264,144,165280,1,12,0:0:0:0:
312,208,165659,1,0,0:0:0:0:
264,144,166039,1,4,0:0:0:0:
312,208,166419,1,0,0:0:0:0:
264,144,166799,1,12,0:0:0:0:
296,176,167558,1,4,0:0:0:0:
296,176,167938,1,0,0:0:0:0:
288,176,168318,1,12,0:0:0:0:
280,168,168507,1,0,0:0:0:0:
280,240,168887,1,0,0:0:0:0:
280,240,169267,1,0,0:0:0:0:
280,240,169457,1,0,0:0:0:0:
304,184,169837,1,12,0:0:0:0:
237,109,170596,1,4,0:0:0:0:
319,144,170976,1,0,0:0:0:0:
310,140,171356,1,12,0:0:0:0:
297,119,171735,1,0,0:0:0:0:
310,140,172115,1,4,0:0:0:0:
319,144,172495,1,0,0:0:0:0:
310,140,172875,1,12,0:0:0:0:
310,140,173634,1,4,0:0:0:0:
359,126,174014,1,0,0:0:0:0:
361,130,174394,1,12,0:0:0:0:
361,130,174583,1,0,0:0:0:0:
361,130,174963,1,0,0:0:0:0:
361,130,175343,1,0,0:0:0:0:
361,130,175533,1,0,0:0:0:0:
158,114,175913,1,12,0:0:0:0:
346,137,176672,1,4,0:0:0:0:
338,156,177052,1,0,0:0:0:0:
346,137,177432,1,12,0:0:0:0:
338,156,177811,1,8,0:0:0:0:
346,137,178191,1,4,0:0:0:0:
355,161,178571,1,0,0:0:0:0:
390,181,178951,1,8,0:0:0:0:
390,181,179045,1,8,0:0:0:0:
390,181,179140,1,8,0:0:0:0:
390,181,179235,1,8,0:0:0:0:
390,181,179330,1,8,0:0:0:0:
390,181,179425,1,8,0:0:0:0:
390,181,179520,1,8,0:0:0:0:
390,181,179615,1,8,0:0:0:0:
390,181,179710,1,0,0:0:0:0:
285,163,180090,1,8,0:0:0:0:
285,163,180280,1,0,0:0:0:0:
266,183,180375,1,0,0:0:0:0:
285,163,180470,1,0,0:0:0:0:
266,183,180659,1,8,0:0:0:0:
266,183,180849,1,0,0:0:0:0:
266,183,181229,1,0,0:0:0:0:
256,169,181419,1,0,0:0:0:0:
256,169,181609,1,8,0:0:0:0:
256,169,181799,1,0,0:0:0:0:
250,164,181894,1,0,0:0:0:0:
256,169,181988,1,0,0:0:0:0:
250,164,182178,1,8,0:0:0:0:
250,164,182368,1,0,0:0:0:0:
250,164,182558,1,8,0:0:0:0:
249,164,182748,1,0,0:0:0:0:
266,154,183128,1,8,0:0:0:0:
266,154,183318,1,0,0:0:0:0:
251,176,183413,1,0,0:0:0:0:
266,154,183507,1,0,0:0:0:0:
263,152,183697,1,8,0:0:0:0:
272,120,183887,1,0,0:0:0:0:
272,120,184267,1,0,0:0:0:0:
272,120,184457,1,0,0:0:0:0:
272,120,184647,1,8,0:0:0:0:
259,131,184837,1,0,0:0:0:0:
259,131,184932,1,0,0:0:0:0:
272,120,185026,1,0,0:0:0:0:
249,110,185216,1,8,0:0:0:0:
249,110,185406,1,8,0:0:0:0:
249,110,185596,1,8,0:0:0:0:
258,115,185691,1,8,0:0:0:0:
249,110,185786,1,0,0:0:0:0:
180,137,186166,1,8,0:0:0:0:
349,129,186356,1,0,0:0:0:0:
349,129,186451,1,0,0:0:0:0:
266,108,186545,1,8,0:0:0:0:
247,122,186735,1,8,0:0:0:0:
227,168,186925,1,0,0:0:0:0:
286,101,187305,1,8,0:0:0:0:
285,100,187495,1,0,0:0:0:0:
296,107,187685,1,8,0:0:0:0:
288,130,187875,1,0,0:0:0:0:
279,124,187970,1,0,0:0:0:0:
249,118,188064,1,8,0:0:0:0:
229,96,188254,1,8,0:0:0:0:
282,110,188444,1,0,0:0:0:0:
282,110,188634,1,8,0:0:0:0:
278,108,188824,1,0,0:0:0:0:
291,120,189014,1,0,0:0:0:0:
287,131,189109,1,0,0:0:0:0:
208,124,189204,1,8,0:0:0:0:
336,169,189394,1,8,0:0:0:0:
336,169,189488,1,0,0:0:0:0:
270,160,189583,1,8,0:0:0:0:
270,160,189773,1,8,0:0:0:0:
267,164,189963,1,0,0:0:0:0:
265,119,190343,1,8,0:0:0:0:
265,119,190438,1,8,0:0:0:0:
293,115,190533,1,8,0:0:0:0:
293,115,190628,1,8,0:0:0:0:
274,101,190723,1,0,0:0:0:0:
288,103,190913,1,8,0:0:0:0:
288,103,191102,1,0,0:0:0:0:
245,107,191197,1,0,0:0:0:0:
245,107,191292,1,8,0:0:0:0:
245,107,191387,1,8,0:0:0:0:
245,107,191482,1,0,0:0:0:0:
245,107,191577,1,8,0:0:0:0:
245,107,191672,1,8,0:0:0:0:
245,107,191767,1,8,0:0:0:0:
245,107,191862,1,4,0:0:0:0:
168,176,192242,1,8,0:0:0:0:
304,192,192432,1,0,0:0:0:0:
336,184,192527,1,0,0:0:0:0:
272,192,192622,1,0,0:0:0:0:
243,187,192716,1,0,0:0:0:0:
272,192,192811,1,8,0:0:0:0:
272,192,193001,1,0,0:0:0:0:
288,208,193191,1,0,0:0:0:0:
216,160,193286,1,0,0:0:0:0:
320,176,193381,1,8,0:0:0:0:
191,98,193476,1,8,0:0:0:0:
232,184,193571,1,0,0:0:0:0:
272,128,193761,1,8,0:0:0:0:
272,128,193951,1,0,0:0:0:0:
304,144,194045,1,0,0:0:0:0:
296,160,194141,1,8,0:0:0:0:
328,192,194330,1,8,0:0:0:0:
215,138,194425,1,8,0:0:0:0:
328,192,194520,1,0,0:0:0:0:
208,176,194615,1,0,0:0:0:0:
328,192,194710,1,8,0:0:0:0:
184,160,194805,1,8,0:0:0:0:
320,192,194900,1,0,0:0:0:0:
280,208,195280,1,8,0:0:0:0:
280,208,195470,1,0,0:0:0:0:
280,208,195565,1,0,0:0:0:0:
336,248,195660,1,0,0:0:0:0:
280,208,195849,1,8,0:0:0:0:
200,112,196039,1,0,0:0:0:0:
192,200,196134,1,0,0:0:0:0:
200,112,196229,1,8,0:0:0:0:
200,112,196324,1,8,0:0:0:0:
200,112,196419,1,0,0:0:0:0:
240,152,196609,1,0,0:0:0:0:
183,125,196704,1,0,0:0:0:0:
286,162,196799,1,8,0:0:0:0:
168,200,196989,1,0,0:0:0:0:
168,200,197084,1,0,0:0:0:0:
280,176,197179,1,0,0:0:0:0:
352,160,197368,1,8,0:0:0:0:
352,160,197558,1,8,0:0:0:0:
295,162,197653,1,8,0:0:0:0:
344,168,197748,1,8,0:0:0:0:
344,168,197843,1,8,0:0:0:0:
344,168,197938,1,0,0:0:0:0:
360,160,198128,1,0,0:0:0:0:
205,133,198223,1,0,0:0:0:0:
360,160,198318,1,8,0:0:0:0:
304,144,198697,1,0,0:0:0:0:
288,216,198792,1,0,0:0:0:0:
304,144,198887,1,8,0:0:0:0:
304,144,199077,1,0,0:0:0:0:
236,136,199172,1,0,0:0:0:0:
208,184,199267,1,8,0:0:0:0:
233,94,199362,1,0,0:0:0:0:
248,184,199457,1,8,0:0:0:0:
352,184,199647,1,0,0:0:0:0:
352,184,199837,1,8,0:0:0:0:
344,192,200027,1,0,0:0:0:0:
288,168,200122,1,0,0:0:0:0:
288,168,200216,1,0,0:0:0:0:
248,184,200406,1,8,0:0:0:0:
229,71,200501,1,8,0:0:0:0:
224,208,200596,1,0,0:0:0:0:
192,160,200691,1,0,0:0:0:0:
296,176,200786,1,8,0:0:0:0:
192,96,200881,1,8,0:0:0:0:
296,176,200976,1,0,0:0:0:0:
224,136,201356,1,8,0:0:0:0:
224,136,201546,1,0,0:0:0:0:
264,216,201641,1,0,0:0:0:0:
288,160,201735,1,0,0:0:0:0:
296,160,201925,1,8,0:0:0:0:
144,96,202020,1,8,0:0:0:0:
264,216,202115,1,0,0:0:0:0:
325,204,202210,1,0,0:0:0:0:
296,184,202305,1,8,0:0:0:0:
184,128,202495,1,0,0:0:0:0:
296,200,202685,1,0,0:0:0:0:
280,208,202780,1,0,0:0:0:0:
296,224,202875,1,8,0:0:0:0:
273,143,202970,1,0,0:0:0:0:
208,144,203065,1,8,0:0:0:0:
208,144,203254,1,0,0:0:0:0:
304,192,203444,1,8,0:0:0:0:
304,192,203539,1,8,0:0:0:0:
304,192,203634,1,8,0:0:0:0:
304,192,203729,1,8,0:0:0:0:
304,192,203824,1,8,0:0:0:0:
304,192,203919,1,8,0:0:0:0:
304,192,204014,1,0,0:0:0:0:
224,160,204394,1,8,0:0:0:0:
224,160,204584,1,0,0:0:0:0:
224,160,204679,1,0,0:0:0:0:
336,192,204773,1,0,0:0:0:0:
336,192,204963,1,8,0:0:0:0:
257,130,205153,1,0,0:0:0:0:
199,143,205248,1,0,0:0:0:0:
271,168,205343,1,8,0:0:0:0:
251,130,205438,1,8,0:0:0:0:
264,184,205533,1,0,0:0:0:0:
256,160,205723,1,0,0:0:0:0:
112,184,205818,1,0,0:0:0:0:
336,192,205913,1,8,0:0:0:0:
256,176,206103,1,0,0:0:0:0:
168,96,206197,1,0,0:0:0:0:
256,120,206292,1,0,0:0:0:0:
288,176,206482,1,8,0:0:0:0:
289,115,206577,1,8,0:0:0:0:
288,152,206672,1,0,0:0:0:0:
288,176,206767,1,0,0:0:0:0:
272,200,206862,1,8,0:0:0:0:
192,216,206957,1,8,0:0:0:0:
248,176,207052,1,0,0:0:0:0:
256,184,207242,1,0,0:0:0:0:
290,128,207337,1,0,0:0:0:0:
256,184,207432,1,8,0:0:0:0:
264,208,207811,1,0,0:0:0:0:
272,200,208001,1,8,0:0:0:0:
256,208,208096,1,8,0:0:0:0:
288,136,208191,1,0,0:0:0:0:
240,120,208286,1,0,0:0:0:0:
208,96,208381,1,8,0:0:0:0:
216,192,208571,1,0,0:0:0:0:
216,192,208761,1,0,0:0:0:0:
342,149,208856,1,0,0:0:0:0:
216,192,208951,1,8,0:0:0:0:
264,160,209141,1,0,0:0:0:0:
264,160,209235,1,0,0:0:0:0:
272,152,209330,1,0,0:0:0:0:
272,152,209520,1,8,0:0:0:0:
272,152,209710,1,8,0:0:0:0:
342,149,209805,1,8,0:0:0:0:
272,152,209900,1,8,0:0:0:0:
232,128,209995,1,8,0:0:0:0:
208,112,210090,1,0,0:0:0:0:
336,208,210470,1,8,0:0:0:0:
336,200,210660,1,0,0:0:0:0:
320,256,210754,1,0,0:0:0:0:
230,134,210849,1,0,0:0:0:0:
260,120,210944,1,0,0:0:0:0:
328,256,211039,1,8,0:0:0:0:
224,128,211229,1,0,0:0:0:0:
224,184,211419,1,0,0:0:0:0:
216,168,211514,1,0,0:0:0:0:
280,160,211609,1,8,0:0:0:0:
208,79,211704,1,8,0:0:0:0:
232,160,211799,1,0,0:0:0:0:
232,160,211989,1,8,0:0:0:0:
240,176,212179,1,0,0:0:0:0:
240,176,212273,1,0,0:0:0:0:
288,184,212368,1,8,0:0:0:0:
288,184,212558,1,8,0:0:0:0:
225,56,212653,1,8,0:0:0:0:
232,136,212748,1,0,0:0:0:0:
216,112,212843,1,0,0:0:0:0:
232,136,212938,1,8,0:0:0:0:
208,96,213033,1,8,0:0:0:0:
232,136,213128,1,0,0:0:0:0:
280,136,213508,1,8,0:0:0:0:
232,160,213697,1,0,0:0:0:0:
232,160,213792,1,0,0:0:0:0:
256,152,213887,1,0,0:0:0:0:
270,176,213982,1,0,0:0:0:0:
264,144,214077,1,8,0:0:0:0:
264,144,214267,1,0,0:0:0:0:
328,178,214362,1,0,0:0:0:0:
128,184,214457,1,8,0:0:0:0:
320,168,214552,1,8,0:0:0:0:
284,193,214647,1,0,0:0:0:0:
272,144,214837,1,8,0:0:0:0:
150,123,214932,1,8,0:0:0:0:
272,144,215026,1,0,0:0:0:0:
233,196,215121,1,0,0:0:0:0:
296,160,215216,1,8,0:0:0:0:
256,232,215311,1,8,0:0:0:0:
288,160,215406,1,0,0:0:0:0:
248,112,215596,1,8,0:0:0:0:
248,112,215691,1,8,0:0:0:0:
256,120,215786,1,8,0:0:0:0:
248,112,215881,1,8,0:0:0:0:
256,120,215976,1,8,0:0:0:0:
240,136,216166,1,4,0:0:0:0:
358,188,216545,1,0,0:0:0:0:
340,185,216925,1,12,0:0:0:0:
348,181,217115,1,0,0:0:0:0:
306,146,217495,1,0,0:0:0:0:
361,156,217875,1,0,0:0:0:0:
361,156,218064,1,0,0:0:0:0:
350,153,218444,1,12,0:0:0:0:
350,153,218634,1,12,0:0:0:0:
350,154,218824,1,12,0:0:0:0:
350,154,219014,1,12,0:0:0:0:
350,153,219204,1,4,0:0:0:0:
348,146,219583,1,0,0:0:0:0:
348,146,219963,1,12,0:0:0:0:
341,146,220343,1,8,0:0:0:0:
352,151,220723,1,4,0:0:0:0:
352,151,221102,1,0,0:0:0:0:
352,151,221482,1,12,0:0:0:0:
382,153,221672,1,0,0:0:0:0:
382,153,221862,1,8,0:0:0:0:
382,153,221957,1,8,0:0:0:0:
365,146,222052,1,8,0:0:0:0:
362,142,222242,1,4,0:0:0:0:
359,143,222621,1,0,0:0:0:0:
356,141,223001,1,12,0:0:0:0:
362,140,223191,1,0,0:0:0:0:
359,143,223571,1,0,0:0:0:0:
362,140,223951,1,0,0:0:0:0:
362,140,224140,1,0,0:0:0:0:
300,56,224520,1,12,0:0:0:0:
282,106,224710,1,0,0:0:0:0:
282,106,224900,1,8,0:0:0:0:
314,70,225280,1,4,0:0:0:0:
266,102,225659,1,0,0:0:0:0:
266,102,226039,1,12,0:0:0:0:
263,119,226229,1,0,0:0:0:0:
263,119,226419,1,0,0:0:0:0:
263,119,226609,1,8,0:0:0:0:
261,113,226799,1,4,0:0:0:0:
300,123,226988,1,8,0:0:0:0:
196,109,227178,1,8,0:0:0:0:
300,123,227368,1,0,0:0:0:0:
300,123,227558,1,8,0:0:0:0:
300,123,227748,1,0,0:0:0:0:
300,123,227938,1,8,0:0:0:0:
267,107,228128,1,0,0:0:0:0:
256,116,228318,1,4,0:0:0:0:
