osu file format v14

[General]
AudioFilename: audio.mp3
AudioLeadIn: 0
PreviewTime: 55153
Countdown: 0
SampleSet: Normal
StackLeniency: 0.7
Mode: 1
LetterboxInBreaks: 0
WidescreenStoryboard: 0

[Editor]
DistanceSpacing: 0.7
BeatDivisor: 4
GridSize: 8
TimelineZoom: 1.9

[Metadata]
Title:Mighty Long Fall
TitleUnicode:Mighty Long Fall
Artist:ONE OK ROCK
ArtistUnicode:ONE OK ROCK
Creator:Chromoxx
Version:Muzukashii
Source:るろうに剣心 京都大火編
Tags:j-rock jrock cliff rurouni kenshin kyoto inferno taika-hen
BeatmapID:1225108
BeatmapSetID:578492

[Difficulty]
HPDrainRate:6
CircleSize:5
OverallDifficulty:5
ApproachRate:5
SliderMultiplier:1.4
SliderTickRate:1

[Events]
//Background and Video events
0,0,"mighty long fall.jpg",0,0
//Break Periods
2,131302,135409
//Storyboard Layer 0 (Background)
//Storyboard Layer 1 (Fail)
//Storyboard Layer 2 (Pass)
//Storyboard Layer 3 (Foreground)
//Storyboard Sound Samples

[TimingPoints]
470,379.746835443038,4,1,0,70,1,0
52020,-100,4,1,0,80,0,0
53539,-100,4,1,0,90,0,0
55153,-100,4,1,0,100,0,1
79457,-100,4,1,0,100,0,0
79647,-100,4,1,0,70,0,0
94457,-100,4,1,0,75,0,0
105375,-100,4,1,0,80,0,0
105944,-100,4,1,0,90,0,0
106799,-100,4,1,0,100,0,1
131102,-100,4,1,0,100,0,0
131292,-100,4,1,0,70,0,0
179663,-100,4,1,0,80,0,0
191007,-100,4,1,0,90,0,0
191862,-100,4,1,0,100,0,1
228318,-100,4,1,0,100,0,0

[HitObjects]
315,229,470,5,4,0:0:0:0:
345,184,849,1,8,0:0:0:0:
345,184,1609,1,8,0:0:0:0:
359,187,2178,1,0,0:0:0:0:
358,195,2558,1,8,0:0:0:0:
358,195,2748,1,0,0:0:0:0:
361,195,3128,1,8,0:0:0:0:
358,195,3318,1,0,0:0:0:0:
358,195,3507,1,0,0:0:0:0:
361,200,3887,1,8,0:0:0:0:
361,200,4457,1,0,0:0:0:0:
361,200,4647,1,8,0:0:0:0:
361,200,5216,1,8,0:0:0:0:
361,200,5406,1,8,0:0:0:0:
361,200,5501,1,8,0:0:0:0:
284,158,5596,1,8,0:0:0:0:
311,248,5786,1,0,0:0:0:0:
311,248,5976,1,8,0:0:0:0:
283,141,6166,1,0,0:0:0:0:
246,132,6545,1,4,0:0:0:0:
350,189,6925,1,8,0:0:0:0:
267,163,7305,1,0,0:0:0:0:
257,162,7495,1,8,0:0:0:0:
257,162,7875,1,0,0:0:0:0:
282,122,8254,1,0,0:0:0:0:
208,148,8444,1,8,0:0:0:0:
277,132,8824,1,0,0:0:0:0:
277,132,9014,1,8,0:0:0:0:
277,132,9109,1,8,0:0:0:0:
270,87,9204,1,8,0:0:0:0:
270,87,9394,1,8,0:0:0:0:
270,87,9583,1,0,0:0:0:0:
270,109,9963,1,8,0:0:0:0:
263,109,10343,1,0,0:0:0:0:
263,109,10533,1,8,0:0:0:0:
252,109,10913,1,0,0:0:0:0:
248,108,11292,1,0,0:0:0:0:
246,109,11482,1,8,0:0:0:0:
240,108,11862,1,0,0:0:0:0:
303,151,12621,1,0,0:0:0:0:
303,151,13001,1,8,0:0:0:0:
274,131,13381,1,0,0:0:0:0:
274,131,13571,1,8,0:0:0:0:
274,131,13951,1,0,0:0:0:0:
268,133,14330,1,0,0:0:0:0:
266,135,14520,1,8,0:0:0:0:
273,119,14900,1,0,0:0:0:0:
273,119,15090,1,8,0:0:0:0:
280,125,15185,1,8,0:0:0:0:
273,119,15280,1,8,0:0:0:0:
272,126,15470,1,8,0:0:0:0:
290,119,15659,1,0,0:0:0:0:
286,122,16039,1,8,0:0:0:0:
280,114,16419,1,0,0:0:0:0:
279,115,16609,1,0,0:0:0:0:
268,97,16988,1,0,0:0:0:0:
266,98,17368,1,0,0:0:0:0:
262,100,17558,1,8,0:0:0:0:
287,94,17938,1,0,0:0:0:0:
296,92,18128,1,0,0:0:0:0:
285,127,18697,1,4,0:0:0:0:
355,114,19077,1,8,0:0:0:0:
355,114,19267,1,0,0:0:0:0:
355,114,19457,1,0,0:0:0:0:
355,114,19647,1,8,0:0:0:0:
349,113,20026,1,0,0:0:0:0:
347,114,20406,1,0,0:0:0:0:
347,114,20596,1,8,0:0:0:0:
305,169,20976,1,0,0:0:0:0:
305,169,21166,1,8,0:0:0:0:
252,194,21261,1,8,0:0:0:0:
305,169,21356,1,8,0:0:0:0:
252,194,21545,1,8,0:0:0:0:
292,152,21735,1,0,0:0:0:0:
292,152,22115,1,8,0:0:0:0:
292,152,22305,1,0,0:0:0:0:
292,152,22495,1,0,0:0:0:0:
292,152,22685,1,8,0:0:0:0:
286,151,23064,1,0,0:0:0:0:
282,154,23444,1,0,0:0:0:0:
282,154,23634,1,8,0:0:0:0:
314,127,24014,1,0,0:0:0:0:
292,117,24773,1,0,0:0:0:0:
292,117,25153,1,8,0:0:0:0:
292,117,25343,1,0,0:0:0:0:
287,116,25533,1,0,0:0:0:0:
282,114,25723,1,8,0:0:0:0:
325,110,26102,1,0,0:0:0:0:
325,110,26482,1,0,0:0:0:0:
325,110,26672,1,8,0:0:0:0:
325,110,27052,1,0,0:0:0:0:
325,110,27242,1,8,0:0:0:0:
325,110,27337,1,8,0:0:0:0:
309,105,27432,1,8,0:0:0:0:
288,110,27621,1,8,0:0:0:0:
296,106,27811,1,0,0:0:0:0:
298,107,28191,1,8,0:0:0:0:
296,106,28571,1,0,0:0:0:0:
296,106,28761,1,0,0:0:0:0:
298,107,29140,1,0,0:0:0:0:
320,104,29520,1,0,0:0:0:0:
320,104,29710,1,8,0:0:0:0:
318,102,30090,1,0,0:0:0:0:
313,101,30280,1,0,0:0:0:0:
318,102,30849,1,4,0:0:0:0:
325,93,31229,1,8,0:0:0:0:
324,92,31419,1,0,0:0:0:0:
322,92,31609,1,0,0:0:0:0:
320,92,31799,1,8,0:0:0:0:
318,92,32178,1,0,0:0:0:0:
316,93,32558,1,0,0:0:0:0:
315,93,32748,1,8,0:0:0:0:
307,98,33128,1,0,0:0:0:0:
307,98,33318,1,8,0:0:0:0:
307,98,33413,1,8,0:0:0:0:
304,97,33507,1,8,0:0:0:0:
183,109,33697,1,8,0:0:0:0:
183,109,33887,1,0,0:0:0:0:
350,149,34267,1,8,0:0:0:0:
350,149,34457,1,0,0:0:0:0:
343,150,34647,1,0,0:0:0:0:
343,150,34837,1,8,0:0:0:0:
335,149,35216,1,0,0:0:0:0:
335,149,35596,1,0,0:0:0:0:
312,147,35786,1,8,0:0:0:0:
316,143,36166,1,0,0:0:0:0:
318,140,36925,1,0,0:0:0:0:
296,92,37305,1,8,0:0:0:0:
296,92,37495,1,0,0:0:0:0:
296,92,37685,1,0,0:0:0:0:
296,92,37875,1,8,0:0:0:0:
296,92,38254,1,0,0:0:0:0:
307,94,38634,1,0,0:0:0:0:
307,94,38824,1,8,0:0:0:0:
307,94,39204,1,0,0:0:0:0:
307,94,39394,1,8,0:0:0:0:
307,94,39488,1,8,0:0:0:0:
305,87,39583,1,8,0:0:0:0:
305,87,39773,1,8,0:0:0:0:
175,104,39963,1,0,0:0:0:0:
303,161,40343,1,8,0:0:0:0:
303,161,40533,1,0,0:0:0:0:
303,161,40723,1,0,0:0:0:0:
282,191,40818,1,0,0:0:0:0:
303,161,40913,1,0,0:0:0:0:
246,153,41292,1,8,0:0:0:0:
246,153,41672,1,0,0:0:0:0:
246,153,41862,1,8,0:0:0:0:
305,188,42052,1,0,0:0:0:0:
305,188,42147,1,0,0:0:0:0:
304,179,42242,1,0,0:0:0:0:
248,180,42432,1,8,0:0:0:0:
314,131,43001,1,4,0:0:0:0:
304,143,43381,1,8,0:0:0:0:
304,143,43571,1,0,0:0:0:0:
304,143,43761,1,0,0:0:0:0:
304,143,43951,1,8,0:0:0:0:
309,142,44330,1,0,0:0:0:0:
309,142,44520,1,0,0:0:0:0:
309,142,44710,1,0,0:0:0:0:
309,142,44900,1,8,0:0:0:0:
317,120,45280,1,0,0:0:0:0:
329,171,45470,1,8,0:0:0:0:
329,171,45564,1,8,0:0:0:0:
300,152,45659,1,8,0:0:0:0:
300,152,45849,1,8,0:0:0:0:
300,152,46039,1,0,0:0:0:0:
300,152,46419,1,8,0:0:0:0:
300,152,46609,1,0,0:0:0:0:
147,79,46799,1,0,0:0:0:0:
147,79,46988,1,8,0:0:0:0:
314,115,47368,1,0,0:0:0:0:
346,123,47558,1,0,0:0:0:0:
346,123,47748,1,0,0:0:0:0:
346,123,47938,1,8,0:0:0:0:
346,123,48318,1,0,0:0:0:0:
326,116,49077,1,0,0:0:0:0:
326,116,49457,1,8,0:0:0:0:
250,146,49647,1,0,0:0:0:0:
326,116,49837,1,0,0:0:0:0:
224,127,50026,1,8,0:0:0:0:
224,127,50406,1,0,0:0:0:0:
228,128,50596,1,0,0:0:0:0:
228,128,50786,1,0,0:0:0:0:
228,128,50976,1,8,0:0:0:0:
239,115,51356,1,0,0:0:0:0:
239,115,51545,1,0,0:0:0:0:
239,115,51735,1,8,0:0:0:0:
266,166,52115,1,4,0:0:0:0:
287,151,52495,1,0,0:0:0:0:
287,151,52685,1,0,0:0:0:0:
287,151,52875,1,0,0:0:0:0:
287,151,53064,1,0,0:0:0:0:
287,151,53254,1,0,0:0:0:0:
287,151,53634,1,12,0:0:0:0:
287,151,54014,1,8,0:0:0:0:
287,151,54204,1,8,0:0:0:0:
287,151,54394,1,8,0:0:0:0:
287,151,54583,1,8,0:0:0:0:
263,201,54678,1,8,0:0:0:0:
287,151,54773,1,8,0:0:0:0:
252,111,54963,1,8,0:0:0:0:
300,104,55153,1,4,0:0:0:0:
293,125,55533,1,8,0:0:0:0:
293,125,55723,1,0,0:0:0:0:
293,125,55913,1,0,0:0:0:0:
293,125,56102,1,8,0:0:0:0:
293,125,56292,1,0,0:0:0:0:
220,130,56672,1,8,0:0:0:0:
220,130,56862,1,0,0:0:0:0:
195,109,57052,1,8,0:0:0:0:
315,241,57242,1,0,0:0:0:0:
195,109,57432,1,0,0:0:0:0:
195,109,57621,1,8,0:0:0:0:
195,109,57811,1,0,0:0:0:0:
195,109,58001,1,8,0:0:0:0:
195,109,58191,1,0,0:0:0:0:
244,120,58571,1,8,0:0:0:0:
244,120,58761,1,8,0:0:0:0:
244,120,58951,1,0,0:0:0:0:
258,176,59140,1,8,0:0:0:0:
315,202,59330,1,0,0:0:0:0:
299,193,59520,1,0,0:0:0:0:
351,177,59710,1,8,0:0:0:0:
299,193,60090,1,8,0:0:0:0:
208,136,60280,1,8,0:0:0:0:
299,193,60470,1,0,0:0:0:0:
299,193,60659,1,8,0:0:0:0:
299,193,60849,1,8,0:0:0:0:
309,175,61039,1,0,0:0:0:0:
276,162,61134,1,0,0:0:0:0:
306,174,61229,1,0,0:0:0:0:
288,162,61609,1,8,0:0:0:0:
274,109,61799,1,0,0:0:0:0:
261,183,61988,1,8,0:0:0:0:
274,109,62178,1,8,0:0:0:0:
274,109,62368,1,0,0:0:0:0:
274,109,62748,1,8,0:0:0:0:
274,109,62938,1,0,0:0:0:0:
274,109,63128,1,8,0:0:0:0:
274,109,63318,1,8,0:0:0:0:
274,109,63507,1,0,0:0:0:0:
276,145,63697,1,8,0:0:0:0:
276,145,63887,1,0,0:0:0:0:
276,145,64077,1,8,0:0:0:0:
276,145,64267,1,0,0:0:0:0:
267,181,64647,1,8,0:0:0:0:
267,181,64837,1,0,0:0:0:0:
267,181,65026,1,8,0:0:0:0:
267,185,65216,1,8,0:0:0:0:
267,181,65406,1,0,0:0:0:0:
328,192,65596,1,0,0:0:0:0:
267,181,65786,1,8,0:0:0:0:
266,190,65976,1,8,0:0:0:0:
266,190,66071,1,8,0:0:0:0:
267,185,66166,1,8,0:0:0:0:
329,114,66545,1,0,0:0:0:0:
329,114,66735,1,8,0:0:0:0:
329,114,66830,1,8,0:0:0:0:
329,114,66925,1,8,0:0:0:0:
213,179,67115,1,8,0:0:0:0:
213,179,67305,1,4,0:0:0:0:
294,195,67685,1,8,0:0:0:0:
290,230,67875,1,8,0:0:0:0:
294,195,68064,1,0,0:0:0:0:
294,195,68254,1,0,0:0:0:0:
294,195,68444,1,8,0:0:0:0:
294,195,68824,1,0,0:0:0:0:
294,195,69014,1,0,0:0:0:0:
294,195,69204,1,8,0:0:0:0:
294,195,69394,1,8,0:0:0:0:
297,202,69583,1,0,0:0:0:0:
342,151,69773,1,8,0:0:0:0:
342,151,69963,1,0,0:0:0:0:
342,151,70153,1,8,0:0:0:0:
342,151,70343,1,0,0:0:0:0:
290,120,70723,1,8,0:0:0:0:
290,120,70913,1,8,0:0:0:0:
290,120,71102,1,0,0:0:0:0:
267,111,71292,1,8,0:0:0:0:
267,111,71482,1,0,0:0:0:0:
261,111,71672,1,0,0:0:0:0:
267,111,71862,1,8,0:0:0:0:
257,110,72242,1,8,0:0:0:0:
168,112,72432,1,8,0:0:0:0:
241,112,72621,1,0,0:0:0:0:
236,111,72811,1,8,0:0:0:0:
236,111,73001,1,8,0:0:0:0:
245,130,73191,1,0,0:0:0:0:
249,130,73286,1,0,0:0:0:0:
249,130,73381,1,0,0:0:0:0:
301,93,73761,1,8,0:0:0:0:
232,203,73951,1,0,0:0:0:0:
301,93,74140,1,0,0:0:0:0:
293,98,74330,1,8,0:0:0:0:
293,98,74520,1,0,0:0:0:0:
220,180,74900,1,8,0:0:0:0:
220,180,75090,1,0,0:0:0:0:
211,120,75280,1,8,0:0:0:0:
211,120,75470,1,0,0:0:0:0:
211,120,75659,1,0,0:0:0:0:
211,120,75849,1,8,0:0:0:0:
211,120,76039,1,0,0:0:0:0:
211,120,76229,1,8,0:0:0:0:
211,120,76419,1,0,0:0:0:0:
279,113,76799,1,8,0:0:0:0:
289,131,76988,1,0,0:0:0:0:
267,131,77178,1,8,0:0:0:0:
288,130,77368,1,8,0:0:0:0:
288,130,77558,1,0,0:0:0:0:
128,136,77748,1,8,0:0:0:0:
262,129,77938,1,0,0:0:0:0:
260,128,78128,1,0,0:0:0:0:
262,129,78318,1,8,0:0:0:0:
267,130,78697,1,0,0:0:0:0:
262,129,78887,1,8,0:0:0:0:
247,126,78982,1,8,0:0:0:0:
261,132,79077,1,8,0:0:0:0:
247,126,79267,1,8,0:0:0:0:
247,126,79457,1,0,0:0:0:0:
287,144,79837,1,8,0:0:0:0:
338,173,80406,1,0,0:0:0:0:
339,253,80596,1,0,0:0:0:0:
338,173,80786,1,8,0:0:0:0:
345,155,81166,1,0,0:0:0:0:
339,253,81356,1,8,0:0:0:0:
271,166,81735,1,0,0:0:0:0:
271,166,81925,1,0,0:0:0:0:
341,152,82495,1,4,0:0:0:0:
335,153,82875,1,8,0:0:0:0:
301,176,83064,1,0,0:0:0:0:
301,176,83254,1,0,0:0:0:0:
301,176,83444,1,8,0:0:0:0:
255,131,83824,1,0,0:0:0:0:
255,131,84204,1,0,0:0:0:0:
255,131,84394,1,8,0:0:0:0:
255,131,84583,1,0,0:0:0:0:
250,126,84773,1,0,0:0:0:0:
255,131,84963,1,8,0:0:0:0:
182,77,85058,1,8,0:0:0:0:
182,77,85153,1,8,0:0:0:0:
182,77,85343,1,8,0:0:0:0:
182,77,85533,1,0,0:0:0:0:
272,143,85913,1,8,0:0:0:0:
272,143,86102,1,0,0:0:0:0:
226,167,86292,1,0,0:0:0:0:
271,189,86387,1,0,0:0:0:0:
270,130,86482,1,0,0:0:0:0:
272,170,86862,1,0,0:0:0:0:
171,193,87242,1,0,0:0:0:0:
266,144,87432,1,8,0:0:0:0:
284,120,87811,1,0,0:0:0:0:
306,161,88571,1,0,0:0:0:0:
306,161,88951,1,8,0:0:0:0:
306,161,89140,1,0,0:0:0:0:
306,161,89330,1,0,0:0:0:0:
306,161,89520,1,8,0:0:0:0:
319,153,89900,1,0,0:0:0:0:
319,153,90280,1,0,0:0:0:0:
314,156,90470,1,8,0:0:0:0:
307,147,90849,1,0,0:0:0:0:
307,147,91039,1,8,0:0:0:0:
305,145,91134,1,8,0:0:0:0:
307,147,91229,1,8,0:0:0:0:
300,142,91419,1,8,0:0:0:0:
300,146,91609,1,0,0:0:0:0:
316,148,91988,1,8,0:0:0:0:
311,146,92178,1,0,0:0:0:0:
311,146,92368,1,0,0:0:0:0:
311,146,92558,1,8,0:0:0:0:
310,147,92938,1,0,0:0:0:0:
311,146,93318,1,0,0:0:0:0:
315,143,93507,1,8,0:0:0:0:
317,142,93887,1,0,0:0:0:0:
338,168,94647,1,4,0:0:0:0:
338,168,95026,1,8,0:0:0:0:
320,158,95216,1,0,0:0:0:0:
320,158,95406,1,0,0:0:0:0:
320,158,95596,1,8,0:0:0:0:
292,147,95976,1,0,0:0:0:0:
342,171,96166,1,0,0:0:0:0:
341,172,96356,1,0,0:0:0:0:
341,172,96545,1,8,0:0:0:0:
246,167,96925,1,0,0:0:0:0:
246,167,97115,1,8,0:0:0:0:
246,167,97210,1,8,0:0:0:0:
246,167,97305,1,8,0:0:0:0:
133,113,97495,1,8,0:0:0:0:
164,110,97685,1,0,0:0:0:0:
304,176,98064,1,8,0:0:0:0:
304,176,98254,1,0,0:0:0:0:
304,176,98444,1,0,0:0:0:0:
304,176,98634,1,8,0:0:0:0:
304,176,99014,1,0,0:0:0:0:
296,176,99204,1,0,0:0:0:0:
296,176,99394,1,0,0:0:0:0:
296,176,99583,1,8,0:0:0:0:
248,152,99963,1,0,0:0:0:0:
304,160,100723,1,0,0:0:0:0:
256,160,101102,1,8,0:0:0:0:
256,160,101292,1,0,0:0:0:0:
256,160,101482,1,0,0:0:0:0:
256,160,101672,1,8,0:0:0:0:
280,120,102052,1,0,0:0:0:0:
280,120,102242,1,0,0:0:0:0:
280,120,102432,1,0,0:0:0:0:
280,120,102621,1,8,0:0:0:0:
288,176,103001,1,0,0:0:0:0:
288,176,103191,1,8,0:0:0:0:
216,168,103286,1,8,0:0:0:0:
288,176,103381,1,8,0:0:0:0:
216,168,103571,1,8,0:0:0:0:
216,168,103761,1,0,0:0:0:0:
304,144,104140,1,8,0:0:0:0:
304,144,104330,1,0,0:0:0:0:
304,144,104520,1,0,0:0:0:0:
304,144,104710,1,8,0:0:0:0:
328,112,105090,1,12,0:0:0:0:
320,136,105470,1,0,0:0:0:0:
320,136,105659,1,0,0:0:0:0:
320,136,105849,1,0,0:0:0:0:
224,72,106039,1,8,0:0:0:0:
224,72,106229,1,8,0:0:0:0:
224,72,106419,1,8,0:0:0:0:
360,168,106609,1,8,0:0:0:0:
336,136,106799,1,4,0:0:0:0:
293,125,107178,1,8,0:0:0:0:
293,125,107368,1,0,0:0:0:0:
293,125,107558,1,0,0:0:0:0:
293,125,107747,1,8,0:0:0:0:
293,125,107937,1,0,0:0:0:0:
220,130,108317,1,8,0:0:0:0:
220,130,108507,1,0,0:0:0:0:
195,109,108697,1,8,0:0:0:0:
315,241,108887,1,0,0:0:0:0:
195,109,109077,1,0,0:0:0:0:
195,109,109266,1,8,0:0:0:0:
195,109,109456,1,0,0:0:0:0:
195,109,109646,1,8,0:0:0:0:
195,109,109836,1,0,0:0:0:0:
244,120,110216,1,8,0:0:0:0:
244,120,110406,1,8,0:0:0:0:
244,120,110596,1,0,0:0:0:0:
258,176,110785,1,8,0:0:0:0:
315,202,110975,1,0,0:0:0:0:
288,264,111166,1,0,0:0:0:0:
351,177,111355,1,8,0:0:0:0:
299,193,111735,1,8,0:0:0:0:
299,193,111925,1,8,0:0:0:0:
299,193,112115,1,0,0:0:0:0:
299,193,112304,1,8,0:0:0:0:
299,193,112494,1,8,0:0:0:0:
309,175,112684,1,0,0:0:0:0:
276,162,112779,1,0,0:0:0:0:
306,174,112874,1,0,0:0:0:0:
288,162,113254,1,8,0:0:0:0:
274,109,113444,1,0,0:0:0:0:
261,183,113633,1,8,0:0:0:0:
274,109,113823,1,8,0:0:0:0:
274,109,114013,1,0,0:0:0:0:
274,109,114393,1,8,0:0:0:0:
274,109,114583,1,0,0:0:0:0:
274,109,114773,1,8,0:0:0:0:
274,109,114963,1,8,0:0:0:0:
274,109,115152,1,0,0:0:0:0:
276,145,115342,1,8,0:0:0:0:
276,145,115532,1,0,0:0:0:0:
276,145,115722,1,8,0:0:0:0:
276,145,115912,1,0,0:0:0:0:
267,181,116292,1,8,0:0:0:0:
267,181,116482,1,0,0:0:0:0:
267,181,116671,1,8,0:0:0:0:
267,185,116861,1,8,0:0:0:0:
267,181,117051,1,0,0:0:0:0:
224,200,117242,1,0,0:0:0:0:
267,181,117431,1,8,0:0:0:0:
266,190,117621,1,8,0:0:0:0:
266,190,117716,1,8,0:0:0:0:
267,185,117811,1,8,0:0:0:0:
329,114,118190,1,0,0:0:0:0:
329,114,118380,1,8,0:0:0:0:
329,114,118475,1,8,0:0:0:0:
329,114,118570,1,8,0:0:0:0:
213,179,118760,1,8,0:0:0:0:
213,179,118950,1,4,0:0:0:0:
294,195,119330,1,8,0:0:0:0:
290,230,119520,1,8,0:0:0:0:
294,195,119709,1,0,0:0:0:0:
294,195,119899,1,0,0:0:0:0:
294,195,120089,1,8,0:0:0:0:
294,195,120280,1,8,0:0:0:0:
294,195,120469,1,0,0:0:0:0:
294,195,120849,1,8,0:0:0:0:
294,195,121039,1,8,0:0:0:0:
297,202,121228,1,0,0:0:0:0:
342,151,121418,1,8,0:0:0:0:
342,151,121608,1,0,0:0:0:0:
342,151,121798,1,8,0:0:0:0:
342,151,121988,1,0,0:0:0:0:
360,181,122178,1,0,0:0:0:0:
290,120,122368,1,8,0:0:0:0:
290,120,122747,1,0,0:0:0:0:
267,111,122937,1,8,0:0:0:0:
267,111,123127,1,0,0:0:0:0:
290,120,123318,1,0,0:0:0:0:
267,111,123507,1,8,0:0:0:0:
261,111,123697,1,0,0:0:0:0:
257,110,123887,1,8,0:0:0:0:
241,112,124266,1,0,0:0:0:0:
236,111,124456,1,8,0:0:0:0:
236,111,124646,1,8,0:0:0:0:
245,130,124836,1,0,0:0:0:0:
249,130,124931,1,0,0:0:0:0:
249,130,125026,1,0,0:0:0:0:
301,93,125406,1,8,0:0:0:0:
232,203,125596,1,0,0:0:0:0:
301,93,125785,1,8,0:0:0:0:
293,98,125975,1,8,0:0:0:0:
293,98,126165,1,0,0:0:0:0:
376,208,126356,1,8,0:0:0:0:
220,180,126545,1,0,0:0:0:0:
211,120,126925,1,8,0:0:0:0:
211,120,127115,1,8,0:0:0:0:
211,120,127304,1,0,0:0:0:0:
211,120,127494,1,8,0:0:0:0:
211,120,127684,1,0,0:0:0:0:
211,120,127874,1,8,0:0:0:0:
211,120,128064,1,0,0:0:0:0:
279,113,128444,1,8,0:0:0:0:
289,131,128633,1,0,0:0:0:0:
267,131,128823,1,8,0:0:0:0:
288,130,129013,1,8,0:0:0:0:
288,130,129203,1,0,0:0:0:0:
296,224,129394,1,8,0:0:0:0:
262,129,129583,1,0,0:0:0:0:
260,128,129773,1,0,0:0:0:0:
262,129,129963,1,8,0:0:0:0:
267,130,130342,1,0,0:0:0:0:
262,129,130532,1,8,0:0:0:0:
247,126,130627,1,8,0:0:0:0:
261,132,130722,1,8,0:0:0:0:
247,126,130912,1,8,0:0:0:0:
247,126,131102,1,0,0:0:0:0:
280,168,136609,5,0,0:0:0:0:
280,168,136704,1,0,0:0:0:0:
256,104,136799,1,0,0:0:0:0:
256,96,136988,1,0,0:0:0:0:
304,224,137178,1,4,0:0:0:0:
304,208,137558,1,0,0:0:0:0:
304,208,137938,1,0,0:0:0:0:
328,144,138697,1,8,0:0:0:0:
368,184,140216,1,0,0:0:0:0:
368,184,140596,1,0,0:0:0:0:
376,184,140976,1,0,0:0:0:0:
344,144,141735,1,8,0:0:0:0:
224,184,143254,1,0,0:0:0:0:
392,160,143634,1,0,0:0:0:0:
384,160,144014,1,12,0:0:0:0:
360,144,144583,1,0,0:0:0:0:
384,160,144963,1,0,0:0:0:0:
384,168,145153,1,0,0:0:0:0:
360,152,145533,1,12,0:0:0:0:
352,168,146292,1,0,0:0:0:0:
352,168,147052,1,12,0:0:0:0:
360,168,147811,1,0,0:0:0:0:
360,168,148571,1,12,0:0:0:0:
360,168,149330,1,0,0:0:0:0:
360,160,149710,1,0,0:0:0:0:
360,160,150090,1,12,0:0:0:0:
360,160,150659,1,0,0:0:0:0:
360,160,151039,1,0,0:0:0:0:
360,160,151229,1,0,0:0:0:0:
360,160,151609,1,12,0:0:0:0:
392,144,152368,1,0,0:0:0:0:
392,144,153128,1,12,0:0:0:0:
392,144,153887,1,0,0:0:0:0:
392,144,154647,1,12,0:0:0:0:
288,136,155406,1,4,0:0:0:0:
352,128,156166,1,12,0:0:0:0:
304,112,156735,1,4,0:0:0:0:
304,112,157305,1,0,0:0:0:0:
320,112,157685,1,12,0:0:0:0:
288,128,158064,1,8,0:0:0:0:
296,120,158444,1,0,0:0:0:0:
304,112,159204,1,12,0:0:0:0:
304,112,159963,1,0,0:0:0:0:
304,112,160723,1,12,0:0:0:0:
296,112,161482,1,4,0:0:0:0:
296,112,162242,1,12,0:0:0:0:
296,112,162811,1,4,0:0:0:0:
320,112,163381,1,0,0:0:0:0:
296,112,163761,1,12,0:0:0:0:
320,112,164140,1,8,0:0:0:0:
320,112,164520,1,4,0:0:0:0:
320,112,165280,1,12,0:0:0:0:
320,104,166039,1,4,0:0:0:0:
320,112,166799,1,12,0:0:0:0:
328,104,167558,1,0,0:0:0:0:
328,104,167938,1,0,0:0:0:0:
328,104,168318,1,8,0:0:0:0:
328,104,168507,1,0,0:0:0:0:
328,104,168887,1,0,0:0:0:0:
328,104,169267,1,0,0:0:0:0:
328,104,169457,1,0,0:0:0:0:
328,104,169837,1,8,0:0:0:0:
144,160,170596,1,4,0:0:0:0:
312,176,171356,1,12,0:0:0:0:
304,168,172115,1,4,0:0:0:0:
304,168,172875,1,12,0:0:0:0:
304,168,173634,1,0,0:0:0:0:
320,152,174014,1,0,0:0:0:0:
320,160,174394,1,8,0:0:0:0:
160,96,174583,1,0,0:0:0:0:
288,192,174963,1,0,0:0:0:0:
296,184,175343,1,0,0:0:0:0:
296,184,175533,1,0,0:0:0:0:
296,184,175913,1,8,0:0:0:0:
360,160,176672,1,4,0:0:0:0:
360,160,177432,1,12,0:0:0:0:
360,160,178191,1,4,0:0:0:0:
352,144,178951,1,8,0:0:0:0:
352,144,179140,1,8,0:0:0:0:
376,136,179235,1,8,0:0:0:0:
384,120,179330,1,8,0:0:0:0:
384,112,179520,1,8,0:0:0:0:
384,104,179710,1,4,0:0:0:0:
248,168,180090,1,8,0:0:0:0:
256,160,180470,1,0,0:0:0:0:
256,160,180659,1,8,0:0:0:0:
256,160,181039,1,0,0:0:0:0:
272,112,181229,1,0,0:0:0:0:
256,160,181419,1,0,0:0:0:0:
248,160,181609,1,8,0:0:0:0:
200,136,181988,1,0,0:0:0:0:
224,128,182178,1,8,0:0:0:0:
224,128,182368,1,0,0:0:0:0:
232,88,182558,1,8,0:0:0:0:
224,88,182748,1,0,0:0:0:0:
320,160,183128,1,8,0:0:0:0:
320,160,183507,1,0,0:0:0:0:
312,160,183697,1,8,0:0:0:0:
312,160,184077,1,0,0:0:0:0:
312,160,184267,1,0,0:0:0:0:
240,120,184457,1,0,0:0:0:0:
240,120,184647,1,8,0:0:0:0:
328,144,185026,1,0,0:0:0:0:
320,144,185216,1,8,0:0:0:0:
320,144,185406,1,8,0:0:0:0:
304,144,185596,1,0,0:0:0:0:
256,152,185691,1,0,0:0:0:0:
304,144,185786,1,0,0:0:0:0:
344,176,186166,1,8,0:0:0:0:
344,176,186545,1,0,0:0:0:0:
344,176,186735,1,8,0:0:0:0:
336,176,186925,1,0,0:0:0:0:
336,176,187305,1,0,0:0:0:0:
336,176,187495,1,0,0:0:0:0:
216,128,187685,1,8,0:0:0:0:
216,128,188064,1,0,0:0:0:0:
216,128,188254,1,8,0:0:0:0:
216,128,188444,1,0,0:0:0:0:
216,128,188634,1,8,0:0:0:0:
216,128,188824,1,0,0:0:0:0:
304,120,189204,1,8,0:0:0:0:
304,120,189583,1,0,0:0:0:0:
280,128,189773,1,8,0:0:0:0:
272,128,189963,1,0,0:0:0:0:
272,128,190343,1,0,0:0:0:0:
256,136,190533,1,8,0:0:0:0:
256,104,190628,1,8,0:0:0:0:
256,104,190723,1,8,0:0:0:0:
320,208,191102,1,0,0:0:0:0:
336,200,191292,1,8,0:0:0:0:
336,200,191387,1,8,0:0:0:0:
344,168,191482,1,8,0:0:0:0:
336,152,191672,1,8,0:0:0:0:
312,152,191862,1,4,0:0:0:0:
293,125,192242,1,8,0:0:0:0:
293,125,192432,1,0,0:0:0:0:
293,125,192622,1,0,0:0:0:0:
293,125,192811,1,8,0:0:0:0:
293,125,193001,1,0,0:0:0:0:
220,130,193381,1,8,0:0:0:0:
220,130,193571,1,0,0:0:0:0:
195,109,193761,1,8,0:0:0:0:
315,241,193951,1,0,0:0:0:0:
195,109,194141,1,0,0:0:0:0:
195,109,194330,1,8,0:0:0:0:
195,109,194520,1,0,0:0:0:0:
195,109,194710,1,8,0:0:0:0:
195,109,194900,1,0,0:0:0:0:
244,120,195280,1,8,0:0:0:0:
244,120,195470,1,8,0:0:0:0:
244,120,195660,1,0,0:0:0:0:
258,176,195849,1,8,0:0:0:0:
315,202,196039,1,0,0:0:0:0:
248,192,196229,1,0,0:0:0:0:
351,177,196419,1,8,0:0:0:0:
299,193,196799,1,8,0:0:0:0:
299,193,196988,1,8,0:0:0:0:
299,193,197179,1,0,0:0:0:0:
299,193,197368,1,8,0:0:0:0:
299,193,197558,1,8,0:0:0:0:
309,175,197748,1,0,0:0:0:0:
276,162,197843,1,0,0:0:0:0:
306,174,197938,1,0,0:0:0:0:
288,162,198318,1,8,0:0:0:0:
274,109,198508,1,0,0:0:0:0:
261,183,198697,1,8,0:0:0:0:
274,109,198887,1,8,0:0:0:0:
274,109,199077,1,0,0:0:0:0:
274,109,199457,1,8,0:0:0:0:
274,109,199647,1,0,0:0:0:0:
274,109,199837,1,8,0:0:0:0:
274,109,200027,1,8,0:0:0:0:
274,109,200216,1,0,0:0:0:0:
276,145,200406,1,8,0:0:0:0:
276,145,200596,1,0,0:0:0:0:
276,145,200786,1,8,0:0:0:0:
276,145,200976,1,0,0:0:0:0:
267,181,201356,1,8,0:0:0:0:
267,181,201546,1,0,0:0:0:0:
267,181,201735,1,8,0:0:0:0:
267,185,201925,1,8,0:0:0:0:
267,181,202115,1,0,0:0:0:0:
408,200,202305,1,0,0:0:0:0:
267,181,202495,1,8,0:0:0:0:
266,190,202685,1,8,0:0:0:0:
266,190,202780,1,8,0:0:0:0:
267,185,202875,1,8,0:0:0:0:
329,114,203254,1,0,0:0:0:0:
329,114,203444,1,8,0:0:0:0:
329,114,203539,1,8,0:0:0:0:
329,114,203634,1,8,0:0:0:0:
213,179,203824,1,8,0:0:0:0:
213,179,204014,1,4,0:0:0:0:
294,195,204394,1,8,0:0:0:0:
290,230,204584,1,8,0:0:0:0:
294,195,204773,1,0,0:0:0:0:
294,195,204963,1,0,0:0:0:0:
294,195,205153,1,8,0:0:0:0:
294,195,205343,1,8,0:0:0:0:
294,195,205533,1,0,0:0:0:0:
294,195,205913,1,8,0:0:0:0:
294,195,206103,1,8,0:0:0:0:
297,202,206292,1,0,0:0:0:0:
342,151,206482,1,8,0:0:0:0:
342,151,206672,1,0,0:0:0:0:
342,151,206862,1,8,0:0:0:0:
342,151,207052,1,0,0:0:0:0:
290,120,207432,1,8,0:0:0:0:
290,120,207621,1,8,0:0:0:0:
290,120,207811,1,0,0:0:0:0:
267,111,208001,1,8,0:0:0:0:
267,111,208191,1,0,0:0:0:0:
169,94,208381,1,0,0:0:0:0:
267,111,208571,1,8,0:0:0:0:
261,111,208761,1,0,0:0:0:0:
257,110,208951,1,8,0:0:0:0:
241,112,209330,1,0,0:0:0:0:
236,111,209520,1,8,0:0:0:0:
236,111,209710,1,8,0:0:0:0:
245,130,209900,1,0,0:0:0:0:
249,130,209995,1,0,0:0:0:0:
249,130,210090,1,0,0:0:0:0:
301,93,210470,1,8,0:0:0:0:
232,203,210660,1,0,0:0:0:0:
264,200,210849,1,8,0:0:0:0:
293,98,211039,1,8,0:0:0:0:
293,98,211229,1,0,0:0:0:0:
280,192,211419,1,0,0:0:0:0:
220,180,211609,1,8,0:0:0:0:
211,120,211989,1,8,0:0:0:0:
211,120,212179,1,8,0:0:0:0:
211,120,212368,1,0,0:0:0:0:
211,120,212558,1,8,0:0:0:0:
211,120,212748,1,0,0:0:0:0:
211,120,212938,1,8,0:0:0:0:
211,120,213128,1,0,0:0:0:0:
279,113,213508,1,8,0:0:0:0:
289,131,213697,1,0,0:0:0:0:
267,131,213887,1,8,0:0:0:0:
288,130,214077,1,8,0:0:0:0:
288,130,214267,1,0,0:0:0:0:
376,176,214457,1,8,0:0:0:0:
262,129,214647,1,0,0:0:0:0:
260,128,214837,1,0,0:0:0:0:
262,129,215027,1,8,0:0:0:0:
267,130,215406,1,0,0:0:0:0:
262,129,215596,1,8,0:0:0:0:
247,126,215691,1,8,0:0:0:0:
261,132,215786,1,8,0:0:0:0:
247,126,215976,1,8,0:0:0:0:
247,126,216166,1,0,0:0:0:0:
368,104,216545,1,4,0:0:0:0:
368,104,216925,1,12,0:0:0:0:
360,128,217495,1,0,0:0:0:0:
360,128,217875,1,0,0:0:0:0:
360,128,218064,1,0,0:0:0:0:
368,88,218444,1,8,0:0:0:0:
175,125,218634,1,8,0:0:0:0:
368,88,218824,1,8,0:0:0:0:
259,154,219014,1,8,0:0:0:0:
360,64,219204,1,4,0:0:0:0:
328,80,219963,1,12,0:0:0:0:
328,80,220723,1,4,0:0:0:0:
320,64,221482,1,12,0:0:0:0:
392,48,222242,1,4,0:0:0:0:
304,112,222621,1,4,0:0:0:0:
304,112,223001,1,12,0:0:0:0:
352,97,223571,1,0,0:0:0:0:
352,97,223951,1,0,0:0:0:0:
352,97,224140,1,0,0:0:0:0:
304,62,224520,1,12,0:0:0:0:
302,82,225280,1,4,0:0:0:0:
307,78,226039,1,12,0:0:0:0:
328,210,226419,1,0,0:0:0:0:
328,210,226609,1,8,0:0:0:0:
307,78,226799,1,0,0:0:0:0:
307,78,227178,1,0,0:0:0:0:
307,78,227558,1,8,0:0:0:0:
196,147,227748,1,0,0:0:0:0:
307,78,227938,1,8,0:0:0:0:
304,73,228318,1,4,0:0:0:0:
