osu file format v14

[General]
AudioFilename: audio.mp3
AudioLeadIn: 0
PreviewTime: 55153
Countdown: 0
SampleSet: Normal
StackLeniency: 0.7
Mode: 1
LetterboxInBreaks: 0
WidescreenStoryboard: 0

[Editor]
DistanceSpacing: 0.7
BeatDivisor: 4
GridSize: 8
TimelineZoom: 1.9

[Metadata]
Title:Mighty Long Fall
TitleUnicode:Mighty Long Fall
Artist:ONE OK ROCK
ArtistUnicode:ONE OK ROCK
Creator:Chromoxx
Version:Kantan
Source:るろうに剣心 京都大火編
Tags:j-rock jrock cliff rurouni kenshin kyoto inferno taika-hen
BeatmapID:1227084
BeatmapSetID:578492

[Difficulty]
HPDrainRate:8
CircleSize:5
OverallDifficulty:4
ApproachRate:5
SliderMultiplier:1.4
SliderTickRate:1

[Events]
//Background and Video events
0,0,"mighty long fall.jpg",0,0
//Break Periods
2,131303,135978
//Storyboard Layer 0 (Background)
//Storyboard Layer 1 (Fail)
//Storyboard Layer 2 (Pass)
//Storyboard Layer 3 (Foreground)
//Storyboard Sound Samples

[TimingPoints]
470,379.746835443038,4,1,0,70,1,0
52020,-100,4,1,0,80,0,0
53539,-100,4,1,0,90,0,0
55153,-100,4,1,0,100,0,1
79457,-100,4,1,0,100,0,0
79647,-100,4,1,0,70,0,0
94457,-100,4,1,0,75,0,0
105375,-100,4,1,0,80,0,0
105944,-100,4,1,0,90,0,0
106799,-100,4,1,0,100,0,1
131102,-100,4,1,0,100,0,0
131292,-100,4,1,0,70,0,0
179663,-100,4,1,0,80,0,0
191007,-100,4,1,0,90,0,0
191862,-100,4,1,0,100,0,1
228318,-100,4,1,0,100,0,0

[HitObjects]
320,136,470,5,4,0:0:0:0:
320,168,849,1,8,0:0:0:0:
288,112,1609,1,8,0:0:0:0:
320,168,3507,1,0,0:0:0:0:
304,160,3887,1,8,0:0:0:0:
304,160,4647,1,8,0:0:0:0:
224,184,6545,1,0,0:0:0:0:
224,184,6925,1,8,0:0:0:0:
224,184,7305,1,0,0:0:0:0:
288,144,9583,1,8,0:0:0:0:
288,144,9963,1,8,0:0:0:0:
288,144,10343,1,0,0:0:0:0:
288,144,12621,1,0,0:0:0:0:
176,200,13001,1,8,0:0:0:0:
288,144,13381,1,0,0:0:0:0:
296,232,15659,1,0,0:0:0:0:
280,144,16039,1,0,0:0:0:0:
280,144,16419,1,0,0:0:0:0:
360,192,16988,1,8,0:0:0:0:
248,152,18697,1,4,0:0:0:0:
232,160,19077,1,8,0:0:0:0:
232,160,19457,1,0,0:0:0:0:
232,160,20596,1,8,0:0:0:0:
280,240,21735,1,8,0:0:0:0:
232,160,22115,1,8,0:0:0:0:
232,160,22495,1,0,0:0:0:0:
280,240,23634,1,8,0:0:0:0:
280,240,24773,1,0,0:0:0:0:
280,240,25153,1,8,0:0:0:0:
280,240,25533,1,0,0:0:0:0:
280,240,26672,1,8,0:0:0:0:
272,232,27811,1,0,0:0:0:0:
272,232,28191,1,8,0:0:0:0:
272,232,28571,1,0,0:0:0:0:
272,232,29140,1,0,0:0:0:0:
264,232,30849,1,4,0:0:0:0:
296,192,31229,1,8,0:0:0:0:
296,192,31609,1,0,0:0:0:0:
256,176,32178,1,0,0:0:0:0:
256,176,32748,1,8,0:0:0:0:
256,176,33887,1,8,0:0:0:0:
256,176,34267,1,8,0:0:0:0:
256,176,34647,1,0,0:0:0:0:
256,176,35216,1,0,0:0:0:0:
256,176,35786,1,8,0:0:0:0:
256,176,36925,1,0,0:0:0:0:
256,176,37305,1,8,0:0:0:0:
256,176,37685,1,0,0:0:0:0:
256,176,38254,1,0,0:0:0:0:
256,176,38824,1,8,0:0:0:0:
256,176,39963,1,0,0:0:0:0:
256,176,40343,1,0,0:0:0:0:
256,176,40723,1,0,0:0:0:0:
256,176,41292,1,8,0:0:0:0:
304,184,43001,1,4,0:0:0:0:
336,184,43381,1,8,0:0:0:0:
336,184,43761,1,0,0:0:0:0:
336,184,44330,1,0,0:0:0:0:
336,184,44900,1,8,0:0:0:0:
336,184,46039,1,8,0:0:0:0:
336,184,46419,1,8,0:0:0:0:
336,184,46799,1,0,0:0:0:0:
330,170,47368,1,0,0:0:0:0:
330,170,47938,1,8,0:0:0:0:
321,169,49077,1,0,0:0:0:0:
321,169,49457,1,8,0:0:0:0:
321,169,49837,1,0,0:0:0:0:
321,169,50406,1,0,0:0:0:0:
321,169,50976,1,8,0:0:0:0:
326,166,52115,1,4,0:0:0:0:
319,170,52875,1,0,0:0:0:0:
319,170,53254,1,0,0:0:0:0:
319,170,53634,1,12,0:0:0:0:
321,154,54394,1,8,0:0:0:0:
321,154,54773,1,8,0:0:0:0:
282,134,55153,1,4,0:0:0:0:
192,71,56672,1,8,0:0:0:0:
218,56,57432,1,0,0:0:0:0:
218,56,57811,1,8,0:0:0:0:
218,56,58191,1,0,0:0:0:0:
218,56,58951,1,8,0:0:0:0:
122,137,59330,1,8,0:0:0:0:
179,125,59710,1,0,0:0:0:0:
286,133,61229,1,12,0:0:0:0:
135,145,61988,1,0,0:0:0:0:
138,162,62748,1,8,0:0:0:0:
192,197,63128,1,0,0:0:0:0:
190,189,63507,1,8,0:0:0:0:
281,124,64267,1,0,0:0:0:0:
281,124,65026,1,8,0:0:0:0:
270,138,65406,1,8,0:0:0:0:
270,138,65786,1,0,0:0:0:0:
263,268,67305,1,4,0:0:0:0:
251,151,68064,1,8,0:0:0:0:
251,151,68444,1,8,0:0:0:0:
251,151,68824,1,0,0:0:0:0:
251,151,69583,1,8,0:0:0:0:
251,151,70343,1,0,0:0:0:0:
251,151,70723,1,0,0:0:0:0:
251,151,71102,1,8,0:0:0:0:
251,151,71862,1,0,0:0:0:0:
250,157,73381,1,4,0:0:0:0:
244,222,74140,1,8,0:0:0:0:
244,222,74900,1,0,0:0:0:0:
244,222,75659,1,0,0:0:0:0:
244,222,76039,1,8,0:0:0:0:
216,188,76419,1,0,0:0:0:0:
216,188,77178,1,8,0:0:0:0:
216,188,77938,1,0,0:0:0:0:
216,188,78318,1,8,0:0:0:0:
319,110,78697,1,0,0:0:0:0:
319,110,79077,1,8,0:0:0:0:
348,197,79457,1,0,0:0:0:0:
291,107,82495,1,4,0:0:0:0:
249,173,82875,1,8,0:0:0:0:
249,173,83254,1,0,0:0:0:0:
249,173,83824,1,0,0:0:0:0:
249,173,84394,1,8,0:0:0:0:
248,173,85533,1,8,0:0:0:0:
248,173,85913,1,8,0:0:0:0:
248,173,86292,1,0,0:0:0:0:
248,173,86862,1,0,0:0:0:0:
248,173,87432,1,8,0:0:0:0:
277,186,88571,1,0,0:0:0:0:
277,186,88951,1,8,0:0:0:0:
277,186,89330,1,0,0:0:0:0:
277,186,89900,1,0,0:0:0:0:
277,186,90470,1,8,0:0:0:0:
276,185,91609,1,0,0:0:0:0:
276,185,91988,1,8,0:0:0:0:
276,185,92368,1,0,0:0:0:0:
276,185,92938,1,0,0:0:0:0:
276,186,94647,1,0,0:0:0:0:
264,184,95406,1,8,0:0:0:0:
276,186,95786,1,8,0:0:0:0:
309,153,96166,1,0,0:0:0:0:
162,75,96925,1,8,0:0:0:0:
259,158,97685,1,0,0:0:0:0:
32,144,98064,1,8,0:0:0:0:
176,160,98444,1,0,0:0:0:0:
216,216,99014,1,0,0:0:0:0:
291,144,100723,1,0,0:0:0:0:
309,172,101482,1,8,0:0:0:0:
309,172,101862,1,8,0:0:0:0:
309,172,102242,1,0,0:0:0:0:
309,172,103001,1,8,0:0:0:0:
264,186,103761,1,0,0:0:0:0:
287,161,105090,1,12,0:0:0:0:
306,206,106039,1,8,0:0:0:0:
306,206,106419,1,8,0:0:0:0:
264,141,106799,1,4,0:0:0:0:
192,71,108318,1,8,0:0:0:0:
218,56,109078,1,0,0:0:0:0:
218,56,109457,1,8,0:0:0:0:
218,56,109837,1,0,0:0:0:0:
218,56,110597,1,8,0:0:0:0:
122,137,110976,1,8,0:0:0:0:
179,125,111356,1,0,0:0:0:0:
286,133,112875,1,12,0:0:0:0:
135,145,113634,1,0,0:0:0:0:
138,162,114394,1,8,0:0:0:0:
192,197,114774,1,0,0:0:0:0:
190,189,115153,1,8,0:0:0:0:
281,124,115913,1,0,0:0:0:0:
281,124,116672,1,8,0:0:0:0:
270,138,117052,1,8,0:0:0:0:
270,138,117432,1,0,0:0:0:0:
263,268,118951,1,4,0:0:0:0:
251,151,119710,1,8,0:0:0:0:
251,151,120090,1,8,0:0:0:0:
251,151,120470,1,0,0:0:0:0:
251,151,121229,1,8,0:0:0:0:
298,210,121609,1,0,0:0:0:0:
251,151,121988,1,8,0:0:0:0:
251,151,122748,1,0,0:0:0:0:
251,151,123128,1,8,0:0:0:0:
251,151,123508,1,0,0:0:0:0:
250,157,125027,1,4,0:0:0:0:
244,222,125786,1,8,0:0:0:0:
275,214,126166,1,8,0:0:0:0:
244,222,126546,1,0,0:0:0:0:
244,222,127305,1,0,0:0:0:0:
281,208,127685,1,8,0:0:0:0:
216,188,128065,1,0,0:0:0:0:
216,188,128824,1,8,0:0:0:0:
216,188,129584,1,0,0:0:0:0:
216,188,129964,1,8,0:0:0:0:
319,110,130343,1,0,0:0:0:0:
348,197,131103,1,4,0:0:0:0:
360,193,137178,5,0,0:0:0:0:
355,189,138697,1,8,0:0:0:0:
353,228,140216,1,0,0:0:0:0:
331,167,143254,1,4,0:0:0:0:
324,165,144014,1,12,0:0:0:0:
324,165,146292,1,4,0:0:0:0:
324,165,147052,1,12,0:0:0:0:
324,165,147811,1,4,0:0:0:0:
324,165,149330,1,4,0:0:0:0:
324,165,150090,1,12,0:0:0:0:
296,208,152368,1,4,0:0:0:0:
296,208,153128,1,12,0:0:0:0:
296,208,153887,1,4,0:0:0:0:
301,207,155406,1,4,0:0:0:0:
301,207,156166,1,12,0:0:0:0:
308,204,156925,1,4,0:0:0:0:
286,174,158444,1,12,0:0:0:0:
289,169,159204,1,12,0:0:0:0:
289,169,159963,1,4,0:0:0:0:
304,177,161482,1,4,0:0:0:0:
304,177,162242,1,12,0:0:0:0:
304,177,163001,1,4,0:0:0:0:
304,177,164520,1,12,0:0:0:0:
304,177,165280,1,12,0:0:0:0:
304,177,166039,1,4,0:0:0:0:
318,184,167558,1,4,0:0:0:0:
318,184,168318,1,12,0:0:0:0:
318,184,169077,1,4,0:0:0:0:
318,184,169837,1,12,0:0:0:0:
318,184,170596,1,4,0:0:0:0:
318,184,172115,1,12,0:0:0:0:
314,200,173634,1,4,0:0:0:0:
314,200,174394,1,12,0:0:0:0:
314,200,175153,1,4,0:0:0:0:
314,200,175913,1,12,0:0:0:0:
310,204,176672,1,4,0:0:0:0:
310,204,177432,1,4,0:0:0:0:
310,204,178191,1,12,0:0:0:0:
310,203,179710,1,4,0:0:0:0:
330,181,180470,1,8,0:0:0:0:
330,181,181229,1,0,0:0:0:0:
330,181,181609,1,0,0:0:0:0:
330,181,181988,1,8,0:0:0:0:
330,181,182748,1,0,0:0:0:0:
260,219,183507,1,0,0:0:0:0:
322,182,184267,1,8,0:0:0:0:
322,182,185786,1,0,0:0:0:0:
322,182,186545,1,8,0:0:0:0:
322,182,187305,1,0,0:0:0:0:
322,182,187685,1,8,0:0:0:0:
322,182,188064,1,0,0:0:0:0:
268,158,188824,1,8,0:0:0:0:
268,158,189583,1,0,0:0:0:0:
272,154,190343,1,8,0:0:0:0:
268,146,190723,1,0,0:0:0:0:
268,146,191102,1,8,0:0:0:0:
265,158,191862,1,4,0:0:0:0:
192,71,193381,1,8,0:0:0:0:
218,56,194141,1,0,0:0:0:0:
218,56,194520,1,8,0:0:0:0:
218,56,194900,1,0,0:0:0:0:
218,56,195660,1,8,0:0:0:0:
122,137,196039,1,8,0:0:0:0:
179,125,196419,1,0,0:0:0:0:
286,133,197938,1,12,0:0:0:0:
135,145,198697,1,0,0:0:0:0:
138,162,199457,1,8,0:0:0:0:
192,197,199837,1,0,0:0:0:0:
190,189,200216,1,8,0:0:0:0:
281,124,200976,1,0,0:0:0:0:
281,124,201735,1,8,0:0:0:0:
270,138,202115,1,8,0:0:0:0:
270,138,202495,1,0,0:0:0:0:
263,268,204014,1,4,0:0:0:0:
251,151,204773,1,8,0:0:0:0:
251,151,205153,1,8,0:0:0:0:
251,151,205533,1,0,0:0:0:0:
251,151,206292,1,8,0:0:0:0:
298,210,206672,1,0,0:0:0:0:
251,151,207051,1,8,0:0:0:0:
251,151,207811,1,0,0:0:0:0:
251,151,208191,1,8,0:0:0:0:
251,151,208571,1,0,0:0:0:0:
250,157,210090,1,4,0:0:0:0:
244,222,210849,1,8,0:0:0:0:
275,214,211229,1,8,0:0:0:0:
244,222,211609,1,0,0:0:0:0:
244,222,212368,1,0,0:0:0:0:
281,208,212748,1,8,0:0:0:0:
216,188,213128,1,0,0:0:0:0:
216,188,213887,1,8,0:0:0:0:
216,188,214647,1,0,0:0:0:0:
216,188,215027,1,8,0:0:0:0:
319,110,215406,1,0,0:0:0:0:
342,163,215786,1,8,0:0:0:0:
348,197,216166,1,4,0:0:0:0:
224,216,216925,1,8,0:0:0:0:
304,142,218444,1,8,0:0:0:0:
319,195,218824,1,8,0:0:0:0:
304,142,219204,1,4,0:0:0:0:
324,171,219963,1,12,0:0:0:0:
324,171,220723,1,4,0:0:0:0:
317,181,222242,1,4,0:0:0:0:
314,198,223001,1,12,0:0:0:0:
314,198,223761,1,4,0:0:0:0:
314,198,225280,1,4,0:0:0:0:
306,210,226039,1,12,0:0:0:0:
306,210,226799,1,4,0:0:0:0:
307,201,227558,1,8,0:0:0:0:
307,201,227938,1,8,0:0:0:0:
307,201,228318,1,4,0:0:0:0:
