osu file format v14

[General]
AudioFilename: abdca123.mp3
AudioLeadIn: 0
PreviewTime: 105103
Countdown: 0
SampleSet: Soft
StackLeniency: 0.5
Mode: 0
LetterboxInBreaks: 0
WidescreenStoryboard: 0

[Editor]
Bookmarks: 27959,38931,49902,53674,60874,66359,71845,82817,94131,117102,122588,128074,150017,160988,162359,173331,178817,184302,195274
DistanceSpacing: 1
BeatDivisor: 2
GridSize: 32
TimelineZoom: 3.299999

[Metadata]
Title:Memories
TitleUnicode:Memories
Artist:ONE OK ROCK
ArtistUnicode:ONE OK ROCK
Creator:Komore
Version:Trynna's Easy
Source:
Tags:35xxxv Alternative rock post-hardcore lasse fcl namki trynna
BeatmapID:1455218
BeatmapSetID:684590

[Difficulty]
HPDrainRate:4
CircleSize:3
OverallDifficulty:3
ApproachRate:4
SliderMultiplier:0.899999999999999
SliderTickRate:1

[Events]
//Background and Video events
0,0,"memory.jpg",0,0
//Break Periods
2,131017,137725
//Storyboard Layer 0 (Background)
//Storyboard Layer 1 (Fail)
//Storyboard Layer 2 (Pass)
//Storyboard Layer 3 (Foreground)
//Storyboard Sound Samples

[TimingPoints]
6017,342.857142857143,4,2,2,40,1,0
15617,-100,4,3,1,70,0,0
15959,-100,4,3,1,70,0,0
16302,-100,4,3,1,70,0,0
16988,-100,4,3,1,80,0,0
22131,-100,4,3,2,80,0,0
22302,-100,4,3,3,80,0,0
22388,-100,4,3,4,80,0,0
22474,-100,4,3,1,80,0,0
27617,-100,4,3,2,70,0,0
27788,-100,4,3,3,60,0,0
27959,-100,4,3,1,60,0,0
28302,-100,4,3,1,60,0,0
30531,-100,4,3,3,60,0,0
30874,-100,4,3,1,60,0,0
32245,-100,4,3,4,60,0,0
32417,-100,4,3,2,60,0,0
32759,-100,4,3,3,60,0,0
33102,-100,4,3,4,60,0,0
33445,-100,4,3,1,60,0,0
36017,-100,4,3,3,60,0,0
36188,-100,4,3,1,60,0,0
38588,-100,4,3,1,60,0,0
38845,-100,4,3,1,5,0,0
38931,-100,4,3,1,60,0,0
48531,-100,4,3,1,60,0,0
48645,-100,4,3,1,5,0,0
48759,-100,4,3,1,60,0,0
48874,-100,4,3,1,5,0,0
48988,-100,4,3,1,60,0,0
49102,-100,4,3,1,5,0,0
49217,-100,4,3,1,60,0,0
49817,-100,4,3,1,5,0,0
49902,-100,4,3,1,95,0,1
52902,-100,4,3,1,5,0,1
52988,-100,4,3,1,95,0,1
58388,-100,4,3,1,5,0,1
58474,-100,4,3,1,95,0,1
60531,-100,4,3,2,95,0,1
60702,-100,4,3,3,95,0,1
60788,-100,4,3,4,95,0,1
60874,-100,4,3,1,95,0,1
65074,-100,4,3,1,5,0,1
65159,-100,4,3,1,95,0,1
71159,-100,4,3,1,95,0,1
71502,-100,4,2,2,95,0,1
71845,-100,4,3,1,80,0,0
76988,-100,4,3,2,80,0,0
77159,-100,4,3,3,80,0,0
77245,-100,4,3,4,80,0,0
77331,-100,4,3,1,80,0,0
82388,-100,4,3,1,5,0,0
82474,-100,4,2,2,60,0,0
82731,-100,4,2,2,5,0,0
82817,-100,4,3,1,60,0,0
82988,-100,4,3,1,60,0,0
85388,-100,4,3,3,60,0,0
85731,-100,4,3,1,60,0,0
86931,-100,4,3,4,60,0,0
87274,-100,4,3,2,60,0,0
87445,-100,4,3,3,60,0,0
87531,-100,4,3,4,60,0,0
88302,-100,4,3,1,60,0,0
90874,-100,4,3,3,60,0,0
91045,-100,4,3,1,60,0,0
93445,-100,4,3,2,60,0,0
93788,-100,4,3,1,60,0,0
94131,-100,4,3,1,60,0,0
103388,-100,4,3,1,90,0,0
103502,-100,4,3,1,5,0,0
103617,-100,4,3,1,90,0,0
103731,-100,4,3,1,5,0,0
103845,-100,4,3,1,90,0,0
103959,-100,4,3,1,5,0,0
104074,-100,4,3,1,60,0,0
105102,-100,4,2,2,40,0,0
105788,-100,4,3,1,60,0,0
106131,-100,4,3,1,95,0,1
109131,-100,4,3,1,5,0,1
109217,-100,4,3,1,95,0,1
114617,-100,4,3,1,5,0,1
114702,-100,4,3,1,95,0,1
116759,-100,4,3,2,95,0,1
116931,-100,4,3,3,95,0,1
117017,-100,4,3,4,95,0,1
117102,-100,4,3,1,95,0,1
121302,-100,4,3,1,5,0,1
121388,-100,4,3,1,95,0,1
127731,-100,4,3,1,95,0,1
128074,-100,4,3,1,60,0,0
133388,-100,4,2,1,60,0,0
133559,-100,4,2,1,50,0,0
139045,-100,4,2,1,50,0,0
140931,-100,4,2,1,10,0,0
141017,-100,4,2,1,15,0,0
141102,-100,4,2,1,20,0,0
141188,-100,4,2,1,25,0,0
141274,-100,4,2,1,30,0,0
141359,-100,4,2,1,35,0,0
141445,-100,4,2,1,40,0,0
141531,-100,4,2,1,45,0,0
141617,-100,4,2,1,50,0,0
141702,-100,4,2,1,55,0,0
141788,-100,4,2,1,50,0,0
143845,-100,4,2,1,30,0,0
143931,-100,4,2,1,35,0,0
144017,-100,4,2,1,40,0,0
144102,-100,4,2,1,45,0,0
144188,-100,4,2,1,50,0,0
146417,-100,4,2,1,10,0,0
146502,-100,4,2,1,15,0,0
146588,-100,4,2,1,20,0,0
146674,-100,4,2,1,25,0,0
146759,-100,4,2,1,30,0,0
146845,-100,4,2,1,35,0,0
146931,-100,4,2,1,40,0,0
147017,-100,4,2,1,45,0,0
147102,-100,4,2,1,50,0,0
147188,-100,4,2,1,55,0,0
147274,-100,4,2,1,50,0,0
149331,-100,4,2,1,60,0,0
150017,-100,4,3,1,60,0,0
150274,-100,4,3,1,5,0,0
150359,-100,4,3,1,60,0,0
151645,-100,4,3,1,5,0,0
151731,-100,4,3,1,60,0,0
154388,-100,4,3,1,5,0,0
154474,-100,4,3,1,60,0,0
155759,-100,4,3,1,5,0,0
155845,-100,4,3,1,60,0,0
157131,-100,4,3,1,5,0,0
157217,-100,4,3,1,60,0,0
159874,-100,4,3,1,5,0,0
159959,-100,4,3,1,60,0,0
160474,-100,4,3,1,70,0,0
160988,-100,4,2,2,40,0,0
161502,-100,4,2,2,50,0,0
161674,-100,4,2,2,60,0,0
161845,-100,4,2,2,70,0,0
162017,-100,4,2,2,80,0,0
162188,-100,4,2,2,90,0,0
162359,-100,4,3,1,95,0,1
165359,-100,4,3,1,5,0,1
165445,-100,4,3,1,95,0,1
170845,-100,4,3,1,5,0,1
170931,-100,4,3,1,95,0,1
172645,-100,4,3,2,95,0,1
172988,-100,4,3,3,95,0,1
173331,-100,4,3,1,95,0,1
177531,-100,4,3,1,5,0,1
177617,-100,4,3,1,95,0,1
183617,-100,4,3,2,95,0,1
183788,-100,4,3,3,95,0,1
183959,-100,4,3,4,95,0,1
184302,-100,4,3,1,80,0,0
189702,-100,4,3,1,80,0,0
189788,-100,4,3,1,80,0,0
194931,-100,4,3,1,40,0,0
195274,-100,4,3,1,5,0,0

[Colours]
Combo1 : 205,221,237
Combo2 : 225,152,108
Combo3 : 237,217,148
Combo4 : 86,128,177
Combo5 : 248,92,92
Combo6 : 219,219,219

[HitObjects]
148,56,15617,6,0,B|104:48|104:48|58:56,2,89.9999999999999,8|8|8,0:0|0:0|0:0,0:0:0:0:
316,124,16988,21,4,0:0:0:0:
380,188,17331,2,0,P|324:216|256:192,1,135,8|0,0:0|0:0,0:0:0:0:
132,148,18359,2,0,L|132:284,1,135,0|0,0:0|0:0,0:0:0:0:
80,356,19217,6,0,B|136:340|136:340|220:356,1,135,0|0,0:0|0:0,0:0:0:0:
300,336,20074,1,8,0:0:0:0:
436,336,20588,1,0,0:0:0:0:
368,220,21102,2,0,L|368:84,1,135,0|0,0:0|0:0,0:0:0:0:
296,32,21959,70,0,B|261:18|228:28|228:36|197:44|164:33,1,135,0|0,0:0|0:0,0:0:0:0:
92,88,22817,2,0,P|68:140|84:216,1,135,8|0,0:0|0:0,0:0:0:0:
140,336,23845,1,0,0:0:0:0:
264,280,24359,1,0,0:0:0:0:
336,336,24702,6,0,P|396:360|460:332,1,135,0|0,0:0|0:0,0:0:0:0:
396,268,25559,2,0,L|396:128,1,135,8|0,0:0|0:0,0:0:0:0:
292,48,26588,2,0,B|236:33|236:33|156:48,1,135,0|0,0:0|0:0,0:0:0:0:
76,80,27445,1,0,0:0:0:0:
76,216,27959,5,0,0:0:0:0:
136,284,28302,2,0,L|272:284,1,135,8|8,0:0|0:0,0:0:0:0:
332,347,29159,2,0,P|356:310|356:266,1,89.9999999999999,8|0,0:0|0:0,0:0:0:0:
436,220,29845,2,0,L|436:124,1,89.9999999999999,0|0,0:0|0:0,0:0:0:0:
364,16,30702,5,0,0:0:0:0:
300,80,31045,2,0,L|160:80,1,135,8|8,0:0|0:0,0:0:0:0:
100,16,31902,1,8,0:0:0:0:
40,136,32417,2,0,P|28:180|40:228,2,89.9999999999999,12|4|12,0:0|0:0|0:0,0:0:0:0:
116,184,33445,69,0,0:0:0:0:
208,180,33788,2,0,B|245:183|272:196|272:196|299:183|340:180,1,135,8|8,0:0|0:0,0:0:0:0:
404,240,34645,2,0,L|404:332,1,89.9999999999999,8|0,0:0|0:0,0:0:0:0:
320,364,35331,2,0,P|276:356|228:364,1,89.9999999999999,0|0,0:0|0:0,0:0:0:0:
104,320,36188,5,0,0:0:0:0:
36,264,36531,1,8,0:0:0:0:
36,132,37045,1,8,0:0:0:0:
116,92,37388,2,0,B|156:88|180:104|180:116|204:132|243:128,1,135,8|12,0:0|0:2,0:0:0:0:
316,76,38245,2,0,L|416:76,1,89.9999999999999,8|8,0:0|0:0,0:0:0:0:
472,136,38931,21,4,0:0:0:0:
451,224,39274,2,0,P|409:235|365:225,1,89.9999999999999,8|0,0:0|0:0,0:0:0:0:
292,276,39959,1,8,0:0:0:0:
216,228,40302,2,0,B|201:172|201:172|216:92,2,135,0|0|12,0:0|0:0|0:2,0:0:0:0:
172,308,41674,53,0,0:0:0:0:
100,256,42017,2,0,P|57:267|13:258,1,89.9999999999999,8|0,0:0|0:0,0:0:0:0:
55,180,42702,1,8,0:0:0:0:
131,136,43045,2,0,P|191:163|256:144,2,135,0|0|8,0:0|0:0|0:0,0:0:0:0:
196,72,44417,21,0,0:0:0:0:
280,40,44759,1,8,0:0:0:0:
348,100,45102,2,0,P|360:144|348:192,1,89.9999999999999,0|8,0:0|0:0,0:0:0:0:
376,272,45788,2,0,B|346:266|312:276|312:288|275:300|244:292,2,135,0|0|8,0:0|0:0|0:0,0:0:0:0:
456,316,47159,53,0,0:0:0:0:
456,224,47502,1,8,0:0:0:0:
380,176,47845,2,0,P|336:168|288:176,1,89.9999999999999,0|8,0:0|0:0,0:0:0:0:
208,140,48531,2,0,P|124:156|68:84,1,180,8|8,0:0|0:0,0:0:0:0:
235,52,49902,38,0,P|296:28|360:48,2,135,4|0|8,0:0|0:0|0:0,0:0:0:0:
208,140,51274,2,0,P|157:100|142:34,2,135,0|0|8,0:0|0:0|0:0,0:0:0:0:
300,140,52645,5,0,0:0:0:0:
428,268,53331,2,0,P|384:256|340:268,1,89.9999999999999,0|8,0:0|0:0,0:0:0:0:
268,320,54017,2,0,P|192:356|112:308,1,180,0|12,0:0|0:0,0:0:0:0:
192,268,55045,1,8,0:0:0:0:
144,192,55388,70,0,B|96:192|96:192|64:172|64:172|12:172,2,135,4|0|8,0:0|0:0|0:0,0:0:0:0:
208,128,56759,2,0,B|256:128|256:128|288:108|288:108|340:108,2,135,0|0|8,0:0|0:0|0:0,0:0:0:0:
140,68,58131,5,0,0:0:0:0:
316,23,58817,2,0,P|360:24|400:48,1,89.9999999999999,0|8,0:0|0:0,0:0:0:0:
484,24,59502,2,0,L|484:204,1,180,0|0,0:0|0:0,0:0:0:0:
356,328,60874,70,0,P|313:316|269:325,1,89.9999999999999,4|8,0:0|0:0,0:0:0:0:
192,284,61559,1,0,0:0:0:0:
116,332,61902,1,8,0:0:0:0:
48,272,62245,2,0,B|48:232|24:200|24:200|60:160|48:100,1,180,0|0,0:0|0:0,0:0:0:0:
16,16,63274,1,8,0:0:0:0:
104,32,63617,6,0,L|200:32,1,89.9999999999999,0|8,0:0|0:0,0:0:0:0:
268,84,64302,2,0,P|311:93|358:84,1,89.9999999999999,0|8,0:0|0:0,0:0:0:0:
436,43,64988,1,0,0:0:0:0:
436,224,65674,1,12,0:0:0:0:
468,308,66017,1,8,0:0:0:0:
376,291,66359,70,0,P|316:319|253:300,2,135,4|0|8,0:0|0:0|0:0,0:0:0:0:
312,228,67731,2,0,P|248:208|189:236,2,135,0|0|8,0:0|0:0|0:0,0:0:0:0:
380,168,69102,5,0,0:0:0:0:
256,36,69788,1,0,0:0:0:0:
184,92,70131,2,0,L|88:92,1,89.9999999999999,8|0,0:0|0:0,0:0:0:0:
32,156,70817,1,8,0:0:0:0:
92,224,71159,1,8,0:0:0:0:
256,300,71845,69,4,0:0:0:0:
339,263,72188,2,0,P|400:288|464:264,1,135,8|8,0:0|0:0,0:0:0:0:
392,152,73217,2,0,B|340:136|340:136|260:151,1,135,0|0,0:0|0:0,0:0:0:0:
184,104,74074,6,0,L|48:104,1,135,2|4,0:0|0:0,0:0:0:0:
8,184,74931,1,8,0:0:0:0:
8,320,75445,1,8,0:0:0:0:
124,256,75959,2,0,B|192:272|190:243|259:256,1,135,0|0,0:0|0:0,0:0:0:0:
340,288,76817,70,0,P|368:224|344:168,1,135,0|4,0:0|0:0,0:0:0:0:
292,96,77674,1,8,0:0:0:0:
160,116,78188,1,8,0:0:0:0:
44,52,78702,2,0,L|44:196,1,135,0|0,0:0|0:0,0:0:0:0:
88,268,79559,6,0,B|121:278|155:272|155:260|186:257|224:268,1,135,2|4,0:0|0:0,0:0:0:0:
300,312,80417,1,8,0:0:0:0:
432,292,80931,1,8,0:0:0:0:
344,188,81445,2,0,P|338:142|344:92,1,89.9999999999999,0|8,0:0|0:0,0:0:0:0:
384,20,82131,1,8,0:0:0:0:
220,96,82817,5,4,0:0:0:0:
160,28,83159,2,0,L|68:28,1,89.9999999999999,8|0,0:0|0:0,0:0:0:0:
12,96,83845,1,8,0:0:0:0:
60,172,84188,2,0,B|48:224|48:224|60:308,2,135,0|0|12,0:0|0:0|0:2,0:0:0:0:
148,148,85559,5,0,0:0:0:0:
220,204,85902,2,0,L|356:204,1,135,8|8,0:0|0:0,0:0:0:0:
492,208,86931,1,0,0:0:0:0:
468,120,87274,2,0,P|391:80|315:121,1,180,8|8,0:0|0:0,0:0:0:0:
228,144,88302,69,0,0:0:0:0:
160,84,88645,2,0,P|116:73|72:81,2,89.9999999999999,8|0|8,0:0|0:0|0:0,0:0:0:0:
116,164,89674,2,0,L|116:300,1,135,0|0,0:0|0:0,0:0:0:0:
232,364,90702,1,0,0:0:0:0:
296,300,91045,5,0,0:0:0:0:
368,352,91388,2,0,P|429:376|491:352,1,135,8|8,0:0|0:0,0:0:0:0:
432,284,92245,1,8,0:0:0:0:
432,148,92759,1,8,0:0:0:0:
356,96,93102,2,0,P|308:87|264:96,1,89.9999999999999,8|8,0:0|0:0,0:0:0:0:
188,132,93788,38,0,L|92:132,1,89.9999999999999,4|8,0:0|0:0,0:0:0:0:
68,216,94474,2,0,L|164:216,1,89.9999999999999,0|8,0:0|0:0,0:0:0:0:
232,264,95159,2,0,B|279:247|321:253|321:277|367:286|412:264,1,180,0|0,0:0|0:0,0:0:0:0:
472,204,96188,1,12,0:2:0:0:
436,120,96531,69,0,0:0:0:0:
357,158,96874,2,0,P|347:114|360:72,1,89.9999999999999,8|0,0:0|0:0,0:0:0:0:
288,20,97559,2,0,L|196:20,1,89.9999999999999,8|0,0:0|0:0,0:0:0:0:
120,68,98245,1,8,0:0:0:0:
39,24,98588,2,0,P|12:58|5:102,1,89.9999999999999,0|8,0:0|0:0,0:0:0:0:
24,192,99274,5,0,0:0:0:0:
92,248,99617,2,0,L|184:248,1,89.9999999999999,8|0,0:0|0:0,0:0:0:0:
252,192,100302,1,8,0:0:0:0:
320,252,100645,2,0,P|296:208|320:80,1,180,0|0,0:0|0:0,0:0:0:0:
396,44,101674,1,8,0:0:0:0:
476,84,102017,69,0,0:0:0:0:
428,160,102359,2,0,L|428:252,1,89.9999999999999,8|0,0:0|0:0,0:0:0:0:
476,324,103045,1,8,0:0:0:0:
392,352,103388,70,0,B|328:326|328:326|212:356,1,180,8|8,0:0|0:0,0:0:0:0:
64,288,105102,2,0,P|108:300|152:288,2,89.9999999999999,0|0|8,0:0|0:0|0:0,0:0:0:0:
108,208,106131,22,0,L|108:72,2,135,0|0|8,0:0|0:0|0:0,0:0:0:0:
192,176,107502,2,0,B|232:164|260:168|260:184|289:189|327:176,2,135,0|0|8,0:0|0:0|0:0,0:0:0:0:
228,260,108874,5,0,0:0:0:0:
404,216,109559,2,0,P|414:172|398:131,1,89.9999999999999,0|8,0:0|0:0,0:0:0:0:
432,48,110245,2,0,L|342:48,1,89.9999999999999,0|8,0:0|0:0,0:0:0:0:
256,16,110931,1,12,0:0:0:0:
176,56,111274,1,8,0:0:0:0:
96,16,111617,70,0,P|56:68|56:140,2,135,4|0|8,0:0|0:0|0:0,0:0:0:0:
176,56,112988,2,0,L|176:192,2,135,0|0|8,0:0|0:0|0:0,0:0:0:0:
256,16,114359,5,0,0:0:0:0:
376,148,115045,2,0,P|388:192|378:236,1,89.9999999999999,0|8,0:0|0:0,0:0:0:0:
408,320,115731,2,0,B|335:340|335:340|228:320,1,180,2|2,0:0|0:0,0:0:0:0:
52,320,117102,69,4,0:0:0:0:
116,256,117445,2,0,P|122:209|116:164,1,89.9999999999999,8|0,0:0|0:0,0:0:0:0:
60,96,118131,1,8,0:0:0:0:
144,60,118474,2,0,P|230:32|316:56,1,180,0|0,0:0|0:0,0:0:0:0:
400,88,119502,1,8,0:0:0:0:
332,148,119845,5,0,0:0:0:0:
396,212,120188,2,0,L|396:304,1,89.9999999999999,8|0,0:0|0:0,0:0:0:0:
336,372,120874,1,8,0:0:0:0:
256,328,121217,1,0,0:0:0:0:
76,328,121902,2,0,P|66:280|76:236,1,89.9999999999999,0|8,0:0|0:0,0:0:0:0:
116,160,122588,70,0,P|132:92|116:24,2,135,4|0|8,0:0|0:0|0:0,0:0:0:0:
172,232,123959,2,0,B|224:248|224:248|303:233,2,135,0|0|8,0:0|0:0|0:0,0:0:0:0:
228,160,125331,5,0,0:0:0:0:
408,160,126017,1,0,0:0:0:0:
488,116,126359,2,0,P|499:158|490:202,1,89.9999999999999,8|0,0:0|0:0,0:0:0:0:
508,292,127045,2,0,P|465:303|421:294,1,89.9999999999999,8|0,0:0|0:0,0:0:0:0:
344,340,127731,1,8,0:0:0:0:
256,192,128074,12,0,130817,0:0:0:0:
144,180,139045,22,0,P|188:192|232:176,1,89.9999999999999,0|8,0:0|0:0,0:0:0:0:
224,88,139731,2,0,P|180:76|136:92,2,89.9999999999999,0|8|0,0:0|0:0|0:0,0:0:0:0:
300,136,140759,1,8,0:0:0:0:
392,136,141102,2,0,B|420:136|420:136|460:144|460:144|484:144,1,89.9999999999999,0|8,0:0|0:0,0:0:0:0:
480,236,141788,22,0,P|412:248|404:352,1,180,0|0,0:0|0:0,0:0:0:0:
316,380,142817,1,8,0:0:0:0:
232,352,143159,2,0,L|140:352,1,89.9999999999999,0|8,0:0|0:0,0:0:0:0:
96,272,143845,2,0,P|88:227|96:180,1,89.9999999999999,2|8,0:0|0:0,0:0:0:0:
148,112,144531,1,0,0:0:0:0:
204,180,144874,1,8,0:0:0:0:
272,120,145217,2,0,L|364:120,1,89.9999999999999,0|8,0:0|0:0,0:0:0:0:
444,84,145902,53,0,0:0:0:0:
444,264,146588,1,2,0:0:0:0:
372,316,146931,1,8,0:0:0:0:
296,268,147274,2,0,P|208:262|143:321,1,180,0|0,0:0|0:0,0:0:0:0:
64,276,148302,1,8,0:0:0:0:
116,196,148645,2,0,L|116:104,1,89.9999999999999,0|8,0:0|0:0,0:0:0:0:
184,44,149331,38,0,B|276:20|264:92|364:64,1,180,8|4,0:0|0:0,0:0:0:0:
440,36,150359,1,0,0:0:0:0:
464,124,150702,2,0,L|464:220,1,89.9999999999999,8|0,0:0|0:0,0:0:0:0:
408,284,151388,2,0,B|352:288|324:264|324:264|288:292|232:288,1,180,0|8,0:0|0:0,0:0:0:0:
160,332,152417,1,0,0:0:0:0:
80,296,152759,70,0,P|72:249|80:204,1,89.9999999999999,0|0,0:0|0:0,0:0:0:0:
36,128,153445,2,0,P|72:98|115:82,1,89.9999999999999,8|0,0:0|0:0,0:0:0:0:
160,4,154131,1,0,0:0:0:0:
228,64,154474,1,0,0:0:0:0:
312,32,154817,6,0,B|384:12|384:12|492:32,1,180,8|4,0:0|0:0,0:0:0:0:
452,112,155845,1,0,0:0:0:0:
492,192,156188,2,0,L|492:284,1,89.9999999999999,8|0,0:0|0:0,0:0:0:0:
420,340,156874,2,0,L|324:332,1,89.9999999999999,0|0,0:0|0:0,0:0:0:0:
244,360,157559,1,8,0:0:0:0:
244,268,157902,1,0,0:0:0:0:
180,204,158245,70,0,P|121:165|25:205,1,180,0|8,0:0|0:0,0:0:0:0:
100,257,159274,1,0,0:0:0:0:
56,337,159617,2,0,P|98:348|144:337,1,89.9999999999999,0|0,0:0|0:0,0:0:0:0:
199,268,160302,2,0,L|243:268,1,45,8|6,0:0|0:0,0:0:0:0:
368,324,160988,2,0,P|464:280|364:220,1,270,0|2,0:0|0:0,0:0:0:0:
296,163,162359,6,0,P|231:182|168:162,2,135,4|0|8,0:0|0:0|0:0,0:0:0:0:
296,72,163731,2,0,P|231:53|168:73,2,135,0|0|8,0:0|0:0|0:0,0:0:0:0:
368,124,165102,5,0,0:0:0:0:
256,264,165788,2,0,L|166:264,1,89.9999999999999,0|8,0:0|0:0,0:0:0:0:
80,296,166474,2,0,L|80:200,1,89.9999999999999,0|8,0:0|0:0,0:0:0:0:
20,140,167159,1,0,0:0:0:0:
100,96,167502,1,8,0:0:0:0:
174,151,167845,70,0,P|240:124|302:150,2,135,0|0|8,0:0|0:0|0:0,0:0:0:0:
240,212,169217,2,0,L|240:352,2,135,0|0|8,0:0|0:0|0:0,0:0:0:0:
328,224,170588,5,0,0:0:0:0:
428,76,171274,2,0,P|383:65|336:76,1,89.9999999999999,0|8,0:0|0:0,0:0:0:0:
256,40,171959,2,0,B|184:68|184:68|84:45,1,180,4|0,0:0|0:0,0:0:0:0:
24,216,173331,70,0,P|66:208|116:216,1,89.9999999999999,4|8,0:0|0:0,0:0:0:0:
176,280,174017,2,0,P|168:324|176:372,1,89.9999999999999,0|8,0:0|0:0,0:0:0:0:
256,328,174702,1,0,0:0:0:0:
336,368,175045,1,8,0:0:0:0:
404,308,175388,2,0,L|404:216,1,89.9999999999999,0|8,0:0|0:0,0:0:0:0:
456,144,176074,6,0,P|388:112|296:152,1,180,0|0,0:0|0:0,0:0:0:0:
216,192,177102,1,8,0:0:0:0:
136,152,177445,2,0,L|136:60,1,89.9999999999999,0|8,0:0|0:0,0:0:0:0:
48,84,178131,2,0,L|48:176,1,89.9999999999999,2|8,0:0|0:0,0:0:0:0:
80,260,178817,70,0,B|116:248|144:256|144:272|172:284|212:272,2,135,4|0|8,0:0|0:0|0:0,0:0:0:0:
80,352,180188,2,0,P|150:373|208:356,2,135,0|0|8,0:0|0:0|0:0,0:0:0:0:
0,308,181559,5,0,0:0:0:0:
48,136,182245,2,0,L|148:136,1,89.9999999999999,0|8,0:0|0:0,0:0:0:0:
212,88,182931,2,0,P|256:88|296:112,1,89.9999999999999,0|8,0:0|0:0,0:0:0:0:
328,196,183617,2,0,B|321:239|321:239|328:288,1,89.9999999999999,0|8,0:0|0:0,0:0:0:0:
416,308,184302,70,0,P|460:248|400:160,1,180,4|0,0:0|0:0,0:0:0:0:
388,80,185331,1,8,0:0:0:0:
324,20,185674,2,0,L|132:20,1,180,0|0,0:0|0:0,0:0:0:0:
64,60,186702,1,8,0:0:0:0:
92,144,187045,5,4,0:0:0:0:
88,324,187731,1,0,0:0:0:0:
168,368,188074,2,0,L|260:368,1,89.9999999999999,8|0,0:0|0:0,0:0:0:0:
288,284,188759,2,0,L|196:284,1,89.9999999999999,8|0,0:0|0:0,0:0:0:0:
208,104,189788,70,0,P|263:64|358:109,1,180,4|0,0:0|0:0,0:0:0:0:
428,164,190817,1,8,0:0:0:0:
428,252,191159,2,0,B|384:276|340:268|344:240|296:232|254:249,1,180,0|0,0:0|0:0,0:0:0:0:
176,296,192188,1,8,0:0:0:0:
108,236,192531,6,0,L|108:56,1,180,0|0,0:0|0:0,0:0:0:0:
188,16,193559,1,8,0:0:0:0:
256,76,193902,2,0,L|348:76,1,89.9999999999999,0|8,0:0|0:0,0:0:0:0:
432,56,194588,2,0,P|435:78|432:102,2,45,0|0|12,0:0|0:0|0:2,0:0:0:0:
