osu file format v14

[General]
AudioFilename: abdca123.mp3
AudioLeadIn: 0
PreviewTime: 105103
Countdown: 0
SampleSet: None
StackLeniency: 0.5
Mode: 0
LetterboxInBreaks: 0
WidescreenStoryboard: 0

[Editor]
Bookmarks: 27959,38931,49902,53674,60874,66359,71845,82817,94131,117102,122588,128074,150017,160988,162359,173331,178817,184302,195274
DistanceSpacing: 0.7
BeatDivisor: 4
GridSize: 4
TimelineZoom: 1.7

[Metadata]
Title:Memories
TitleUnicode:Memories
Artist:ONE OK ROCK
ArtistUnicode:ONE OK ROCK
Creator:Komore
Version:Normal
Source:
Tags:35xxxv Alternative rock post-hardcore lasse fcl namki trynna
BeatmapID:1454558
BeatmapSetID:684590

[Difficulty]
HPDrainRate:4
CircleSize:3.5
OverallDifficulty:5
ApproachRate:5.5
SliderMultiplier:1.2
SliderTickRate:1

[Events]
//Background and Video events
0,0,"memory.jpg",0,0
//Break Periods
2,73417,81692
2,129645,137920
//Storyboard Layer 0 (Background)
//Storyboard Layer 1 (Fail)
//Storyboard Layer 2 (Pass)
//Storyboard Layer 3 (Foreground)
//Storyboard Sound Samples

[TimingPoints]
6017,342.857142857143,4,3,1,70,1,0
16988,-100,4,3,1,80,0,0
22131,-100,4,3,2,80,0,0
22302,-100,4,3,3,80,0,0
22474,-100,4,3,1,80,0,0
27959,-100,4,3,1,60,0,0
32245,-100,4,3,4,60,0,0
32417,-100,4,3,2,60,0,0
32588,-100,4,3,3,60,0,0
32759,-100,4,3,4,60,0,0
33445,-100,4,3,1,60,0,0
38931,-100,4,3,1,70,0,0
48531,-100,4,3,1,90,0,0
49902,-100,4,3,1,95,0,0
60531,-100,4,3,3,95,0,0
60702,-100,4,3,4,95,0,0
60874,-100,4,3,1,95,0,0
71502,-100,4,2,2,95,0,0
71845,-100,4,3,1,95,0,0
73217,-100,4,2,2,95,0,0
82817,-100,4,3,1,60,0,0
87102,-100,4,3,4,60,0,0
87274,-100,4,3,2,60,0,0
87445,-100,4,3,3,60,0,0
87617,-100,4,3,4,60,0,0
88302,-100,4,3,1,60,0,0
103388,-100,4,3,1,90,0,0
105102,-100,4,2,2,40,0,0
105788,-100,4,3,1,60,0,0
106131,-100,4,3,1,95,0,0
116759,-100,4,3,3,95,0,0
116931,-100,4,3,4,95,0,0
117102,-100,4,3,1,95,0,0
129445,-100,4,2,2,95,0,0
139045,-100,4,2,1,60,0,0
149902,-100,4,2,1,5,0,0
150017,-100,4,3,1,80,0,0
160474,-100,4,3,6,100,0,0
160645,-100,4,3,4,60,0,0
160988,-100,4,2,2,60,0,0
162359,-100,4,3,1,95,0,0
172988,-100,4,3,3,95,0,0
173159,-100,4,3,4,95,0,0
173331,-100,4,3,1,95,0,0
184302,-100,4,3,1,80,0,0
194931,-100,4,3,1,40,0,0

[Colours]
Combo1 : 205,221,237
Combo2 : 225,152,108
Combo3 : 237,217,148
Combo4 : 86,128,177
Combo5 : 248,92,92
Combo6 : 219,219,219

[HitObjects]
71,188,15617,6,0,B|219:164|160:264|304:240,1,240,8|8,0:0|0:0,0:0:0:0:
448,173,16988,22,0,P|464:108|422:53,1,120,4|8,0:0|0:0,0:0:0:0:
400,48,17502,1,0,0:0:0:0:
400,48,17674,2,0,L|333:62,1,60,0|0,0:0|0:0,0:0:0:0:
305,83,18017,1,8,0:0:0:0:
225,56,18359,2,0,B|240:136|240:136|205:167,1,120,0|8,0:0|0:0,0:0:0:0:
173,181,18874,1,0,0:0:0:0:
173,181,19045,2,0,L|100:173,1,60,0|2,0:0|0:0,0:0:0:0:
74,190,19388,2,0,P|65:228|69:254,1,60,8|2,0:0|0:0,0:0:0:0:
85,286,19731,5,0,0:0:0:0:
157,329,20074,2,0,P|189:336|225:324,1,60,8|0,0:0|0:0,0:0:0:0:
248,304,20417,1,0,0:0:0:0:
248,304,20588,2,0,L|237:239,2,60,2|8|0,0:0|0:0|0:0,0:0:0:0:
285,324,21102,2,0,B|369:338|369:338|420:311,1,120,0|8,0:0|0:0,0:0:0:0:
421,285,21617,1,0,0:0:0:0:
421,285,21788,2,0,L|432:210,1,60,0|2,0:0|0:0,0:0:0:0:
411,187,22131,1,4,0:0:0:0:
346,133,22474,70,0,L|217:114,1,120,4|8,0:0|0:0,0:0:0:0:
185,113,22988,1,0,0:0:0:0:
185,113,23159,2,0,B|173:137|173:137|180:174,1,60,0|0,0:0|0:0,0:0:0:0:
194,209,23502,2,0,L|184:274,1,60,8|0,0:0|0:0,0:0:0:0:
154,297,23845,1,0,0:0:0:0:
224,343,24188,2,0,P|261:333|286:335,1,60,8|0,0:0|0:0,0:0:0:0:
320,351,24531,1,0,0:0:0:0:
320,351,24702,2,0,L|327:274,2,60,2|8|2,0:0|0:0|0:0,0:0:0:0:
357,370,25217,5,0,0:0:0:0:
429,328,25559,2,0,P|449:288|412:205,1,120,8|0,0:0|0:0,0:0:0:0:
395,192,26074,1,2,0:0:0:0:
395,192,26245,2,0,L|321:181,1,60,8|0,0:0|0:0,0:0:0:0:
294,191,26588,1,0,0:0:0:0:
242,124,26931,2,0,P|213:114|169:125,1,60,8|0,0:0|0:0,0:0:0:0:
146,134,27274,2,0,L|74:119,2,60,0|0|12,0:0|0:0|0:0,0:0:0:0:
204,195,27959,5,0,0:0:0:0:
150,259,28302,2,0,B|67:272|67:272|34:258,1,120,8|0,0:0|0:0,0:0:0:0:
9,223,28817,1,8,0:0:0:0:
55,152,29159,2,0,P|91:143|131:154,1,60,8|0,0:0|0:0,0:0:0:0:
150,165,29502,2,0,B|226:174|226:174|286:144,1,120,0|0,0:0|0:0,0:0:0:0:
298,128,30017,1,0,0:0:0:0:
298,128,30188,2,0,L|303:55,1,60,0|8,0:0|0:0,0:0:0:0:
343,60,30531,6,0,P|396:78|396:156,1,120,2|0,0:2|0:0,0:0:0:0:
381,168,31045,1,8,0:0:0:0:
335,238,31388,2,0,L|349:308,2,60,0|8|0,0:0|0:0|0:0,0:0:0:0:
302,211,31902,1,8,0:0:0:0:
302,211,32074,2,0,B|269:203|269:203|220:219,1,60,0|4,0:0|0:0,0:0:0:0:
204,224,32417,1,12,0:0:0:0:
136,275,32759,2,0,P|102:281|69:271,2,60,4|6|12,0:0|0:0|0:0,0:0:0:0:
103,197,33445,69,0,0:0:0:0:
158,134,33788,2,0,P|216:115|287:155,1,120,8|0,0:0|0:0,0:0:0:0:
303,158,34302,1,8,0:0:0:0:
337,234,34645,2,0,L|327:310,1,60,8|0,0:0|0:0,0:0:0:0:
294,317,34988,2,0,B|236:292|236:292|183:315,1,120,0|0,0:0|0:0,0:0:0:0:
144,328,35502,1,0,0:0:0:0:
144,328,35674,2,0,L|58:318,1,60,0|8,0:0|0:0,0:0:0:0:
52,293,36017,6,0,B|39:231|39:231|59:165,1,120,2|0,0:2|0:0,0:0:0:0:
81,143,36531,1,8,0:0:0:0:
129,72,36874,2,0,L|120:-3,2,60,0|8|2,0:0|0:0|0:0,0:0:0:0:
160,99,37388,1,8,0:0:0:0:
160,99,37559,2,0,L|229:92,1,60,0|0,0:0|0:0,0:0:0:0:
254,116,37902,2,0,B|285:128|285:128|320:115,1,60,12|0,0:2|0:0,0:0:0:0:
335,85,38245,2,0,L|321:12,2,60,2|2|8,0:0|0:0|0:0,0:0:0:0:
394,144,38931,22,0,P|416:177|397:263,1,120,4|8,0:0|0:0,0:0:0:0:
375,283,39445,2,0,L|312:270,1,60,0|0,0:0|0:0,0:0:0:0:
257,213,39959,2,0,L|190:217,1,60,0|8,0:0|0:0,0:0:0:0:
169,248,40302,2,0,B|124:264|124:264|32:241,1,120,0|8,0:0|0:0,0:0:0:0:
16,225,40817,1,0,0:0:0:0:
16,225,40988,2,0,L|9:157,1,60,0|0,0:0|0:0,0:0:0:0:
3,123,41331,1,8,0:0:0:0:
69,71,41674,54,0,P|116:48|186:66,1,120,0|8,0:0|0:0,0:0:0:0:
211,89,42188,2,0,L|286:84,1,60,0|0,0:0|0:0,0:0:0:0:
346,47,42702,2,0,P|354:78|345:127,1,60,0|8,0:0|0:0,0:0:0:0:
334,143,43045,2,0,P|413:140|449:192,1,120,0|8,0:0|0:0,0:0:0:0:
454,204,43559,1,2,0:0:0:0:
454,204,43731,2,0,L|528:197,2,60,0|0|8,0:0|0:0|0:0,0:0:0:0:
383,249,44417,22,0,P|326:241|252:234,1,120,0|8,0:0|0:0,0:0:0:0:
227,255,44931,1,0,0:0:0:0:
227,255,45102,2,0,B|207:213|207:213|223:115,1,120,0|0,0:0|0:0,0:0:0:0:
289,94,45788,2,0,P|348:72|411:110,1,120,0|8,0:0|0:0,0:0:0:0:
426,124,46302,1,0,0:0:0:0:
426,124,46474,2,0,L|414:194,1,60,0|0,0:0|0:0,0:0:0:0:
444,214,46817,1,12,0:2:0:0:
374,260,47159,54,0,B|324:253|324:253|298:263|298:263|233:257,1,120,0|8,0:0|0:0,0:0:0:0:
219,239,47674,1,0,0:0:0:0:
219,239,47845,2,0,P|201:191|235:116,1,120,0|8,0:0|0:0,0:0:0:0:
303,105,48531,2,0,B|476:76|476:76|435:95|434:152,1,240,8|8,0:0|0:0,0:0:0:0:
486,287,49902,38,0,P|429:246|366:273,1,120,4|8,0:0|0:0,0:0:0:0:
347,276,50417,2,0,L|211:265,1,120,0|0,0:0|0:0,0:0:0:0:
196,295,50931,1,8,0:0:0:0:
134,238,51274,2,0,B|109:197|109:197|123:108,1,120,0|8,0:0|0:0,0:0:0:0:
156,103,51788,2,0,P|215:95|275:89,1,120,0|0,0:0|0:0,0:0:0:0:
315,102,52302,2,0,P|326:135|319:167,1,60,8|0,0:0|0:0,0:0:0:0:
298,194,52645,6,0,B|381:177|381:177|431:205,1,120,0|8,0:0|0:0,0:0:0:0:
453,267,53331,2,0,L|445:343,1,60,0|0,0:0|0:0,0:0:0:0:
413,352,53674,2,0,P|371:337|338:347,1,60,8|0,0:0|0:0,0:0:0:0:
319,357,54017,2,0,L|200:344,1,120,0|8,0:0|0:0,0:0:0:0:
137,287,54702,2,0,P|128:248|137:209,1,60,12|2,0:0|0:0,0:0:0:0:
155,194,55045,2,0,L|149:124,1,60,8|2,0:0|0:0,0:0:0:0:
179,104,55388,70,0,B|258:90|232:126|296:114,1,120,4|8,0:0|0:0,0:0:0:0:
332,93,55902,2,0,P|326:148|319:218,1,120,0|0,0:0|0:0,0:0:0:0:
342,247,56417,1,8,0:0:0:0:
411,293,56759,2,0,P|352:331|290:310,1,120,0|8,0:0|0:0,0:0:0:0:
272,295,57274,2,0,P|213:288|167:323,1,120,0|0,0:0|0:0,0:0:0:0:
139,355,57788,2,0,L|72:348,1,60,8|0,0:0|0:0,0:0:0:0:
47,321,58131,6,0,B|27:259|27:259|53:198,1,120,0|8,0:0|0:0,0:0:0:0:
111,152,58817,2,0,L|170:157,1,60,0|0,0:0|0:0,0:0:0:0:
208,138,59159,2,0,L|281:143,1,60,8|0,0:0|0:0,0:0:0:0:
302,166,59502,2,0,P|350:178|407:133,2,120,4|8|8,0:0|0:0|0:0,0:0:0:0:
242,225,60531,2,0,B|234:253|234:253|245:302,1,60,0|0,0:0|0:0,0:0:0:0:
264,317,60874,70,0,L|388:303,1,120,4|8,0:0|0:0,0:0:0:0:
421,286,61388,1,0,0:0:0:0:
421,286,61559,2,0,P|432:232|399:169,1,120,0|8,0:0|0:0,0:0:0:0:
365,160,62074,2,0,L|376:82,1,60,0|0,0:0|0:0,0:0:0:0:
345,69,62417,1,0,0:0:0:0:
345,69,62588,1,8,0:0:0:0:
268,104,62931,2,0,L|193:95,1,60,0|0,0:0|0:0,0:0:0:0:
170,114,63274,2,0,L|103:109,1,60,8|0,0:0|0:0,0:0:0:0:
73,89,63617,6,0,B|95:135|95:135|73:223,1,120,0|8,0:0|0:0,0:0:0:0:
59,239,64131,1,0,0:0:0:0:
59,239,64302,2,0,B|112:233|112:233|134:246|134:246|192:243,1,120,0|8,0:0|0:0,0:0:0:0:
214,228,64817,1,0,0:0:0:0:
263,295,65159,2,0,P|335:318|377:292,1,120,0|0,0:0|0:0,0:0:0:0:
408,279,65674,1,4,0:0:0:0:
408,279,65845,2,0,L|476:269,2,60,2|8|2,0:0|0:0|0:0,0:0:0:0:
378,248,66359,70,0,B|367:217|367:217|392:120,1,120,4|8,0:0|0:0,0:0:0:0:
348,118,66874,2,0,P|289:81|237:103,1,120,0|0,0:0|0:0,0:0:0:0:
226,133,67388,1,8,0:0:0:0:
170,196,67731,2,0,B|40:184,1,120,0|8,0:0|0:0,0:0:0:0:
23,152,68245,2,0,P|68:99|120:111,1,120,0|0,0:0|0:0,0:0:0:0:
141,136,68759,2,0,L|209:129,1,60,8|0,0:0|0:0,0:0:0:0:
239,113,69102,6,0,B|256:199|256:199|229:250,2,120,0|8|0,0:0|0:0|0:0,0:0:0:0:
286,43,70131,2,0,L|352:47,1,60,8|0,0:0|0:0,0:0:0:0:
379,71,70474,2,0,P|394:104|390:137,1,60,0|2,0:0|0:0,0:0:0:0:
380,167,70817,2,0,P|451:179|472:236,1,120,8|8,0:0|0:0,0:0:0:0:
347,330,71845,69,4,0:0:0:0:
256,192,71931,12,0,73217,0:0:0:0:
85,312,82817,21,0,0:0:0:0:
151,260,83159,2,0,B|178:232|178:232|152:137,1,120,8|0,0:0|0:0,0:0:0:0:
187,124,83674,1,8,0:0:0:0:
187,124,83845,2,0,L|262:133,1,60,0|8,0:0|0:0,0:0:0:0:
285,115,84188,2,0,B|340:96|340:96|405:118,1,120,0|8,0:0|0:0,0:0:0:0:
430,142,84702,1,0,0:0:0:0:
463,219,85045,1,0,0:0:0:0:
421,292,85388,6,0,P|366:294|298:298,1,120,2|0,0:2|0:0,0:0:0:0:
267,324,85902,2,0,L|196:317,1,60,8|0,0:0|0:0,0:0:0:0:
129,286,86417,2,0,L|62:295,2,60,8|0|8,0:0|0:0|0:0,0:0:0:0:
153,251,86931,1,4,0:0:0:0:
153,251,87102,2,0,B|165:205|165:205|145:119,1,120,4|6,0:0|0:0,0:0:0:0:
147,92,87617,1,4,0:0:0:0:
147,92,87788,2,0,L|215:84,1,60,4|12,0:0|0:0,0:0:0:0:
284,116,88302,69,0,0:0:0:0:
345,58,88645,2,0,P|367:101|338:181,1,120,8|0,0:0|0:0,0:0:0:0:
342,209,89159,1,8,0:0:0:0:
342,209,89331,2,0,L|351:272,1,60,0|8,0:0|0:0,0:0:0:0:
334,307,89674,2,0,P|259:286|206:309,1,120,0|8,0:0|0:0,0:0:0:0:
187,323,90188,1,0,0:0:0:0:
104,338,90531,1,0,0:0:0:0:
41,281,90874,6,0,B|28:240|28:240|52:149,1,120,2|0,0:2|0:0,0:0:0:0:
75,134,91388,2,0,L|69:72,1,60,8|0,0:0|0:0,0:0:0:0:
140,29,91902,1,8,0:0:0:0:
140,29,92074,2,0,L|201:22,1,60,0|8,0:0|0:0,0:0:0:0:
228,53,92417,1,0,0:0:0:0:
228,53,92588,2,0,L|214:178,1,120,0|0,0:0|0:0,0:0:0:0:
241,204,93102,2,0,P|286:212|321:197,2,60,2|2|0,0:0|0:0|0:0,0:0:0:0:
184,266,93788,22,0,P|137:283|69:246,1,120,4|8,0:0|0:0,0:0:0:0:
41,231,94302,2,0,L|47:171,1,60,0|0,0:0|0:0,0:0:0:0:
25,134,94645,1,8,0:0:0:0:
99,95,94988,1,8,0:0:0:0:
99,95,95159,2,0,L|226:82,1,120,0|8,0:0|0:0,0:0:0:0:
258,70,95674,1,0,0:0:0:0:
258,70,95845,2,0,L|318:79,1,60,0|0,0:0|0:0,0:0:0:0:
356,94,96188,1,8,0:0:0:0:
435,65,96531,54,0,B|458:143|458:143|424:194,1,120,4|8,0:2|0:0,0:0:0:0:
413,210,97045,2,0,L|340:197,1,60
291,145,97559,2,0,P|260:139|222:150,1,60,0|8,0:0|0:0,0:0:0:0:
202,174,97902,2,0,L|208:243,2,60,0|0|8,0:0|0:0|0:0,0:0:0:0:
162,158,98417,1,2,0:0:0:0:
162,158,98588,2,0,B|131:150|131:150|87:163,1,60,0|0,0:0|0:0,0:0:0:0:
70,182,98931,1,8,0:0:0:0:
14,119,99274,22,0,P|53:62|116:71,1,120,0|8,0:0|0:0,0:0:0:0:
136,79,99788,1,0,0:0:0:0:
136,79,99959,2,0,L|257:67,1,120,0|0,0:0|0:0,0:0:0:0:
315,126,100645,2,0,B|324:161|324:161|317:199,1,60,0|0,0:0|0:0,0:0:0:0:
294,217,100988,2,0,L|290:292,1,60,8|0,0:0|0:0,0:0:0:0:
307,315,101331,2,0,L|374:311,2,60,0|0|8,0:0|0:0|0:0,0:0:0:0:
238,364,102017,54,0,L|103:349,1,120,4|8,0:2|0:0,0:0:0:0:
83,327,102531,1,0,0:0:0:0:
83,327,102702,2,0,P|75:287|89:259,1,60,0|0,0:0|0:0,0:0:0:0:
107,236,103045,1,8,0:0:0:0:
182,199,103388,2,0,B|225:188|278:200|278:200|308:182|308:182|345:222|412:215,1,240,0|8,0:0|0:0,0:0:0:0:
406,215,105102,6,0,P|416:149|429:86,2,120,0|0|8,0:0|0:0|0:0,0:0:0:0:
456,282,106131,22,0,P|412:301|334:256,1,120,4|8,0:0|0:0,0:0:0:0:
316,247,106645,2,0,L|196:260,1,120,0|0,0:0|0:0,0:0:0:0:
168,291,107159,1,8,0:0:0:0:
111,228,107502,2,0,B|82:185|82:185|101:96,1,120,0|8,0:0|0:0,0:0:0:0:
128,91,108017,2,0,B|180:95|180:95|197:112|197:112|259:118,1,120,0|0,0:0|0:0,0:0:0:0:
278,134,108531,2,0,L|357:127,1,60,8|0,0:0|0:0,0:0:0:0:
371,103,108874,6,0,B|433:84|433:84|457:133,1,120,0|8,0:0|0:0,0:0:0:0:
491,210,109559,2,0,L|476:274,1,60,0|0,0:0|0:0,0:0:0:0:
482,310,109902,2,0,P|446:295|410:301,1,60,8|0,0:0|0:0,0:0:0:0:
389,317,110245,2,0,L|264:301,1,120,0|8,0:0|0:0,0:0:0:0:
201,253,110931,2,0,L|133:258,1,60,12|2,0:0|0:0,0:0:0:0:
105,235,111274,2,0,B|66:228|66:228|26:244,1,60,8|2,0:0|0:0,0:0:0:0:
15,263,111617,70,0,P|3:136|1:124,1,120,4|8,0:0|0:0,0:0:0:0:
26,107,112131,2,0,P|65:78|146:105,1,120,0|0,0:0|0:0,0:0:0:0:
165,115,112645,1,8,0:0:0:0:
238,73,112988,2,0,B|311:65|284:100|361:91,1,120,0|8,0:0|0:0,0:0:0:0:
393,107,113502,2,0,P|430:152|405:217,1,120,0|0,0:0|0:0,0:0:0:0:
385,237,114017,2,0,L|316:224,1,60,8|0,0:0|0:0,0:0:0:0:
284,217,114359,6,0,B|302:306|302:306|268:341,1,120,0|8,0:0|0:0,0:0:0:0:
202,356,115045,2,0,L|131:353,1,60,0|0,0:0|0:0,0:0:0:0:
106,331,115388,2,0,L|42:340,1,60,8|0,0:0|0:0,0:0:0:0:
19,307,115731,2,0,P|10:251|60:202,2,120,4|8|8,0:0|0:0|0:0,0:0:0:0:
78,366,116759,1,0,0:0:0:0:
157,338,117102,70,0,B|195:320|195:320|287:348,1,120,4|8,0:0|0:0,0:0:0:0:
305,365,117617,1,0,0:0:0:0:
305,365,117788,2,0,L|433:350,1,120,0|8,0:0|0:0,0:0:0:0:
457,325,118302,2,0,B|460:293|460:293|446:263,1,60,0|0,0:0|0:0,0:0:0:0:
419,237,118645,1,0,0:0:0:0:
419,237,118817,1,8,0:0:0:0:
377,163,119159,2,0,L|389:85,1,60,0|0,0:0|0:0,0:0:0:0:
352,77,119502,2,0,P|322:69|288:82,1,60,8|0,0:0|0:0,0:0:0:0:
272,113,119845,6,0,L|152:99,1,120,0|8,0:0|0:0,0:0:0:0:
119,124,120359,1,0,0:0:0:0:
119,124,120531,2,0,B|95:201|95:201|115:245,1,120,0|8,0:0|0:0,0:0:0:0:
141,266,121045,1,0,0:0:0:0:
214,225,121388,2,0,P|275:210|340:245,1,120,0|0,0:0|0:0,0:0:0:0:
355,260,121902,1,0,0:0:0:0:
355,260,122074,2,0,L|354:328,2,60,2|8|2,0:0|0:0|0:0,0:0:0:0:
392,241,122588,70,0,B|411:205|411:205|391:108,1,120,4|8,0:0|0:0,0:0:0:0:
358,105,123102,2,0,P|284:128|237:86,1,120,0|0,0:0|0:0,0:0:0:0:
221,79,123617,1,8,0:0:0:0:
167,144,123959,2,0,P|144:196|154:280,1,120,0|8,0:0|0:0,0:0:0:0:
173,290,124474,2,0,B|220:282|220:282|249:295|249:295|301:286,1,120,0|0,0:0|0:0,0:0:0:0:
328,272,124988,2,0,L|341:349,1,60,8|0,0:0|0:0,0:0:0:0:
370,358,125331,6,0,P|434:374|479:331,2,120,0|8|0,0:0|0:0|0:0,0:0:0:0:
294,320,126359,2,0,L|225:331,1,60,8|0,0:0|0:0,0:0:0:0:
201,355,126702,2,0,L|117:347,1,60,0|0,0:0|0:0,0:0:0:0:
110,320,127045,2,0,B|98:283|98:283|118:196,2,120,8|2|8,0:0|0:0|0:0,0:0:0:0:
178,368,128074,69,4,0:0:0:0:
256,192,128159,12,0,129445,0:0:0:0:
71,230,139045,38,0,P|138:188|196:207,1,120,0|8,0:0|0:0,0:0:0:0:
249,233,139731,2,0,L|317:224,1,60,0|8,0:0|0:0,0:0:0:0:
346,243,140074,2,0,L|414:234,1,60,0|0,0:0|0:0,0:0:0:0:
439,210,140417,2,0,B|458:164|458:164|430:73,1,120,0|8,0:0|0:0,0:0:0:0:
367,49,141102,2,0,P|309:64|237:64,1,120,2|2,0:0|0:0,0:0:0:0:
211,45,141617,1,2,0:0:0:0:
211,45,141788,22,0,B|160:29|160:29|96:61,2,120,0|8|0,0:0|0:0|0:0,0:0:0:0:
240,74,142645,2,0,L|232:138,1,60,8|0,0:0|0:0,0:0:0:0:
254,169,142988,1,0,0:0:0:0:
254,169,143159,2,0,L|376:157,1,120,0|0,0:0|0:0,0:0:0:0:
452,185,143845,2,0,L|443:263,1,60,2|2,0:0|0:0,0:0:0:0:
469,278,144188,2,0,P|479:318|472:346,1,60,0|0,0:0|0:0,0:0:0:0:
442,361,144531,54,0,B|373:345|393:377|322:367,1,120,0|8,0:0|0:0,0:0:0:0:
250,326,145217,2,0,L|179:334,1,60,0|8,0:0|0:0,0:0:0:0:
152,315,145559,2,0,P|145:276|159:240,1,60,0|0,0:0|0:0,0:0:0:0:
173,221,145902,2,0,L|158:85,1,120,0|8,0:0|0:0,0:0:0:0:
222,45,146588,2,0,B|282:23|282:23|357:59,1,120,2|2,0:0|0:0,0:0:0:0:
393,105,147274,22,0,P|458:119|515:88,2,120,0|8|0,0:0|0:0|0:0,0:0:0:0:
360,78,148131,1,8,0:0:0:0:
285,40,148474,1,0,0:0:0:0:
285,40,148645,2,0,L|153:34,1,120,0|8,0:0|0:0,0:0:0:0:
127,53,149159,1,0,0:0:0:0:
127,53,149331,2,0,B|110:110|110:110|124:145|124:145|94:223|129:295,1,240,8|4,0:0|0:0,0:0:0:0:
175,350,150359,5,0,0:0:0:0:
252,318,150702,2,0,P|287:309|324:311,1,60,8|0,0:0|0:0,0:0:0:0:
347,330,151045,2,0,L|411:324,1,60,0|8,0:0|0:0,0:0:0:0:
448,327,151388,2,0,B|469:288|469:288|445:199,1,120,0|0,0:0|0:0,0:0:0:0:
382,163,152074,2,0,L|392:85,1,60,8|0,0:0|0:0,0:0:0:0:
360,73,152417,2,0,P|330:75|283:63,1,60
262,53,152759,70,0,P|209:63|124:71,1,120
75,117,153445,1,8,0:0:0:0:
75,117,153617,2,0,B|49:176|49:176|79:243,1,120,0|2,0:0|0:0,0:0:0:0:
99,258,154131,1,0,0:0:0:0:
177,287,154474,1,0,0:0:0:0:
251,247,154817,2,0,P|245:202|235:177,1,60,8|0,0:0|0:0,0:0:0:0:
227,148,155159,2,0,L|236:72,1,60,8|0,0:0|0:0,0:0:0:0:
269,64,155502,6,0,P|324:50|368:91,1,120,4|0,0:0|0:0,0:0:0:0:
414,159,156188,2,0,L|405:229,1,60,8|0,0:0|0:0,0:0:0:0:
379,250,156531,2,0,L|389:320,1,60,0|8,0:0|0:0,0:0:0:0:
409,345,156874,2,0,B|360:338|360:338|337:356|337:356|288:352,1,120,0|0,0:0|0:0,0:0:0:0:
229,300,157559,2,0,P|183:306|155:323,1,60,8|0,0:0|0:0,0:0:0:0:
136,336,157902,2,0,L|70:323,1,60,0|0,0:0|0:0,0:0:0:0:
46,295,158245,70,0,B|35:260|35:260|59:167,1,120,0|0,0:0|0:0,0:0:0:0:
122,128,158931,1,8,0:0:0:0:
122,128,159102,2,0,P|221:116|242:117,1,120,0|2,0:0|0:0,0:0:0:0:
276,140,159617,2,0,B|288:186|288:186|280:217|280:217|295:276,1,120,0|0,0:0|0:0,0:0:0:0:
358,304,160302,2,0,P|396:312|431:299,1,60,8|6,0:0|0:0,0:0:0:0:
450,283,160645,1,4,0:0:0:0:
410,208,160988,70,0,B|362:180|307:177|257:201|257:201|231:159|196:151|196:151|168:156|168:156|146:172|146:172|134:194|134:194|134:222|134:222|146:245|146:245|162:262|162:262|186:264|186:264|210:258,1,420,0|2,0:0|0:3,0:0:0:0:
213,292,162359,22,0,P|276:283|337:278,1,120,4|8,0:0|0:0,0:0:0:0:
371,293,162874,2,0,B|401:254|401:254|382:168,1,120,0|0,0:0|0:0,0:0:0:0:
356,154,163388,1,8,0:0:0:0:
282,194,163731,2,0,P|222:213|162:177,1,120,0|8,0:0|0:0,0:0:0:0:
133,175,164245,2,0,B|115:222|115:222|126:252|126:252|112:297,1,120,0|0,0:0|0:0,0:0:0:0:
128,327,164759,2,0,P|172:315|197:317,1,60,8|0,0:0|0:0,0:0:0:0:
225,330,165102,6,0,B|288:348|288:348|348:314,1,120,0|8,0:0|0:0,0:0:0:0:
393,260,165788,2,0,L|378:191,1,60,0|0,0:0|0:0,0:0:0:0:
406,168,166131,2,0,L|391:99,1,60,8|0,0:0|0:0,0:0:0:0:
357,87,166474,2,0,P|301:68|246:97,1,120,0|8,0:0|0:0,0:0:0:0:
211,168,167159,2,0,B|181:179|181:179|140:170,1,60,12|2,0:0|0:0,0:0:0:0:
115,155,167502,2,0,L|52:162,1,60,8|2,0:0|0:0,0:0:0:0:
16,145,167845,70,0,B|2:234|2:234|22:266,1,120,4|8,0:0|0:0,0:0:0:0:
52,283,168359,2,0,P|107:252|166:281,1,120,0|0,0:0|0:0,0:0:0:0:
191,295,168874,1,8,0:0:0:0:
264,255,169217,2,0,B|333:239|313:271|384:261,1,120,0|8,0:0|0:0,0:0:0:0:
418,240,169731,2,0,B|439:182|439:182|407:120,1,120,0|0,0:0|0:0,0:0:0:0:
381,101,170245,2,0,P|310:111|300:111,1,60,8|0,0:0|0:0,0:0:0:0:
285,89,170588,6,0,P|233:66|166:99,1,120,0|8,0:0|0:0,0:0:0:0:
118,147,171274,2,0,L|51:146,1,60,0|0,0:0|0:0,0:0:0:0:
32,179,171617,2,0,B|19:208|19:208|27:247,1,60,8|0,0:0|0:0,0:0:0:0:
48,269,171959,2,0,B|101:261|101:261|119:272|119:272|167:264,2,120,8|8|4,0:0|0:0|0:0,0:0:0:0:
8,194,172988,2,0,P|11:150|29:125,1,60,4|4,0:0|0:0,0:0:0:0:
55,116,173331,70,0,P|142:127|189:125,1,120,4|8,0:0|0:0,0:0:0:0:
213,112,173845,1,0,0:0:0:0:
213,112,174017,2,0,B|234:154|234:154|216:242,1,120,0|8,0:0|0:0,0:0:0:0:
212,267,174531,2,0,L|286:255,1,60,0|0,0:0|0:0,0:0:0:0:
301,286,174874,1,0,0:0:0:0:
301,286,175045,1,8,0:0:0:0:
368,235,175388,2,0,P|376:188|363:161,1,60,0|0,0:0|0:0,0:0:0:0:
346,144,175731,2,0,L|354:83,1,60,8|0,0:0|0:0,0:0:0:0:
376,49,176074,6,0,B|318:69|318:69|251:52,1,120,0|8,0:0|0:0,0:0:0:0:
224,34,176588,1,0,0:0:0:0:
224,34,176759,2,0,P|237:124|241:155,1,120,0|8,0:0|0:0,0:0:0:0:
266,186,177274,2,0,L|257:253,1,60,0|0,0:0|0:0,0:0:0:0:
232,279,177617,2,0,B|146:265|146:265|106:298,1,120,0|0,0:0|0:0,0:0:0:0:
89,314,178131,1,0,0:0:0:0:
89,314,178302,2,0,L|8:303,2,60,2|8|2,0:0|0:0|0:0,0:0:0:0:
119,342,178817,70,0,B|168:327|168:327|259:351,1,120,4|8,0:0|0:0,0:0:0:0:
271,364,179331,2,0,P|289:304|256:231,1,120,0|0,0:0|0:0,0:0:0:0:
239,225,179845,1,8,0:0:0:0:
307,176,180188,2,0,L|450:184,1,120,0|8,0:0|0:0,0:0:0:0:
462,160,180702,2,0,B|487:119|487:119|466:43,1,120,0|0,0:0|0:0,0:0:0:0:
430,29,181217,2,0,L|367:32,1,60,8|0,0:0|0:0,0:0:0:0:
337,58,181559,6,0,P|288:81|214:49,2,120,0|8|0,0:0|0:0|0:0,0:0:0:0:
405,106,182588,1,8,0:0:0:0:
433,185,182931,2,0,B|443:217|443:217|432:258,1,60,8|2,0:0|0:0,0:0:0:0:
405,270,183274,2,0,L|342:261,1,60,8|2,0:0|0:0,0:0:0:0:
306,246,183617,2,0,P|247:249|175:263,1,120,12|12,0:0|0:0,0:0:0:0:
108,230,184302,70,0,P|88:180|126:112,1,120,4|8,0:0|0:0,0:0:0:0:
150,103,184817,1,0,0:0:0:0:
150,103,184988,2,0,P|194:110|224:101,1,60,0|8,0:0|0:0,0:0:0:0:
250,99,185331,2,0,L|240:172,1,60,0|8,0:0|0:0,0:0:0:0:
275,183,185674,1,0,0:0:0:0:
353,152,186017,2,0,P|393:143|425:158,1,60,8|0,0:0|0:0,0:0:0:0:
449,163,186359,1,0,0:0:0:0:
449,163,186531,2,0,L|458:77,2,60,8|0|8,0:0|0:0|0:0,0:0:0:0:
470,199,187045,5,0,0:0:0:0:
421,267,187388,2,0,P|371:237|311:258,1,120,8|0,0:0|0:0,0:0:0:0:
277,271,187902,1,8,0:0:0:0:
277,271,188074,2,0,L|219:260,1,60,0|8,0:0|0:0,0:0:0:0:
179,243,188417,2,0,B|119:263|119:263|41:243,1,120,0|8,0:0|0:0,0:0:0:0:
34,219,188931,1,0,0:0:0:0:
34,219,189102,2,0,L|41:156,2,60,8|2|8,0:0|0:0|0:0,0:0:0:0:
93,278,189788,70,0,P|198:264|222:263,1,120,4|8,0:0|0:0,0:0:0:0:
247,286,190302,1,0,0:0:0:0:
317,238,190645,1,8,0:0:0:0:
317,238,190817,2,0,L|305:170,1,60,0|8,0:0|0:0,0:0:0:0:
336,149,191159,2,0,P|403:140|441:190,1,120,0|8,0:0|0:0,0:0:0:0:
454,212,191674,1,0,0:0:0:0:
378,249,192017,1,2,0:0:0:0:
378,249,192188,2,0,L|311:242,1,60,8|2,0:0|0:0,0:0:0:0:
280,224,192531,6,0,B|303:308|303:308|278:351,1,120,4|8,0:0|0:0,0:0:0:0:
253,362,193045,1,0,0:0:0:0:
253,362,193217,2,0,P|209:353|173:360,1,60,0|8,0:0|0:0,0:0:0:0:
153,365,193559,2,0,L|87:355,1,60,0|8,0:0|0:0,0:0:0:0:
57,334,193902,1,0,0:0:0:0:
103,264,194245,2,0,P|109:229|99:195,1,60,8|2,0:0|0:0,0:0:0:0:
76,173,194588,2,0,L|84:99,2,60,4|4|4,0:2|0:2|0:2,0:0:0:0:
