osu file format v14

[General]
AudioFilename: abdca123.mp3
AudioLeadIn: 0
PreviewTime: 105103
Countdown: 0
SampleSet: None
StackLeniency: 0.7
Mode: 0
LetterboxInBreaks: 0
WidescreenStoryboard: 0

[Editor]
DistanceSpacing: 0.5
BeatDivisor: 4
GridSize: 32
TimelineZoom: 1.2

[Metadata]
Title:Memories
TitleUnicode:Memories
Artist:ONE OK ROCK
ArtistUnicode:ONE OK ROCK
Creator:Komore
Version:Lasse's Insane
Source:
Tags:35xxxv Alternative rock post-hardcore lasse fcl namki trynna
BeatmapID:1454214
BeatmapSetID:684590

[Difficulty]
HPDrainRate:6
CircleSize:4
OverallDifficulty:8
ApproachRate:9
SliderMultiplier:1.6
SliderTickRate:1

[Events]
//Background and Video events
0,0,"memory.jpg",0,0
//Break Periods
2,72044,82217
2,128273,138445
//Storyboard Layer 0 (Background)
//Storyboard Layer 1 (Fail)
//Storyboard Layer 2 (Pass)
//Storyboard Layer 3 (Foreground)
//Storyboard Sound Samples

[TimingPoints]
6017,342.857142857143,4,3,1,70,1,0
15617,-125,4,3,1,70,0,0
16302,-200,4,3,1,70,0,0
16902,-200,4,3,1,5,0,0
16988,-100,4,3,1,80,0,0
22131,-100,4,3,2,80,0,0
22302,-100,4,3,3,80,0,0
22388,-100,4,3,4,80,0,0
22474,-100,4,3,1,80,0,0
27617,-166.666666666667,4,3,2,70,0,0
27788,-166.666666666667,4,3,3,60,0,0
27959,-125,4,3,1,60,0,0
30531,-125,4,3,1,60,0,0
30874,-125,4,3,1,60,0,0
32245,-125,4,3,4,60,0,0
32417,-125,4,3,2,60,0,0
32588,-125,4,3,3,60,0,0
33274,-125,4,3,4,60,0,0
33445,-125,4,3,1,60,0,0
36017,-125,4,3,1,60,0,0
36188,-125,4,3,1,60,0,0
38845,-125,4,3,1,60,0,0
38931,-111.111111111111,4,3,1,60,0,0
48445,-111.111111111111,4,3,1,60,0,0
48531,-76.9230769230769,4,3,1,90,0,0
48702,-76.9230769230769,4,3,1,90,0,0
48759,-76.9230769230769,4,3,1,90,0,0
48931,-76.9230769230769,4,3,1,90,0,0
48988,-76.9230769230769,4,3,1,90,0,0
49102,-76.9230769230769,4,3,1,90,0,0
49217,-76.9230769230769,4,3,1,90,0,0
49817,-76.9230769230769,4,3,1,90,0,0
49902,-71.4285714285714,4,3,1,95,0,0
60531,-71.4285714285714,4,3,2,95,0,0
60702,-71.4285714285714,4,3,3,95,0,0
60788,-71.4285714285714,4,3,4,95,0,0
60874,-71.4285714285714,4,3,1,95,0,0
71159,-111.111111111111,4,3,1,95,0,0
71502,-111.111111111111,4,2,2,95,0,0
71845,-100,4,3,1,95,0,0
82388,-100,4,3,1,95,0,0
82474,-125,4,3,1,95,0,0
82731,-125,4,3,1,95,0,0
82817,-125,4,3,1,60,0,0
82988,-125,4,3,1,60,0,0
85388,-125,4,3,1,60,0,0
85731,-125,4,3,1,60,0,0
86931,-125,4,3,4,60,0,0
87274,-125,4,3,2,60,0,0
87445,-125,4,3,3,60,0,0
87531,-125,4,3,4,60,0,0
88302,-125,4,3,1,60,0,0
90874,-125,4,3,1,60,0,0
91045,-125,4,3,1,60,0,0
93788,-111.111111111111,4,3,1,60,0,0
103302,-111.111111111111,4,3,1,60,0,0
103388,-66.6666666666667,4,3,1,90,0,0
103559,-66.6666666666667,4,3,1,90,0,0
103617,-66.6666666666667,4,3,1,90,0,0
103788,-66.6666666666667,4,3,1,90,0,0
103845,-66.6666666666667,4,3,1,90,0,0
103959,-66.6666666666667,4,3,1,90,0,0
104074,-400,4,3,1,90,0,0
104417,-400,4,3,1,90,0,0
105102,-133.333333333333,4,2,2,40,0,0
105788,-133.333333333333,4,3,1,60,0,0
106131,-71.4285714285714,4,3,1,95,0,0
116759,-71.4285714285714,4,3,2,95,0,0
116931,-71.4285714285714,4,3,3,95,0,0
117017,-71.4285714285714,4,3,4,95,0,0
117102,-71.4285714285714,4,3,4,95,0,0
117103,-71.4285714285714,4,3,1,95,0,0
127388,-142.857142857143,4,3,1,95,0,0
127731,-200,4,3,1,95,0,0
128074,-100,4,3,1,60,0,0
133388,-100,4,3,1,60,0,0
133559,-100,4,3,1,60,0,0
139045,-111.111111111111,4,2,1,50,0,0
140674,-111.111111111111,4,2,1,50,0,0
140759,-111.111111111111,4,2,1,50,0,0
140931,-111.111111111111,4,2,1,10,0,0
141017,-111.111111111111,4,2,1,15,0,0
141102,-111.111111111111,4,2,1,20,0,0
141188,-111.111111111111,4,2,1,25,0,0
141274,-111.111111111111,4,2,1,30,0,0
141359,-111.111111111111,4,2,1,35,0,0
141445,-111.111111111111,4,2,1,40,0,0
141531,-111.111111111111,4,2,1,45,0,0
141617,-111.111111111111,4,2,1,50,0,0
141702,-111.111111111111,4,2,1,55,0,0
141788,-111.111111111111,4,2,1,55,0,0
142045,-111.111111111111,4,2,1,55,0,0
142131,-111.111111111111,4,2,1,55,0,0
143417,-111.111111111111,4,2,1,55,0,0
143502,-111.111111111111,4,2,1,55,0,0
143845,-111.111111111111,4,2,1,30,0,0
143931,-111.111111111111,4,2,1,35,0,0
144017,-111.111111111111,4,2,1,40,0,0
144102,-111.111111111111,4,2,1,45,0,0
144188,-111.111111111111,4,2,1,50,0,0
144788,-111.111111111111,4,2,1,50,0,0
144874,-111.111111111111,4,2,1,50,0,0
146159,-111.111111111111,4,2,1,50,0,0
146245,-111.111111111111,4,2,1,50,0,0
146417,-111.111111111111,4,2,1,10,0,0
146502,-111.111111111111,4,2,1,15,0,0
146588,-111.111111111111,4,2,1,20,0,0
146674,-111.111111111111,4,2,1,25,0,0
146759,-111.111111111111,4,2,1,30,0,0
146845,-111.111111111111,4,2,1,35,0,0
146931,-111.111111111111,4,2,1,40,0,0
147017,-111.111111111111,4,2,1,45,0,0
147102,-111.111111111111,4,2,1,50,0,0
147188,-111.111111111111,4,2,1,55,0,0
147274,-111.111111111111,4,2,1,50,0,0
147531,-111.111111111111,4,2,1,50,0,0
147617,-111.111111111111,4,2,1,50,0,0
148902,-111.111111111111,4,2,1,50,0,0
148988,-111.111111111111,4,2,1,50,0,0
150017,-90.9090909090909,4,3,1,60,0,0
150274,-90.9090909090909,4,3,1,5,0,0
150359,-90.9090909090909,4,3,1,60,0,0
151645,-90.9090909090909,4,3,1,5,0,0
151731,-90.9090909090909,4,3,1,60,0,0
152331,-90.9090909090909,4,3,1,60,0,0
152417,-90.9090909090909,4,3,1,60,0,0
155759,-90.9090909090909,4,3,1,5,0,0
155845,-90.9090909090909,4,3,1,60,0,0
157131,-90.9090909090909,4,3,1,5,0,0
157217,-90.9090909090909,4,3,1,60,0,0
157817,-90.9090909090909,4,3,1,60,0,0
157902,-90.9090909090909,4,3,1,60,0,0
159874,-90.9090909090909,4,3,1,60,0,0
159959,-90.9090909090909,4,3,1,60,0,0
160474,-200,4,3,6,100,0,0
160645,-200,4,3,4,60,0,0
160988,-200,4,2,2,40,0,0
161502,-100,4,2,2,50,0,0
161674,-100,4,2,2,60,0,0
161845,-100,4,2,2,70,0,0
162017,-100,4,2,2,80,0,0
162188,-100,4,2,2,90,0,0
162359,-66.6666666666667,4,3,1,95,0,0
172645,-66.6666666666667,4,3,2,95,0,0
172988,-66.6666666666667,4,3,3,95,0,0
173331,-66.6666666666667,4,3,1,95,0,0
183617,-66.6666666666667,4,3,2,95,0,0
183788,-66.6666666666667,4,3,3,95,0,0
183959,-66.6666666666667,4,3,4,95,0,0
184302,-90.9090909090909,4,3,1,80,0,0
189445,-200,4,3,1,80,0,0
189702,-200,4,3,1,80,0,0
189788,-83.3333333333333,4,3,1,80,0,0
194931,-142.857142857143,4,3,1,40,0,0
195274,-142.857142857143,4,3,1,40,0,0

[Colours]
Combo1 : 205,221,237
Combo2 : 225,152,108
Combo3 : 237,217,148
Combo4 : 86,128,177
Combo5 : 248,92,92
Combo6 : 219,219,219

[HitObjects]
87,46,15617,5,8,0:0:0:0:
79,66,15731,2,0,L|16:60,1,42.6666666666667,2|2,0:0|0:0,0:0:0:0:
159,105,15959,5,8,0:0:0:0:
167,125,16073,2,0,L|230:119,1,42.6666666666667,2|2,0:0|0:0,0:0:0:0:
84,174,16302,38,0,B|112:200|112:200|119:318,1,140,8|0,0:0|0:0,0:0:0:0:
119,319,16988,53,4,0:0:0:0:
259,351,17159,1,0,0:0:0:0:
228,173,17331,2,0,P|221:212|216:252,1,80,8|0,0:0|0:0,0:0:0:0:
396,184,17674,2,0,P|364:158|332:134,1,80,0|0,0:0|0:0,0:0:0:0:
339,308,18017,1,8,0:0:0:0:
466,282,18188,5,0,0:0:0:0:
466,282,18274,1,0,0:0:0:0:
466,282,18359,2,0,P|459:321|454:361,1,80,0|0,0:0|0:0,0:0:0:0:
216,252,18702,2,0,P|224:292|229:332,1,80,8|0,0:0|0:0,0:0:0:0:
332,134,19045,1,0,0:0:0:0:
376,200,19217,70,0,P|391:187|404:172,1,40,2|2,0:0|0:0,0:0:0:0:
366,61,19389,2,0,P|347:53|327:50,1,40,8|2,0:0|0:0,0:0:0:0:
251,139,19560,2,0,P|253:158|261:177,1,40,2|2,0:0|0:0,0:0:0:0:
376,200,19731,6,0,P|413:212|440:241,1,80,0|0,0:0|0:0,0:0:0:0:
261,177,20074,2,0,P|222:169|184:180,1,80,8|0,0:0|0:0,0:0:0:0:
338,89,20417,2,0,P|349:51|378:24,1,80,0|2,0:0|0:0,0:0:0:0:
228,250,20759,1,8,0:0:0:0:
140,108,20931,1,0,0:0:0:0:
29,292,21102,70,0,P|25:246|20:203,1,80,0|0,0:0|0:0,0:0:0:0:
220,329,21445,2,0,P|223:289|227:249,1,80,8|0,0:0|0:0,0:0:0:0:
305,64,21788,1,0,0:0:0:0:
321,206,21959,1,2,0:0:0:0:
307,183,22044,1,2,0:0:0:0:
288,165,22130,1,12,0:0:0:0:
265,152,22216,1,4,0:0:0:0:
239,145,22301,1,4,0:0:0:0:
213,146,22387,1,4,0:0:0:0:
187,153,22474,6,0,P|147:156|109:142,1,80,4|0,0:0|0:0,0:0:0:0:
263,62,22817,2,0,P|280:26|310:0,1,80,8|0,0:0|0:0,0:0:0:0:
303,173,23159,2,0,P|325:205|332:244,1,80,0|2,0:0|0:0,0:0:0:0:
470,29,23502,1,8,0:0:0:0:
387,93,23674,1,0,0:0:0:0:
512,159,23845,69,0,0:0:0:0:
387,93,24017,1,0,0:0:0:0:
332,244,24188,2,0,P|325:201|314:162,1,80,8|0,0:0|0:0,0:0:0:0:
163,103,24531,1,0,0:0:0:0:
90,140,24703,6,0,P|103:155|119:169,1,40,2|2,0:0|0:0,0:0:0:0:
233,146,24874,2,0,P|241:127|244:108,1,40,8|2,0:0|0:0,0:0:0:0:
167,19,25045,2,0,P|147:22|129:30,1,40,2|2,0:0|0:0,0:0:0:0:
189,219,25217,69,0,0:0:0:0:
163,103,25388,1,0,0:0:0:0:
76,235,25559,2,0,P|37:226|-4:220,1,80,8|0,0:0|0:0,0:0:0:0:
182,303,25902,1,0,0:0:0:0:
266,241,26074,1,0,0:0:0:0:
305,358,26245,1,8,0:0:0:0:
394,224,26417,1,0,0:0:0:0:
468,312,26588,5,0,0:0:0:0:
450,161,26759,1,0,0:0:0:0:
352,298,26931,1,8,0:0:0:0:
364,118,27102,1,0,0:0:0:0:
266,241,27274,1,0,0:0:0:0:
274,107,27445,1,0,0:0:0:0:
206,168,27617,1,12,0:0:0:0:
206,168,27788,1,4,0:0:0:0:
115,30,27959,6,0,P|121:97|123:169,1,128,0|8,0:0|0:0,0:0:0:0:
122,157,28645,1,0,0:0:0:0:
27,315,28817,1,8,0:0:0:0:
27,315,29159,5,8,0:0:0:0:
153,238,29331,2,0,P|207:234|296:234,2,128,0|8|0,0:0|0:0|0:0,0:0:0:0:
27,315,30188,1,0,0:0:0:0:
29,150,30359,2,0,P|42:179|50:209,1,64,12|0,0:2|0:0,0:0:0:0:
177,112,30702,70,0,P|162:174|152:237,1,128,0|8,0:0|0:0,0:0:0:0:
266,338,31217,1,0,0:0:0:0:
293,254,31388,2,0,P|262:251|231:257,1,64,0|8,0:0|0:0,0:0:0:0:
379,301,31731,2,0,P|410:304|441:298,1,64,0|8,0:0|0:0,0:0:0:0:
512,175,32074,6,0,P|508:206|506:238,1,64,0|4,0:0|0:0,0:0:0:0:
505,238,32331,1,4,0:0:0:0:
505,238,32417,1,12,0:0:0:0:
505,238,32502,1,6,0:0:0:0:
505,238,32588,1,6,0:0:0:0:
505,238,32674,1,6,0:0:0:0:
505,238,32759,70,0,P|509:207|511:175,1,64,4|4,0:0|0:0,0:0:0:0:
511,174,33017,1,4,0:0:0:0:
511,174,33102,2,0,P|509:142|504:110,1,64,12|4,0:0|0:0,0:0:0:0:
343,152,33445,6,0,P|345:88|350:24,1,128,0|8,0:0|0:0,0:0:0:0:
350,24,34131,1,0,0:0:0:0:
509,114,34303,1,8,0:0:0:0:
509,114,34645,69,8,0:0:0:0:
343,152,34817,2,0,P|289:148|200:148,2,128,0|8|0,0:0|0:0|0:0,0:0:0:0:
235,300,35674,1,0,0:0:0:0:
143,193,35845,2,0,P|156:222|164:252,1,64,12|0,0:2|0:0,0:0:0:0:
48,320,36188,6,0,P|50:256|57:192,1,128,0|8,0:0|0:0,0:0:0:0:
95,33,36703,1,0,0:0:0:0:
205,112,36874,2,0,P|173:110|144:99,1,64,0|8,0:0|0:0,0:0:0:0:
286,92,37217,2,0,P|314:77|345:72,1,64,0|8,0:0|0:0,0:0:0:0:
462,157,37559,69,0,0:0:0:0:
462,157,37731,1,0,0:0:0:0:
399,257,37902,1,8,0:0:0:0:
399,257,38074,1,0,0:0:0:0:
354,163,38245,5,2,0:0:0:0:
354,163,38331,1,2,0:0:0:0:
354,163,38417,1,2,0:0:0:0:
354,163,38502,1,2,0:0:0:0:
354,163,38588,1,8,0:0:0:0:
354,163,38931,22,0,P|355:115|357:78,1,71.9999978027344,4|0,0:0|0:0,0:0:0:0:
273,27,39274,1,8,0:0:0:0:
356,91,39445,1,0,0:0:0:0:
257,209,39617,2,0,P|251:173|244:138,1,71.9999978027344,0|8,0:0|0:0,0:0:0:0:
345,270,39959,1,0,0:0:0:0:
354,163,40131,1,8,0:0:0:0:
257,209,40302,54,0,P|220:204|174:200,1,71.9999978027344,0|0,0:0|0:0,0:0:0:0:
185,200,40559,1,0,0:0:0:0:
185,200,40645,1,8,0:0:0:0:
168,291,40817,1,0,0:0:0:0:
81,322,40988,1,0,0:0:0:0:
10,262,41159,1,0,0:0:0:0:
26,170,41331,2,0,P|25:131|23:97,1,71.9999978027344,12|0,0:2|0:0,0:0:0:0:
97,235,41674,22,0,P|106:200|118:166,1,71.9999978027344,0|0,0:0|0:0,0:0:0:0:
242,123,42017,1,8,0:0:0:0:
119,165,42188,1,0,0:0:0:0:
141,25,42359,2,0,P|153:58|162:93,1,71.9999978027344,0|8,0:0|0:0,0:0:0:0:
190,235,42702,1,0,0:0:0:0:
162,93,42874,1,8,0:0:0:0:
309,181,43045,54,0,P|321:147|330:112,1,71.9999978027344,0|0,0:0|0:0,0:0:0:0:
327,88,43302,1,0,0:0:0:0:
334,65,43388,1,8,0:0:0:0:
350,47,43474,1,2,0:0:0:0:
371,36,43559,1,2,0:0:0:0:
395,35,43645,1,0,0:0:0:0:
417,43,43731,2,0,P|451:34|485:22,1,71.9999978027344,0|0,0:0|0:0,0:0:0:0:
503,37,43988,2,0,P|498:63|496:87,1,35.9999989013672,0|8,0:0|0:0,0:0:0:0:
503,37,44417,22,0,P|496:94|497:124,1,71.9999978027344,0|0,0:0|0:0,0:0:0:0:
401,182,44760,1,8,0:0:0:0:
496,108,44931,1,0,0:0:0:0:
500,259,45102,2,0,P|493:223|482:189,1,71.9999978027344,0|8,0:0|0:0,0:0:0:0:
335,127,45445,1,0,0:0:0:0:
482,189,45617,1,8,0:0:0:0:
334,235,45788,54,0,P|297:230|251:226,1,71.9999978027344,0|0,0:0|0:0,0:0:0:0:
169,242,46131,1,8,0:0:0:0:
201,153,46302,1,0,0:0:0:0:
262,226,46474,1,0,0:0:0:0:
169,242,46645,1,0,0:0:0:0:
201,153,46817,2,0,P|206:116|210:70,1,71.9999978027344,12|0,0:2|0:0,0:0:0:0:
49,126,47159,22,0,P|44:89|40:43,1,71.9999978027344,0|0,0:0|0:0,0:0:0:0:
201,153,47503,1,8,0:0:0:0:
329,28,47674,1,0,0:0:0:0:
477,187,47845,54,0,P|491:152|507:109,1,71.9999978027344,0|8,0:0|0:0,0:0:0:0:
243,210,48188,2,0,P|220:180|193:142,1,71.9999978027344,0|8,0:0|0:0,0:0:0:0:
55,302,48531,5,8,0:0:0:0:
260,2,48759,1,8,0:0:0:0:
417,329,48988,1,8,0:0:0:0:
466,33,49217,5,8,0:0:0:0:
466,33,49902,6,0,P|359:34|315:130,1,223.999993164063,4|8,0:0|0:0,0:0:0:0:
192,293,50417,2,0,P|244:200|183:113,1,223.999993164063,0|0,0:0|0:0,0:0:0:0:
18,57,50931,2,0,P|69:58|142:37,1,111.999996582031,8|0,0:0|0:0,0:0:0:0:
313,123,51274,6,0,P|211:97|146:181,1,223.999993164063,0|8,0:0|0:0,0:0:0:0:
26,302,51788,2,0,P|128:275|193:359,1,223.999993164063,0|0,0:0|0:0,0:0:0:0:
349,258,52302,2,0,P|282:259|224:242,1,111.999996582031,8|0,0:0|0:0,0:0:0:0:
463,376,52645,70,0,P|450:265|514:176,1,223.999993164063,0|8,0:0|0:0,0:0:0:0:
396,32,53159,1,0,0:0:0:0:
204,69,53331,6,0,P|149:59|98:35,1,111.999996582031,0|0,0:0|0:0,0:0:0:0:
404,201,53674,2,0,P|456:181|512:177,1,111.999996582031,8|0,0:0|0:0,0:0:0:0:
177,200,54017,70,0,P|130:167|77:149,1,111.999996582031,0|0,0:0|0:0,0:0:0:0:
347,131,54359,2,0,P|365:78|395:31,1,111.999996582031,8|0,0:0|0:0,0:0:0:0:
178,329,54702,6,0,P|127:304|72:294,1,111.999996582031,12|2,0:0|0:0,0:0:0:0:
90,327,54959,1,2,0:0:0:0:
118,351,55045,1,8,0:0:0:0:
153,364,55131,1,2,0:0:0:0:
190,365,55216,1,2,0:0:0:0:
225,352,55302,1,2,0:0:0:0:
253,328,55388,70,0,P|306:239|422:252,1,223.999993164063,4|8,0:0|0:0,0:0:0:0:
498,113,55902,2,0,P|445:23|329:36,1,223.999993164063,0|0,0:0|0:0,0:0:0:0:
198,137,56417,2,0,P|253:142|304:121,1,111.999996582031,8|0,0:0|0:0,0:0:0:0:
0,31,56759,6,0,P|95:78|97:185,1,223.999993164063,0|8,0:0|0:0,0:0:0:0:
37,380,57274,2,0,P|91:289|197:296,1,223.999993164063,0|0,0:0|0:0,0:0:0:0:
355,228,57788,2,0,P|299:233|248:212,1,111.999996582031,8|0,0:0|0:0,0:0:0:0:
182,13,58131,70,0,P|237:104|343:96,1,223.999993164063,0|8,0:0|0:0,0:0:0:0:
489,39,58645,1,0,0:0:0:0:
453,242,58817,6,0,P|431:192|430:136,1,111.999996582031,0|0,0:0|0:0,0:0:0:0:
152,178,59159,2,0,P|191:138|210:86,1,111.999996582031,8|0,0:0|0:0,0:0:0:0:
320,364,59502,70,0,P|310:309|325:255,1,111.999996582031,4|2,0:0|0:0,0:0:0:0:
325,255,59759,1,2,0:0:0:0:
325,255,59845,1,8,0:0:0:0:
217,94,60017,1,2,0:0:0:0:
217,94,60102,1,2,0:0:0:0:
217,94,60188,1,8,0:0:0:0:
92,279,60359,1,2,0:0:0:0:
92,279,60445,1,2,0:0:0:0:
92,279,60531,1,12,0:0:0:0:
92,279,60617,1,4,0:0:0:0:
92,279,60702,1,4,0:0:0:0:
92,279,60788,1,4,0:0:0:0:
92,279,60874,6,0,P|103:215|97:157,2,111.999996582031,4|0|8,0:0|0:0|0:0,0:0:0:0:
65,34,61388,69,0,0:0:0:0:
217,94,61559,2,0,P|271:82|324:63,1,111.999996582031,0|0,0:0|0:0,0:0:0:0:
486,287,61902,5,8,0:0:0:0:
372,196,62074,2,0,P|319:176|264:165,1,111.999996582031,0|0,0:0|0:0,0:0:0:0:
70,363,62417,69,0,0:0:0:0:
177,280,62589,2,0,P|229:260|284:249,1,111.999996582031,8|0,0:0|0:0,0:0:0:0:
61,176,62931,6,0,P|49:124|46:56,1,111.999996582031,0|0,0:0|0:0,0:0:0:0:
284,249,63274,2,0,P|281:305|269:360,1,111.999996582031,8|0,0:0|0:0,0:0:0:0:
175,134,63617,69,0,0:0:0:0:
264,27,63788,2,0,P|319:21|375:23,1,111.999996582031,0|8,0:0|0:0,0:0:0:0:
410,237,64131,5,0,0:0:0:0:
284,153,64302,2,0,P|229:138|174:133,1,111.999996582031,0|0,0:0|0:0,0:0:0:0:
168,359,64645,69,8,0:0:0:0:
303,270,64817,2,0,P|354:249|409:236,1,111.999996582031,0|0,0:0|0:0,0:0:0:0:
512,37,65159,6,0,P|493:100|489:155,1,111.999996582031,0|8,0:0|0:0,0:0:0:0:
512,337,65502,1,0,0:0:0:0:
409,236,65674,70,0,P|357:213|303:201,1,111.999996582031,14|2,0:0|0:0,0:0:0:0:
259,209,65931,1,2,0:0:0:0:
218,229,66017,1,8,0:0:0:0:
172,235,66103,1,2,0:0:0:0:
126,226,66188,1,2,0:0:0:0:
85,204,66274,1,2,0:0:0:0:
54,169,66359,6,0,P|135:132|124:6,1,223.999993164063,4|8,0:0|0:0,0:0:0:0:
382,170,66874,2,0,P|279:143|217:228,1,223.999993164063,0|0,0:0|0:0,0:0:0:0:
512,310,67388,2,0,P|489:268|478:196,1,111.999996582031,8|0,0:0|0:0,0:0:0:0:
201,371,67731,70,0,P|302:342|314:238,1,223.999993164063,0|8,0:0|0:0,0:0:0:0:
364,71,68245,2,0,P|465:100|477:204,1,223.999993164063,0|0,0:0|0:0,0:0:0:0:
265,112,68759,2,0,P|261:57|287:9,1,111.999996582031,8|0,0:0|0:0,0:0:0:0:
417,304,69102,6,0,P|329:237|220:247,2,223.999993164063,0|8|0,0:0|0:0|0:0,0:0:0:0:
458,54,69959,1,0,0:0:0:0:
265,112,70131,2,0,P|209:107|157:87,1,111.999996582031,8|0,0:0|0:0,0:0:0:0:
0,350,70474,69,4,0:0:0:0:
0,23,70645,1,2,0:0:0:0:
0,23,70731,1,2,0:0:0:0:
0,23,70817,1,8,0:0:0:0:
0,23,70902,1,2,0:0:0:0:
0,23,70988,1,2,0:0:0:0:
0,23,71074,1,2,0:0:0:0:
0,22,71159,6,0,B|51:26|51:26|89:9|89:9|140:14,2,143.999995605469,8|0|4,0:0|0:0|0:0,0:0:0:0:
488,66,82817,6,0,P|482:133|480:205,1,128,0|8,0:0|0:0,0:0:0:0:
480,193,83503,1,0,0:0:0:0:
443,353,83675,1,8,0:0:0:0:
443,353,84017,5,8,0:0:0:0:
332,242,84189,2,0,P|278:238|189:238,2,128,0|8|0,0:0|0:0|0:0,0:0:0:0:
443,353,85046,1,0,0:0:0:0:
448,203,85217,2,0,P|434:232|426:263,1,64,12|0,0:2|0:0,0:0:0:0:
305,364,85560,70,0,P|294:300|279:238,1,128,0|8,0:0|0:0,0:0:0:0:
148,129,86075,1,0,0:0:0:0:
134,220,86246,2,0,P|165:218|195:206,1,64,0|8,0:0|0:0,0:0:0:0:
323,157,86588,2,0,P|291:155|261:143,1,64,0|8,0:0|0:0,0:0:0:0:
411,122,86931,6,0,P|412:90|424:60,1,64,0|4,0:0|0:0,0:0:0:0:
424,60,87189,1,4,0:0:0:0:
424,60,87275,1,12,0:0:0:0:
424,60,87360,1,6,0:0:0:0:
424,60,87446,1,6,0:0:0:0:
424,60,87532,1,6,0:0:0:0:
424,60,87617,70,0,L|499:48,1,64,4|4,0:0|0:0,0:0:0:0:
487,49,87875,1,4,0:0:0:0:
487,49,87959,1,12,0:0:0:0:
485,159,88131,1,4,0:0:0:0:
358,154,88303,6,0,P|422:155|486:160,1,128,0|8,0:0|0:0,0:0:0:0:
486,160,88989,1,0,0:0:0:0:
364,277,89159,1,8,0:0:0:0:
364,277,89503,69,8,0:0:0:0:
242,182,89675,2,0,P|242:118|246:54,2,128,0|8|0,0:0|0:0|0:0,0:0:0:0:
172,261,90532,2,0,P|163:230|150:200,1,64,0|12,0:0|0:2,0:0:0:0:
124,347,90874,1,0,0:0:0:0:
252,355,91046,6,0,P|188:348|125:347,1,128,0|8,0:0|0:0,0:0:0:0:
27,246,91559,2,0,P|39:300|40:321,1,64,0|0,0:0|0:0,0:0:0:0:
73,170,91902,2,0,P|77:138|85:107,1,64,8|0,0:0|0:0,0:0:0:0:
162,63,92245,1,8,0:0:0:0:
274,145,92417,69,0,0:0:0:0:
274,145,92589,1,0,0:0:0:0:
366,64,92760,1,8,0:0:0:0:
366,64,92932,1,0,0:0:0:0:
449,212,93103,5,2,0:0:0:0:
449,212,93189,1,2,0:0:0:0:
449,212,93275,1,2,0:0:0:0:
449,212,93360,1,2,0:0:0:0:
449,212,93445,70,0,L|454:171,1,32
448,108,93617,2,0,L|442:67,1,32,0|0,0:0|0:0,0:0:0:0:
350,142,93788,38,0,P|315:136|279:136,1,71.9999978027344,4|0,0:0|0:0,0:0:0:0:
212,191,94131,1,8,0:0:0:0:
128,205,94302,1,0,0:0:0:0:
48,175,94474,2,0,P|47:144|41:103,1,71.9999978027344,0|8,0:0|0:0,0:0:0:0:
212,191,94816,1,0,0:0:0:0:
128,205,94988,1,8,0:0:0:0:
98,284,95159,54,0,P|87:314|77:353,1,71.9999978027344,0|0,0:0|0:0,0:0:0:0:
213,338,95502,2,0,P|197:305|179:275,1,71.9999978027344,8|0,0:0|0:0,0:0:0:0:
48,175,95845,1,0,0:0:0:0:
128,205,96016,1,0,0:0:0:0:
212,191,96188,2,0,P|220:154|224:113,1,71.9999978027344,12|0,0:2|0:0,0:0:0:0:
354,127,96531,22,0,P|346:91|342:49,1,71.9999978027344,0|0,0:0|0:0,0:0:0:0:
413,4,96874,1,8,0:0:0:0:
497,18,97045,1,0,0:0:0:0:
432,157,97217,2,0,P|439:124|443:86,1,71.9999978027344,0|8,0:0|0:0,0:0:0:0:
413,4,97559,1,0,0:0:0:0:
497,18,97731,1,8,0:0:0:0:
342,54,97902,54,0,P|307:52|271:47,1,71.9999978027344,0|0,0:0|0:0,0:0:0:0:
241,43,98159,1,0,0:0:0:0:
211,40,98245,1,8,0:0:0:0:
181,37,98331,1,2,0:0:0:0:
151,34,98416,1,2,0:0:0:0:
121,31,98502,1,0,0:0:0:0:
92,27,98588,22,0,P|100:71|110:114,1,71.9999978027344,0|0,0:0|0:0,0:0:0:0:
94,113,98845,2,0,P|98:138|100:164,1,35.9999989013672,0|8,0:0|0:0,0:0:0:0:
94,113,99274,54,0,P|99:151|100:200,1,71.9999978027344,0|0,0:0|0:0,0:0:0:0:
198,241,99617,1,8,0:0:0:0:
100,184,99788,1,0,0:0:0:0:
114,340,99959,2,0,P|119:302|120:253,1,71.9999978027344,0|8,0:0|0:0,0:0:0:0:
18,222,100302,1,0,0:0:0:0:
120,268,100474,1,8,0:0:0:0:
224,112,100645,22,0,P|200:142|175:184,1,71.9999978027344,0|0,0:0|0:0,0:0:0:0:
311,222,100988,2,0,P|316:184|317:135,1,71.9999978027344,8|0,0:0|0:0,0:0:0:0:
395,47,101331,1,0,0:0:0:0:
317,150,101502,1,0,0:0:0:0:
267,4,101674,2,0,P|281:37|292:71,1,71.9999978027344,12|0,0:2|0:0,0:0:0:0:
406,202,102017,54,0,P|407:166|412:130,1,71.9999978027344,0|0,0:0|0:0,0:0:0:0:
292,71,102360,1,8,0:0:0:0:
412,130,102531,1,0,0:0:0:0:
297,158,102702,1,0,0:0:0:0:
412,130,102874,1,0,0:0:0:0:
328,238,103045,1,8,0:0:0:0:
328,238,103217,1,0,0:0:0:0:
457,302,103388,5,8,0:0:0:0:
252,2,103616,1,8,0:0:0:0:
95,329,103845,1,8,0:0:0:0:
46,33,104074,5,8,0:0:0:0:
319,362,105102,2,0,L|447:367,2,120.000004577637,0|0|8,0:0|0:0|0:0,0:0:0:0:
78,345,106131,6,0,P|185:344|208:235,1,223.999993164063,4|8,0:0|0:0,0:0:0:0:
404,158,106645,2,0,P|302:181|250:90,1,223.999993164063,0|0,0:0|0:0,0:0:0:0:
60,113,107160,2,0,P|129:158|191:159,1,111.999996582031,8|0,0:0|0:0,0:0:0:0:
299,344,107502,6,0,P|247:253|145:276,1,223.999993164063,0|8,0:0|0:0,0:0:0:0:
3,229,108017,2,0,P|54:138|156:161,1,223.999993164063,0|0,0:0|0:0,0:0:0:0:
320,94,108531,2,0,P|264:96|209:84,1,111.999996582031,8|0,0:0|0:0,0:0:0:0:
423,245,108874,70,0,P|409:138|484:60,1,223.999993164063,0|8,0:0|0:0,0:0:0:0:
265,0,109388,1,0,0:0:0:0:
127,108,109560,6,0,P|72:98|21:74,1,111.999996582031,0|0,0:0|0:0,0:0:0:0:
302,167,109903,2,0,P|354:146|409:142,1,111.999996582031,8|0,0:0|0:0,0:0:0:0:
105,197,110245,70,0,P|50:206|0:230,1,111.999996582031,0|0,0:0|0:0,0:0:0:0:
318,287,110588,2,0,P|370:268|415:235,1,111.999996582031,8|0,0:0|0:0,0:0:0:0:
137,323,110931,6,0,P|81:327|26:316,1,111.999996582031,12|2,0:0|0:0,0:0:0:0:
42,272,111188,1,2,0:0:0:0:
75,241,111274,1,8,0:0:0:0:
120,228,111360,1,2,0:0:0:0:
165,237,111445,1,2,0:0:0:0:
201,266,111531,1,2,0:0:0:0:
220,308,111617,70,0,P|324:337|379:238,1,223.999993164063,4|8,0:0|0:0,0:0:0:0:
512,138,112131,2,0,P|408:166|353:67,1,223.999993164063,0|0,0:0|0:0,0:0:0:0:
165,154,112646,2,0,P|216:132|271:137,1,111.999996582031,8|0,0:0|0:0,0:0:0:0:
232,365,112988,6,0,P|327:318|329:211,1,223.999993164063,0|8,0:0|0:0,0:0:0:0:
227,59,113503,2,0,P|172:150|66:142,1,223.999993164063,0|0,0:0|0:0,0:0:0:0:
0,293,114017,2,0,P|56:288|107:309,1,111.999996582031,8|0,0:0|0:0,0:0:0:0:
402,307,114360,70,0,P|347:216|241:224,1,223.999993164063,0|8,0:0|0:0,0:0:0:0:
43,371,114874,1,0,0:0:0:0:
67,75,115046,6,0,P|89:125|90:181,1,111.999996582031,0|0,0:0|0:0,0:0:0:0:
407,198,115388,2,0,P|358:226|327:271,1,111.999996582031,8|0,0:0|0:0,0:0:0:0:
212,2,115731,70,0,P|207:57|178:105,1,111.999996582031,4|2,0:0|0:0,0:0:0:0:
178,104,115988,1,2,0:0:0:0:
178,104,116074,1,8,0:0:0:0:
208,309,116246,1,2,0:0:0:0:
208,309,116331,1,2,0:0:0:0:
208,309,116417,1,8,0:0:0:0:
429,220,116588,1,2,0:0:0:0:
429,220,116674,1,2,0:0:0:0:
429,220,116760,1,12,0:0:0:0:
429,220,116846,1,4,0:0:0:0:
429,220,116931,1,4,0:0:0:0:
429,220,117017,1,4,0:0:0:0:
429,220,117103,6,0,P|441:283|440:351,2,111.999996582031,4|0|8,0:0|0:0|0:0,0:0:0:0:
222,99,117617,69,0,0:0:0:0:
374,39,117788,2,0,P|428:51|481:70,1,111.999996582031,0|0,0:0|0:0,0:0:0:0:
439,257,118131,5,8,0:0:0:0:
329,129,118303,2,0,P|276:109|221:98,1,111.999996582031,0|0,0:0|0:0,0:0:0:0:
168,313,118646,69,0,0:0:0:0:
275,230,118818,2,0,P|327:210|382:199,1,111.999996582031,8|0,0:0|0:0,0:0:0:0:
124,173,119160,6,0,P|112:121|109:53,1,111.999996582031,0|0,0:0|0:0,0:0:0:0:
382,198,119503,2,0,P|379:253|367:308,1,111.999996582031,8|0,0:0|0:0,0:0:0:0:
206,113,119846,69,0,0:0:0:0:
311,33,120017,2,0,P|366:27|422:29,1,111.999996582031,0|8,0:0|0:0,0:0:0:0:
382,238,120360,5,0,0:0:0:0:
316,133,120531,2,0,P|261:118|206:113,1,111.999996582031,0|0,0:0|0:0,0:0:0:0:
122,359,120874,69,8,0:0:0:0:
188,256,121046,2,0,P|239:235|294:222,1,111.999996582031,0|0,0:0|0:0,0:0:0:0:
19,141,121388,6,0,P|36:87|42:32,1,111.999996582031,0|8,0:0|0:0,0:0:0:0:
59,272,121731,1,0,0:0:0:0:
157,106,121903,70,0,P|209:83|263:71,1,111.999996582031,12|2,0:0|0:0,0:0:0:0:
307,79,122160,1,2,0:0:0:0:
348,99,122246,1,8,0:0:0:0:
394,105,122332,1,2,0:0:0:0:
440,96,122417,1,2,0:0:0:0:
481,74,122503,1,2,0:0:0:0:
511,38,122588,6,0,P|411:72|402:177,1,223.999993164063,4|8,0:0|0:0,0:0:0:0:
255,222,123102,2,0,P|355:255|364:360,1,223.999993164063,0|0,0:0|0:0,0:0:0:0:
158,272,123617,2,0,P|155:223|178:155,1,111.999996582031,8|0,0:0|0:0,0:0:0:0:
394,57,123960,70,0,P|297:100|221:27,1,223.999993164063,0|8,0:0|0:0,0:0:0:0:
15,90,124474,2,0,P|119:73|173:163,1,223.999993164063,0|0,0:0|0:0,0:0:0:0:
99,351,124988,2,0,P|95:295|121:247,1,111.999996582031,8|0,0:0|0:0,0:0:0:0:
417,351,125331,6,0,P|329:284|220:294,2,223.999993164063,0|8|0,0:0|0:0|0:0,0:0:0:0:
512,189,126188,1,0,0:0:0:0:
339,83,126360,2,0,P|283:78|231:58,1,111.999996582031,8|0,0:0|0:0,0:0:0:0:
61,246,126703,69,4,0:0:0:0:
475,121,126874,1,2,0:0:0:0:
475,121,126960,1,2,0:0:0:0:
475,121,127046,1,8,0:0:0:0:
475,121,127131,1,2,0:0:0:0:
475,121,127217,1,2,0:0:0:0:
475,121,127303,1,2,0:0:0:0:
475,121,127388,6,0,B|471:81|471:81|485:51|485:51|481:12,2,111.999996582031,8|0|4,0:0|0:0|0:0,0:0:0:0:
185,49,139045,22,0,P|151:39|115:38,1,71.9999978027344,0|0,0:0|0:0,0:0:0:0:
224,125,139388,2,0,P|258:115|294:114,1,71.9999978027344,8|0,0:0|0:0,0:0:0:0:
449,67,139731,1,0,0:0:0:0:
365,125,139902,2,0,P|329:123|294:114,1,71.9999978027344,8|0,0:0|0:0,0:0:0:0:
165,191,140245,1,8,0:0:0:0:
334,221,140417,21,0,0:0:0:0:
334,221,140588,1,0,0:0:0:0:
290,311,140759,2,0,P|254:312|219:321,1,71.9999978027344,8|2,0:0|0:0,0:0:0:0:
219,320,141017,1,2,0:0:0:0:
219,320,141102,1,2,0:0:0:0:
219,320,141188,1,2,0:0:0:0:
219,320,141274,1,2,0:0:0:0:
219,320,141359,1,2,0:0:0:0:
219,320,141445,1,2,0:0:0:0:
219,320,141531,1,2,0:0:0:0:
219,320,141617,1,2,0:0:0:0:
219,320,141702,1,2,0:0:0:0:
219,320,141788,54,0,P|227:285|228:249,1,71.9999978027344,0|0,0:0|0:0,0:0:0:0:
294,376,142131,2,0,P|328:367|364:366,1,71.9999978027344,8|0,0:0|0:0,0:0:0:0:
449,244,142474,1,0,0:0:0:0:
381,287,142645,2,0,P|345:286|310:277,1,71.9999978027344,8|0,0:0|0:0,0:0:0:0:
157,239,142988,22,0,P|193:240|228:249,1,71.9999978027344,8|0,0:0|0:0,0:0:0:0:
354,178,143331,1,0,0:0:0:0:
312,151,143502,2,0,P|276:152|241:161,1,71.9999978027344,8|0,0:0|0:0,0:0:0:0:
241,160,143759,1,0,0:0:0:0:
241,160,143845,1,2,0:0:0:0:
241,160,143931,1,2,0:0:0:0:
241,160,144017,1,2,0:0:0:0:
241,160,144102,1,2,0:0:0:0:
241,160,144188,1,0,0:0:0:0:
241,160,144274,1,0,0:0:0:0:
241,160,144359,1,0,0:0:0:0:
241,160,144445,1,0,0:0:0:0:
241,160,144531,54,0,P|249:125|250:89,1,71.9999978027344,0|0,0:0|0:0,0:0:0:0:
102,32,144874,2,0,P|137:23|173:23,1,71.9999978027344,8|0,0:0|0:0,0:0:0:0:
250,89,145217,1,0,0:0:0:0:
349,74,145388,2,0,P|366:42|376:8,1,71.9999978027344,8|0,0:0|0:0,0:0:0:0:
404,146,145731,1,8,0:0:0:0:
500,99,145902,21,0,0:0:0:0:
500,99,146074,1,0,0:0:0:0:
512,236,146245,2,0,P|503:270|502:306,1,71.9999978027344,8|2,0:0|0:0,0:0:0:0:
502,306,146503,1,2,0:0:0:0:
502,306,146588,1,2,0:0:0:0:
502,306,146674,1,2,0:0:0:0:
502,306,146760,1,2,0:0:0:0:
502,306,146845,1,2,0:0:0:0:
502,306,146931,1,2,0:0:0:0:
502,306,147017,1,2,0:0:0:0:
502,306,147103,1,2,0:0:0:0:
502,306,147188,1,2,0:0:0:0:
502,306,147274,54,0,P|459:294|429:295,1,71.9999978027344,0|0,0:0|0:0,0:0:0:0:
268,323,147617,2,0,P|303:334|339:335,1,71.9999978027344,8|0,0:0|0:0,0:0:0:0:
402,202,147960,1,0,0:0:0:0:
319,241,148131,2,0,P|284:230|253:212,1,71.9999978027344,8|0,0:0|0:0,0:0:0:0:
135,136,148474,22,0,P|171:137|206:146,1,71.9999978027344,8|0,0:0|0:0,0:0:0:0:
253,213,148817,1,0,0:0:0:0:
354,112,148988,2,0,P|319:121|287:138,1,71.9999978027344,8|0,0:0|0:0,0:0:0:0:
201,23,149331,69,8,0:0:0:0:
227,24,149445,2,0,L|240:78,1,47.9999985351563,2|2,0:0|0:0,0:0:0:0:
135,136,149674,5,8,0:0:0:0:
109,137,149788,2,0,L|96:191,1,47.9999985351563,2|2,0:0|0:0,0:0:0:0:
207,230,150017,6,0,P|235:289|246:363,1,132.00000402832,4|0,0:0|0:0,0:0:0:0:
245,354,150359,2,0,P|290:345|353:335,1,88.000002685547,0|0,0:0|0:0,0:0:0:0:
492,219,150702,69,8,0:0:0:0:
471,359,150874,1,0,0:0:0:0:
352,198,151045,1,0,0:0:0:0:
331,338,151217,1,8,0:0:0:0:
176,254,151388,6,0,P|230:254|320:268,1,132.00000402832,0|0,0:0|0:0,0:0:0:0:
307,265,151731,2,0,P|258:274|208:279,1,88.000002685547,0|0,0:0|0:0,0:0:0:0:
352,198,152074,2,0,P|310:169|272:137,1,88.000002685547,8|0,0:0|0:0,0:0:0:0:
431,182,152417,2,0,P|421:133|417:83,1,88.000002685547,0|0,0:0|0:0,0:0:0:0:
227,53,152759,70,0,P|313:54|380:0,2,176.000005371094,0|0|8,0:0|0:0|0:0,0:0:0:0:
62,33,153617,1,0,0:0:0:0:
136,68,153788,2,0,P|160:110|171:159,1,88.000002685547,0|2,0:0|0:0,0:0:0:0:
272,118,154131,2,0,P|252:163|245:212,1,88.000002685547,0|0,0:0|0:0,0:0:0:0:
91,193,154474,2,0,P|133:217|167:254,1,88.000002685547,0|0,0:0|0:0,0:0:0:0:
75,353,154817,5,8,0:0:0:0:
0,198,154988,1,0,0:0:0:0:
160,245,155159,1,8,0:0:0:0:
0,198,155331,1,0,0:0:0:0:
158,327,155502,70,0,P|209:322|290:326,1,132.00000402832,0|0,0:0|0:0,0:0:0:0:
289,325,155845,2,0,P|293:284|298:226,1,88.000002685547,0|0,0:0|0:0,0:0:0:0:
440,84,156188,5,8,0:0:0:0:
445,232,156359,1,0,0:0:0:0:
297,237,156531,1,0,0:0:0:0:
292,89,156702,1,8,0:0:0:0:
115,159,156874,70,0,P|162:156|254:165,1,132.00000402832,0|0,0:0|0:0,0:0:0:0:
246,163,157217,2,0,P|191:192|163:210,1,88.000002685547,0|0,0:0|0:0,0:0:0:0:
376,113,157559,2,0,P|316:94|284:87,1,88.000002685547,8|0,0:0|0:0,0:0:0:0:
503,169,157902,2,0,P|474:113|456:86,1,88.000002685547,0|0,0:0|0:0,0:0:0:0:
479,260,158245,6,0,P|430:226|295:210,2,176.000005371094,0|0|8,0:0|0:0|0:0,0:0:0:0:
505,373,159102,1,0,0:0:0:0:
430,331,159274,2,0,P|386:324|343:331,1,88.000002685547,0|2,0:0|0:0,0:0:0:0:
220,221,159617,70,0,P|247:255|263:295,1,88.000002685547,0|0,0:0|0:0,0:0:0:0:
113,310,159959,2,0,P|118:266|135:226,1,88.000002685547,0|0,0:0|0:0,0:0:0:0:
343,4,160302,5,8,0:0:0:0:
166,145,160474,1,12,0:0:0:0:
125,12,160645,1,4,0:0:0:0:
125,12,160988,22,0,P|148:58|166:158,1,140,0|0,0:0|0:0,0:0:0:0:
160,165,161674,37,2,0:3:0:0:
154,181,161760,1,2,0:3:0:0:
149,198,161846,1,2,0:3:0:0:
146,216,161931,1,2,0:3:0:0:
145,234,162017,1,2,0:3:0:0:
145,251,162103,1,2,0:3:0:0:
146,269,162189,1,2,0:3:0:0:
149,287,162274,1,2,0:3:0:0:
155,306,162359,6,0,P|268:341|333:236,1,240.000009155274,4|8,0:0|0:0,0:0:0:0:
458,141,162874,2,0,P|345:176|280:71,1,240.000009155274,0|0,0:0|0:0,0:0:0:0:
167,132,163388,2,0,P|199:65|200:20,1,120.000004577637,8|0,0:0|0:0,0:0:0:0:
0,205,163731,6,0,P|112:196|159:299,1,240.000009155274,0|8,0:0|0:0,0:0:0:0:
288,349,164245,2,0,P|390:302|382:189,1,240.000009155274,0|0,0:0|0:0,0:0:0:0:
269,116,164759,2,0,P|231:70|232:11,1,120.000004577637,8|0,0:0|0:0,0:0:0:0:
230,285,165102,70,0,P|211:175|100:167,1,240.000009155274,0|8,0:0|0:0,0:0:0:0:
31,322,165616,1,0,0:0:0:0:
284,368,165788,6,0,P|339:342|399:331,1,120.000004577637,0|0,0:0|0:0,0:0:0:0:
113,265,166131,2,0,P|50:235|-17:223,1,120.000004577637,8|0,0:0|0:0,0:0:0:0:
376,251,166474,70,0,P|422:211|478:185,1,120.000004577637,0|0,0:0|0:0,0:0:0:0:
100,167,166817,2,0,P|66:118|20:79,1,120.000004577637,8|0,0:0|0:0,0:0:0:0:
421,114,167159,6,0,P|441:56|476:6,1,120.000004577637,12|2,0:0|0:0,0:0:0:0:
494,42,167416,1,2,0:0:0:0:
504,81,167502,1,8,0:0:0:0:
502,121,167588,1,2,0:0:0:0:
490,159,167673,1,2,0:0:0:0:
467,192,167759,1,2,0:0:0:0:
435,215,167845,70,0,P|315:225|298:325,1,240.000009155274,4|8,0:0|0:0,0:0:0:0:
165,373,168359,2,0,P|195:265|99:209,1,240.000009155274,0|0,0:0|0:0,0:0:0:0:
14,41,168874,2,0,P|9:111|36:170,1,120.000004577637,8|0,0:0|0:0,0:0:0:0:
244,192,169216,6,0,P|130:185|72:283,1,240.000009155274,0|8,0:0|0:0,0:0:0:0:
237,281,169731,2,0,P|350:274|409:372,1,240.000009155274,0|0,0:0|0:0,0:0:0:0:
512,189,170245,2,0,P|486:245|483:314,1,120.000004577637,8|0,0:0|0:0,0:0:0:0:
293,163,170588,70,0,P|399:171|459:57,1,240.000009155274,0|8,0:0|0:0,0:0:0:0:
303,19,171102,1,0,0:0:0:0:
160,85,171274,6,0,P|105:62|34:60,1,120.000004577637,0|0,0:0|0:0,0:0:0:0:
213,249,171617,2,0,P|245:199|293:162,1,120.000004577637,8|0,0:0|0:0,0:0:0:0:
512,367,171959,70,0,P|508:307|485:251,1,120.000004577637,8|2,0:0|0:0,0:0:0:0:
485,252,172217,1,2,0:0:0:0:
485,252,172302,1,8,0:0:0:0:
485,252,172388,1,2,0:0:0:0:
485,252,172473,1,2,0:0:0:0:
485,252,172559,1,2,0:0:0:0:
485,252,172644,1,4,0:0:0:0:
485,252,172731,1,4,0:0:0:0:
485,252,172816,1,4,0:0:0:0:
485,252,172902,1,4,0:0:0:0:
485,252,172987,1,4,0:0:0:0:
485,252,173074,1,4,0:0:0:0:
485,252,173159,1,4,0:0:0:0:
485,252,173245,1,4,0:0:0:0:
485,252,173331,6,0,P|487:192|497:126,2,120.000004577637,4|0|8,0:0|0:0|0:0,0:0:0:0:
244,188,173845,69,0,0:0:0:0:
345,60,174016,2,0,P|397:43|470:31,1,120.000004577637,0|0,0:0|0:0,0:0:0:0:
359,268,174359,5,8,0:0:0:0:
282,110,174531,2,0,P|229:90|163:80,1,120.000004577637,0|0,0:0|0:0,0:0:0:0:
227,328,174874,69,0,0:0:0:0:
329,186,175046,2,0,P|381:166|447:155,1,120.000004577637,8|0,0:0|0:0,0:0:0:0:
42,155,175388,6,0,P|29:96|27:36,1,120.000004577637,0|0,0:0|0:0,0:0:0:0:
329,186,175731,2,0,P|341:244|343:304,1,120.000004577637,8|0,0:0|0:0,0:0:0:0:
55,271,176074,69,0,0:0:0:0:
146,69,176245,2,0,P|201:63|266:69,1,120.000004577637,0|8,0:0|0:0,0:0:0:0:
263,311,176588,5,0,0:0:0:0:
159,175,176759,2,0,P|104:160|39:155,1,120.000004577637,0|0,0:0|0:0,0:0:0:0:
0,368,177102,69,8,0:0:0:0:
175,258,177274,2,0,P|226:237|297:221,1,120.000004577637,0|0,0:0|0:0,0:0:0:0:
457,34,177616,6,0,P|424:84|403:140,1,120.000004577637,0|8,0:0|0:0,0:0:0:0:
434,372,177959,1,0,0:0:0:0:
288,222,178131,70,0,P|236:199|167:188,1,120.000004577637,12|2,0:0|0:0,0:0:0:0:
132,219,178388,1,2,0:0:0:0:
80,217,178474,1,8,0:0:0:0:
41,182,178560,1,2,0:0:0:0:
33,130,178645,1,2,0:0:0:0:
61,86,178731,1,2,0:0:0:0:
110,69,178817,6,0,P|212:101|299:-1,1,240.000009155274,4|8,0:0|0:0,0:0:0:0:
512,37,179331,2,0,P|407:60|383:192,1,240.000009155274,0|0,0:0|0:0,0:0:0:0:
467,356,179845,2,0,P|482:295|472:230,1,120.000004577637,8|0,0:0|0:0,0:0:0:0:
385,18,180188,70,0,P|332:119|218:118,1,240.000009155274,0|8,0:0|0:0,0:0:0:0:
13,32,180702,2,0,P|112:88|107:202,1,240.000009155274,0|0,0:0|0:0,0:0:0:0:
0,367,181216,2,0,P|-4:312|38:267,1,120.000004577637,8|0,0:0|0:0,0:0:0:0:
388,310,181559,6,0,P|262:332|176:265,2,240.000009155274,0|8|0,0:0|0:0|0:0,0:0:0:0:
512,173,182416,1,0,0:0:0:0:
364,37,182588,2,0,P|310:18|242:18,1,120.000004577637,8|0,0:0|0:0,0:0:0:0:
0,357,182931,69,4,0:0:0:0:
36,54,183102,1,2,0:0:0:0:
36,54,183188,1,2,0:0:0:0:
36,54,183274,1,8,0:0:0:0:
36,54,183359,1,2,0:0:0:0:
36,54,183445,1,2,0:0:0:0:
36,54,183531,1,2,0:0:0:0:
36,54,183617,6,0,P|49:80|51:110,3,60.0000022888184,12|4|4|4,0:0|0:0|0:0|0:0,0:0:0:0:
105,164,183959,1,12,0:0:0:0:
149,161,184044,1,6,0:0:0:0:
194,159,184130,1,6,0:0:0:0:
239,156,184216,1,6,0:0:0:0:
284,154,184302,69,4,0:0:0:0:
394,229,184474,1,0,0:0:0:0:
415,16,184645,2,0,P|404:58|398:102,1,88.000002685547,8|0,0:0|0:0,0:0:0:0:
505,259,184988,2,0,P|499:215|488:172,1,88.000002685547,0|8,0:0|0:0,0:0:0:0:
388,344,185331,1,0,0:0:0:0:
288,236,185502,1,8,0:0:0:0:
114,361,185674,6,0,P|156:350|200:344,1,88.000002685547,0|0,0:0|0:0,0:0:0:0:
23,305,186017,2,0,P|12:262|6:218,1,88.000002685547,8|0,0:0|0:0,0:0:0:0:
189,115,186359,1,0,0:0:0:0:
232,181,186531,70,0,P|249:166|262:148,1,44.0000013427735,2|2,0:0|0:0,0:0:0:0:
224,43,186702,2,0,P|203:36|181:33,1,44.0000013427735,8|2,0:0|0:0,0:0:0:0:
109,120,186874,2,0,P|113:141|122:161,1,44.0000013427735,2|2,0:0|0:0,0:0:0:0:
232,181,187045,6,0,P|275:171|319:185,1,88.000002685547,0|0,0:0|0:0,0:0:0:0:
122,161,187388,2,0,P|89:132|47:121,1,88.000002685547,8|0,0:0|0:0,0:0:0:0:
159,267,187731,2,0,P|161:310|142:350,1,88.000002685547,0|8,0:0|0:0,0:0:0:0:
232,181,188073,1,0,0:0:0:0:
333,337,188245,1,8,0:0:0:0:
399,145,188417,70,0,P|372:179|362:222,1,88.000002685547,0|0,0:0|0:0,0:0:0:0:
214,331,188759,2,0,P|193:292|158:266,1,88.000002685547,8|0,0:0|0:0,0:0:0:0:
2,152,189102,1,8,0:0:0:0:
44,144,189187,1,2,0:0:0:0:
75,113,189273,1,2,0:0:0:0:
82,70,189359,1,2,0:0:0:0:
64,32,189444,1,8,0:0:0:0:
64,32,189788,6,0,P|104:35|160:12,1,95.9999970703126,4|0,0:0|0:0,0:0:0:0:
202,172,190131,2,0,P|207:124|233:84,1,95.9999970703126,8|0,0:0|0:0,0:0:0:0:
255,263,190474,2,0,P|298:281|346:279,1,95.9999970703126,0|8,0:0|0:0,0:0:0:0:
475,139,190816,1,0,0:0:0:0:
314,172,190988,1,8,0:0:0:0:
465,274,191159,69,0,0:0:0:0:
382,82,191331,1,0,0:0:0:0:
215,159,191502,2,0,P|169:150|111:141,1,95.9999970703126,8|0,0:0|0:0,0:0:0:0:
72,305,191845,1,0,0:0:0:0:
0,268,192017,6,0,P|11:252|39:228,1,47.9999985351563,2|2,0:0|0:0,0:0:0:0:
142,261,192188,2,0,P|150:279|156:315,1,47.9999985351563,8|2,0:0|0:0,0:0:0:0:
76,386,192359,2,0,P|56:384|23:372,1,47.9999985351563,2|2,0:0|0:0,0:0:0:0:
32,233,192531,70,0,P|45:187|35:140,1,95.9999970703126,0|0,0:0|0:0,0:0:0:0:
155,306,192874,2,0,P|187:271|233:256,1,95.9999970703126,8|0,0:0|0:0,0:0:0:0:
449,304,193216,5,0,0:0:0:0:
239,340,193388,1,8,0:0:0:0:
394,155,193559,69,0,0:0:0:0:
232,256,193731,1,8,0:0:0:0:
307,58,193902,5,0,0:0:0:0:
140,166,194074,1,2,0:0:0:0:
116,170,194159,1,2,0:0:0:0:
93,165,194245,1,8,0:0:0:0:
73,152,194331,1,2,0:0:0:0:
59,132,194416,1,2,0:0:0:0:
54,109,194502,1,2,0:0:0:0:
58,85,194588,53,4,0:2:0:0:
45,230,194759,1,4,0:2:0:0:
32,375,194931,1,4,0:2:0:0:
